osu file format v14

[General]
AudioFilename: CaliburnE.mp3
AudioLeadIn: 0
PreviewTime: 212
Countdown: 0
SampleSet: Soft
StackLeniency: 0.5
Mode: 0
LetterboxInBreaks: 0
WidescreenStoryboard: 0

[Editor]
Bookmarks: 212,30843,61159,68738,76317,99054,112317,129370,140136
DistanceSpacing: 0.8
BeatDivisor: 4
GridSize: 4
TimelineZoom: 3.4

[Metadata]
Title:Caliburne ~Story of the Legendary sword~
TitleUnicode:Caliburne ~Story of the Legendary sword~
Artist:Project Grimoire
ArtistUnicode:Project Grimoire
Creator:gokugohan12468
Version:COLLAB STANDARD
Source:maimai ORANGE
Tags:Team Grimoire Ice あま猫 Verdammt SEGA Furry SyraxAxoJaxco Plaudible DTM9 Nowa Lokidoki William K William_K Firis Mistlud KuranteMelodii KittyAdventure collab collaboration
BeatmapID:1251715
BeatmapSetID:587024

[Difficulty]
HPDrainRate:4
CircleSize:3.2
OverallDifficulty:4
ApproachRate:5
SliderMultiplier:1.2
SliderTickRate:2

[Events]
//Background and Video events
0,0,"adventure_fantasy_art_landscapes_path_trail_people_flowers_lamps_fire_decay_ruins_trees_forest_1920x1080.jpg",0,0
Video,-1520,"123.mp4"
//Break Periods
//Storyboard Layer 0 (Background)
//Storyboard Layer 1 (Fail)
//Storyboard Layer 2 (Pass)
//Storyboard Layer 3 (Foreground)
//Storyboard Layer 4 (Overlay)
//Storyboard Sound Samples

[TimingPoints]
212,315.789473684211,3,2,1,30,1,0
212,-100,3,2,1,30,0,0
528,315.789473684211,3,2,1,30,1,0
528,-100,3,2,1,30,0,0
8975,-100,3,2,1,10,0,0
9054,-100,3,2,1,30,0,0
11896,-100,3,2,1,80,0,0
12843,-100,3,2,1,80,0,0
13159,-100,3,2,1,80,0,0
30943,-100,3,2,1,80,0,0
46001,-100,3,2,1,80,0,0
61159,-100,3,2,1,80,0,1
62106,-100,3,2,1,80,0,1
62343,-100,3,2,1,10,0,1
62422,-100,3,2,1,80,0,1
62659,-100,3,2,1,10,0,1
62738,-100,3,2,1,80,0,1
63054,-100,3,2,1,80,0,1
64001,-100,3,2,1,80,0,1
64238,-100,3,2,1,10,0,1
64317,-100,3,2,1,80,0,1
64554,-100,3,2,1,10,0,1
64633,-100,3,2,1,80,0,1
64949,-100,3,2,1,80,0,1
68738,-100,3,2,1,80,0,1
69685,-100,3,2,1,80,0,1
69922,-100,3,2,1,10,0,1
70001,-100,3,2,1,80,0,1
70238,-100,3,2,1,10,0,1
70317,-100,3,2,1,80,0,1
70554,-100,3,2,1,10,0,1
70633,-100,3,2,1,80,0,1
71580,-100,3,2,1,80,0,1
71817,-100,3,2,1,10,0,1
71896,-100,3,2,1,80,0,1
72133,-100,3,2,1,10,0,1
72212,-100,3,2,1,80,0,1
72528,-100,3,2,1,80,0,1
76317,-100,3,2,1,80,0,0
81685,-100,3,2,1,80,0,0
81922,-100,3,2,1,10,0,0
82001,-100,3,2,1,80,0,0
82317,-100,3,2,1,80,0,0
82633,-100,3,2,1,80,0,0
82949,-100,3,2,1,80,0,0
84843,-100,3,2,1,80,0,0
85791,-100,3,2,1,80,0,0
86422,-100,3,2,1,80,0,0
86738,-100,3,2,1,80,0,0
87212,-100,3,2,1,80,0,0
87685,-100,3,2,1,80,0,0
88633,-100,3,2,1,80,0,0
89580,-100,3,2,1,80,0,0
91475,-100,3,2,1,80,0,0
98106,-100,3,2,1,80,0,0
99054,-100,3,2,1,80,0,0
99685,-100,3,2,1,80,0,0
100001,-100,3,2,1,80,0,0
100317,-100,3,2,1,80,0,0
100949,-100,3,2,1,80,0,0
104738,-100,3,2,1,80,0,0
111370,-100,3,2,1,5,0,0
112001,-100,3,2,1,80,0,0
112317,-100,3,2,1,80,0,1
114685,-100,3,2,1,80,0,1
114843,-100,3,2,1,80,0,1
118949,-100,3,2,1,80,0,1
119185,-100,3,2,1,10,0,1
119264,-100,3,2,1,80,0,1
119501,-100,3,2,1,10,0,1
119580,-100,3,2,1,80,0,1
119817,-100,3,2,1,10,0,1
119896,-100,3,2,1,80,0,1
120843,-100,3,2,1,80,0,1
121080,-100,3,2,1,10,0,1
121159,-100,3,2,1,80,0,1
121396,-100,3,2,1,10,0,1
121475,-100,3,2,1,80,0,1
129370,-100,3,2,1,80,0,0
129528,-100,3,2,1,75,0,0
129685,-100,3,2,1,70,0,0
129843,-100,3,2,1,65,0,0
130001,-100,3,2,1,60,0,0
130159,-100,3,2,1,55,0,0
130317,-100,3,2,1,50,0,0
130475,-100,3,2,1,45,0,0
130633,-100,3,2,1,40,0,0
130791,-100,3,2,1,35,0,0
130949,-100,3,2,1,30,0,0
131106,-100,3,2,1,25,0,0
131264,-100,3,2,1,20,0,0
131422,-100,3,2,1,15,0,0
131580,-100,3,2,1,10,0,0
131738,-100,3,2,1,5,0,0
131896,-100,3,2,1,80,0,0
132214,329.67032967033,3,2,1,20,1,0
133203,359.281437125748,3,2,1,20,1,0
134191,-100,3,2,1,5,0,0
134288,394.736842105263,3,2,1,15,1,0
135495,437.956204379562,3,2,1,15,1,0
136387,444.444444444444,3,2,1,15,1,0
136864,545.454545454546,3,2,1,15,1,0
140136,-100,3,2,1,5,0,0

[HitObjects]
460,64,212,5,0,0:0:0:0:
404,124,528,6,0,L|280:120,1,120
216,172,1159,1,0,0:0:0:0:
152,116,1475,2,0,P|116:92|40:108,1,120
8,180,2106,1,0,0:0:0:0:
8,180,2422,6,0,L|16:304,1,120
80,356,3054,1,0,0:0:0:0:
160,328,3370,2,0,B|192:320|192:320|220:328|220:328|252:320|280:328,1,120
352,364,4001,1,0,0:0:0:0:
400,296,4317,6,0,P|420:236|400:180,1,120
332,136,4949,1,0,0:0:0:0:
264,184,5264,2,0,B|184:184|184:184|144:204,1,120
76,244,5896,1,0,0:0:0:0:
12,188,6212,2,0,P|0:120|136:64,1,240
200,112,7159,2,0,B|236:112|260:124|260:124|284:112|320:112,1,120
460,200,8106,6,0,P|424:256|372:264,1,120
304,220,8738,1,0,0:0:0:0:
244,276,9054,2,0,B|200:276|200:276|172:284|172:284|116:284,1,120
52,328,9685,1,0,0:0:0:0:
8,256,10001,6,0,B|0:196|0:196|12:132,1,120
80,88,10633,1,0,0:0:0:0:
152,132,10949,2,0,B|220:132|268:164|268:164|316:132|380:132,1,240
448,180,11896,6,0,P|460:244|444:296,1,120
372,340,12528,1,0,0:0:0:0:
300,300,12843,2,0,P|284:242|296:184,1,120
336,112,13475,1,0,0:0:0:0:
280,52,13791,2,0,B|236:64|192:52|192:52|144:80|144:80|96:64|48:80,1,240
48,164,14738,2,0,B|93:179|141:163|141:163|189:191|189:191|233:179|277:191,1,240
347,144,15685,6,0,P|331:81|351:30,2,120
404,205,16633,2,0,P|420:268|400:319,1,120
327,359,17264,1,0,0:0:0:0:
258,310,17580,6,0,B|200:299|200:299|140:308,1,120
60,336,18212,1,0,0:0:0:0:
37,255,18528,2,0,B|48:197|48:197|39:137,1,120
94,73,19159,1,0,0:0:0:0:
163,119,19475,6,0,B|152:177|152:177|161:237,2,120
229,67,20422,2,0,B|280:44|298:87|347:62,1,120
417,106,21054,1,0,0:0:0:0:
495,135,21370,6,0,P|461:179|395:187,1,120
321,158,22001,1,0,0:0:0:0:
267,222,22317,2,0,L|278:343,2,120
203,166,23264,6,0,P|146:143|86:159,1,120
29,213,23896,1,0,0:0:0:0:
81,278,24212,2,0,P|138:301|198:285,1,120
257,234,24843,1,0,0:0:0:0:
312,297,25159,6,0,L|434:292,2,120
257,234,26106,2,0,P|239:174|257:118,1,120
318,65,26738,1,0,0:0:0:0:
240,33,27054,6,0,B|192:36|192:36|168:62|123:66,1,120
58,112,27685,1,0,0:0:0:0:
127,159,28001,2,0,B|166:162|190:188|190:188|238:191,1,120
300,248,28633,1,0,0:0:0:0:
360,189,28949,2,0,P|377:119|360:70,2,120
300,248,29896,2,0,P|283:318|300:367,2,120
344,176,30843,6,0,P|280:152|232:168,1,120
164,216,31475,1,0,0:0:0:0:
104,160,31791,2,0,P|88:104|112:48,2,120
164,216,32738,2,0,P|172:280|132:348,2,120
233,167,33685,5,0,0:0:0:0:
172,108,34001,2,0,P|228:88|304:116,1,120
348,160,34633,6,0,P|360:224|324:280,2,120
284,104,35580,2,0,P|340:76|404:96,1,120
460,140,36212,1,0,0:0:0:0:
480,224,36528,6,0,L|488:356,1,120
404,364,37159,1,0,0:0:0:0:
340,312,37475,2,0,P|276:296|220:320,1,120
152,352,38106,1,0,0:0:0:0:
72,324,38422,6,0,P|64:264|100:204,1,120
144,148,39054,1,0,0:0:0:0:
220,188,39370,2,0,P|292:196|344:168,2,120
144,148,40317,5,0,0:0:0:0:
76,96,40633,2,0,P|136:68|200:84,1,120
264,112,41264,2,0,P|324:112|376:80,1,120
440,28,41896,1,0,0:0:0:0:
472,108,42212,6,0,L|476:232,1,120
480,312,42843,1,0,0:0:0:0:
404,352,43159,2,0,P|344:360|288:340,1,120
224,288,43791,2,0,P|164:284|108:312,2,120
304,260,44738,1,0,0:0:0:0:
360,196,45054,5,0,0:0:0:0:
296,140,45370,2,0,P|240:128|168:152,1,120
152,224,46001,6,0,P|96:176|92:116,1,120
120,56,46633,1,0,0:0:0:0:
200,28,46949,2,0,L|324:24,1,120
400,56,47580,1,0,0:0:0:0:
460,116,47896,6,0,P|472:176|436:240,1,120
376,268,48528,1,0,0:0:0:0:
292,252,48843,2,0,P|232:232|160:248,1,120
104,284,49475,1,0,0:0:0:0:
64,208,49791,6,0,L|48:88,2,120
104,284,50738,2,0,P|152:328|224:332,1,120
288,316,51370,1,0,0:0:0:0:
352,368,51685,6,0,P|372:312|344:256,1,120
288,200,52317,1,0,0:0:0:0:
224,148,52633,2,0,P|160:132|104:152,1,120
56,212,53264,1,0,0:0:0:0:
110,148,53580,6,0,P|98:88|126:36,1,120
204,8,54212,1,0,0:0:0:0:
276,52,54528,2,0,P|340:60|404:32,1,120
468,4,55159,1,0,0:0:0:0:
472,88,55475,6,0,L|472:212,1,120
452,288,56106,1,0,0:0:0:0:
376,256,56422,2,0,P|316:240|248:256,1,120
184,284,57054,1,0,0:0:0:0:
116,236,57370,6,0,P|96:180|120:112,2,120
184,284,58317,2,0,P|240:264|308:288,2,120
256,192,59264,12,0,60528,0:0:0:0:
464,128,61159,6,0,P|376:124|332:48,1,180
212,12,62106,2,0,L|220:136,1,120
164,196,62738,1,0,0:0:0:0:
80,192,63054,2,0,P|108:260|208:268,1,180
296,184,64001,2,0,B|300:108|300:108|288:64,2,120
344,252,64949,6,0,P|392:284|456:276,1,120
488,204,65580,1,0,0:0:0:0:
496,120,65896,2,0,B|460:108|460:108|372:116,1,120
316,56,66528,1,0,0:0:0:0:
256,112,66843,6,0,B|224:172|276:176|248:232,1,120
192,288,67475,1,0,0:0:0:0:
116,248,67791,2,0,B|56:216|52:268|-4:240,2,120
192,288,68738,6,0,P|292:304|348:208,1,180
332,128,69685,2,0,P|400:140|448:212,2,120
256,160,70633,2,0,P|184:164|128:48,1,180
244,40,71580,2,0,L|364:36,2,120
164,8,72528,6,0,P|100:4|32:72,1,120
24,112,73159,1,0,0:0:0:0:
68,184,73475,2,0,L|80:308,2,120
132,128,74422,6,0,P|196:152|308:40,1,240
376,0,75370,2,0,B|444:80|316:152|416:232,1,240
392,308,76317,6,0,B|344:296|344:296|204:308,1,180
184,340,76949,1,0,0:0:0:0:
128,276,77264,2,0,P|116:224|60:184,1,120
28,108,77896,1,0,0:0:0:0:
84,44,78212,6,0,L|264:52,1,180
292,84,78843,2,0,P|296:116|292:148,1,60
280,184,79159,2,0,B|368:180|368:180|404:192,2,120
212,236,80106,6,0,P|136:212|72:280,1,180
80,320,80738,1,0,0:0:0:0:
156,352,81054,2,0,B|220:348|220:348|264:360|264:360|320:308|388:344,1,240
444,284,82001,6,0,L|436:164,1,120
408,132,82475,2,0,P|376:148|344:152,1,60
268,156,82949,2,0,L|276:36,1,120
192,28,83580,2,0,L|188:88,1,60
156,116,83896,6,0,P|100:140|36:132,2,120
224,164,84843,2,0,L|220:284,2,120
284,104,85791,2,0,P|328:76|396:88,1,120
416,120,86264,1,0,0:0:0:0:
416,120,86422,1,0,0:0:0:0:
448,196,86738,2,0,B|444:276|444:276|428:316,1,120
356,356,87370,2,0,P|328:340|296:336,1,60
260,340,87685,6,0,P|284:284|276:224,1,120
248,200,88159,1,0,0:0:0:0:
248,200,88317,1,0,0:0:0:0:
168,148,88633,2,0,P|161:89|185:34,1,120
224,20,89106,1,0,0:0:0:0:
224,20,89264,1,0,0:0:0:0:
308,24,89580,6,0,L|432:32,1,120
480,96,90212,1,0,0:0:0:0:
484,180,90528,2,0,B|412:172|400:112|400:112|368:172|296:164,1,240
224,128,91475,6,0,P|124:96|76:204,1,240
124,268,92422,2,0,B|176:236|236:268|236:268|300:300|352:256,1,240
388,236,93212,1,0,0:0:0:0:
388,236,93370,6,0,P|404:176|388:116,1,120
360,92,93843,2,0,L|300:100,1,60
224,64,94317,2,0,P|148:36|64:148,1,240
88,180,95106,1,0,0:0:0:0:
88,180,95264,6,0,B|136:168|136:168|272:180,1,180
300,204,95896,1,0,0:0:0:0:
380,236,96212,2,0,P|408:156|364:68,1,180
332,52,96843,1,0,0:0:0:0:
252,32,97159,6,0,B|212:32|212:32|180:44|180:44|132:44,1,120
68,96,97791,1,0,0:0:0:0:
132,152,98106,2,0,P|136:216|128:272,1,120
172,344,98738,2,0,P|204:328|240:324,1,60
268,332,99054,6,0,P|336:344|420:320,1,120
456,292,99685,1,0,0:0:0:0:
412,220,100001,2,0,P|396:160|432:80,2,120
336,256,100949,6,0,P|276:256|208:204,1,120
176,156,101580,1,0,0:0:0:0:
128,88,101896,2,0,P|76:60|8:64,1,120
56,136,102528,1,0,0:0:0:0:
32,216,102843,6,0,P|32:280|84:328,1,120
148,296,103475,2,0,P|216:284|312:316,1,120
332,344,104106,1,0,0:0:0:0:
404,300,104422,1,0,0:0:0:0:
256,192,104738,12,0,109475,0:0:0:0:
256,192,110422,12,0,111370,0:0:0:0:
464,56,112001,5,0,0:0:0:0:
396,124,112317,6,0,B|360:136|360:136|276:132,1,120
244,100,112791,1,0,0:0:0:0:
244,100,112949,1,0,0:0:0:0:
172,164,113264,2,0,P|156:220|172:280,1,120
248,336,113896,1,0,0:0:0:0:
248,336,114054,1,0,0:0:0:0:
248,336,114212,6,0,L|372:328,1,120
404,296,114685,2,0,P|408:264|404:232,1,60
340,168,115159,2,0,B|296:144|272:192|224:164,1,120
132,144,115791,2,0,L|128:204,1,60
80,204,116106,6,0,L|88:328,1,120
176,360,116738,1,0,0:0:0:0:
256,308,117054,2,0,P|304:268|360:272,1,120
436,328,117685,1,0,0:0:0:0:
464,236,118001,6,0,B|472:136|472:136|464:108,1,120
388,64,118633,1,0,0:0:0:0:
316,124,118949,2,0,P|264:80|204:88,1,120
136,136,119580,1,0,0:0:0:0:
104,228,119896,6,0,L|116:364,2,120
32,168,120843,2,0,P|112:196|208:92,1,240
284,36,121791,2,0,L|360:40,1,60
384,12,122106,2,0,B|368:68|368:68|384:136,1,120
432,208,122738,2,0,B|448:264|448:264|433:324,1,120
344,356,123370,2,0,L|264:352,1,60
244,380,123685,6,0,P|224:304|248:260,1,120
300,192,124317,1,0,0:0:0:0:
364,120,124633,2,0,P|385:65|368:9,2,120
300,192,125580,6,0,L|180:188,1,120
96,144,126212,1,0,0:0:0:0:
92,240,126528,2,0,L|88:360,2,120
8,192,127475,6,0,B|56:228|120:180|120:180|176:136|248:188,1,240
176,256,128422,2,0,P|144:164|256:72,1,240
256,192,129370,12,0,131264,0:0:0:0:
484,64,131896,6,0,P|448:76|420:76,1,60
384,72,132214,6,0,L|396:192,1,120
364,220,132708,1,0,0:0:0:0:
364,220,132873,1,0,0:0:0:0:
280,164,133203,2,0,L|288:44,1,120
184,16,133921,1,0,0:0:0:0:
92,60,134288,6,0,P|72:128|88:172,2,120
176,120,135495,2,0,L|300:124,1,120
388,60,136387,1,0,0:0:0:0:
388,60,136609,1,0,0:0:0:0:
256,192,136864,12,0,140136,0:0:0:0:
