osu file format v14

[General]
AudioFilename: audio.mp3
AudioLeadIn: 0
PreviewTime: 83601
Countdown: 0
SampleSet: Soft
StackLeniency: 0.7
Mode: 2
LetterboxInBreaks: 0
WidescreenStoryboard: 0

[Editor]
Bookmarks: 1245,18186,38128,49496,60864,83601,98759,113917,129075,144233,159391,174547,189705,204863,220021,235179,256969,274021,285767
DistanceSpacing: 0.9
BeatDivisor: 8
GridSize: 8
TimelineZoom: 3.799998

[Metadata]
Title:Caliburne ~Story of the Legendary sword~
TitleUnicode:Caliburne ~Story of the Legendary sword~
Artist:Project Grimoire
ArtistUnicode:Project Grimoire
Creator:Kyuare
Version:Legende
Source:maimai ORANGE
Tags:team grimoire ice grimoire of emerald brionac ~lugh lamhfhata~ arthur ~once upon a time~ -tochi
BeatmapID:1637765
BeatmapSetID:779991

[Difficulty]
HPDrainRate:7
CircleSize:4.2
OverallDifficulty:9.4
ApproachRate:9.4
SliderMultiplier:1.9
SliderTickRate:1

[Events]
//Background and Video events
0,0,"66897366_p0.jpg",0,0
//Break Periods
//Storyboard Layer 0 (Background)
//Storyboard Layer 1 (Fail)
//Storyboard Layer 2 (Pass)
//Storyboard Layer 3 (Foreground)
//Storyboard Sound Samples

[TimingPoints]
186,352.941176470588,3,2,1,50,1,0
1245,352.941176470588,3,2,1,50,1,0
15761,400,3,2,1,50,1,0
16545,352.941176470588,3,2,1,50,1,0
17230,315.789473684211,3,2,1,50,1,0
17641,272.727272727273,3,2,1,50,1,0
18186,352.941176470588,3,2,1,50,1,0
38128,315.789473684211,3,2,1,60,1,0
49496,-100,3,2,1,65,0,0
52338,-66.6666666666667,3,2,1,65,0,0
53285,-100,3,2,1,60,0,0
83601,-100,3,2,1,45,0,0
97812,-200,3,2,1,45,0,0
98759,-100,3,2,1,50,0,0
113917,-86.9565217391304,3,2,1,70,0,1
129075,-100,3,2,1,50,0,0
144233,-86.9565217391304,3,2,1,70,0,1
159391,473.634354278497,4,2,1,70,1,0
182127,315.789473684211,3,2,1,70,1,0
189705,-86.9565217391304,3,2,1,75,0,1
220021,-100,3,2,1,60,0,0
235179,-100,3,2,1,55,0,0
242758,-100,3,2,1,60,0,0
256969,-76.9230769230769,3,2,1,75,0,1
263916,-71.4285714285714,3,2,1,75,0,1
264232,-66.6666666666667,3,2,1,75,0,1
264548,-76.9230769230769,3,2,1,80,0,1
274021,-100,3,2,1,70,0,0
276863,-100,3,2,1,50,0,0
277811,329.67032967033,3,2,1,50,1,0
278800,359.281437125748,3,2,1,50,1,0
279885,394.736842105263,3,2,1,50,1,0
281092,437.956204379562,3,2,1,50,1,0
281984,444.444444444444,3,2,1,50,1,0
282495,545.454545454546,3,2,1,50,1,0

[Colours]
Combo1 : 102,253,234
Combo2 : 83,122,187
Combo3 : 154,88,149
Combo4 : 120,94,78

[HitObjects]
376,193,891,5,0,0:0:0:0:
136,281,1244,1,2,0:0:0:0:
41,189,1597,1,0,0:0:0:0:
136,103,1950,1,0,0:0:0:0:
376,103,2303,2,0,L|186:110,2,190,2|0|0,0:0|0:0|0:0,0:0:0:0:
136,103,3362,5,2,0:0:0:0:
231,135,3715,1,0,0:0:0:0:
326,167,4068,1,0,0:0:0:0:
86,258,4421,2,0,L|276:265,2,190,2|0|0,0:0|0:0|0:0,0:0:0:0:
326,167,5480,5,2,0:0:0:0:
231,182,5833,1,0,0:0:0:0:
136,197,6186,1,0,0:0:0:0:
376,264,6539,2,0,L|186:271,2,190,2|0|0,0:0|0:0|0:0,0:0:0:0:
136,197,7597,6,0,L|326:190,2,190,2|0|0,0:0|0:0|0:0,0:0:0:0:
376,197,8656,1,2,0:0:0:0:
376,197,9362,1,2,0:0:0:0:
136,197,9715,5,2,0:0:0:0:
42,141,10068,1,0,0:0:0:0:
136,197,10421,1,0,0:0:0:0:
376,197,10774,2,0,P|461:166|480:73,2,190,2|0|0,0:0|0:0|0:0,0:0:0:0:
136,197,11833,6,0,P|51:166|32:73,2,190,2|0|0,0:0|0:0|0:0,0:0:0:0:
376,197,12892,2,0,L|186:190,2,190,2|0|0,0:0|0:0|0:0,0:0:0:0:
136,197,13950,2,0,L|326:190,2,190,2|0|0,0:0|0:0|0:0,0:0:0:0:
376,200,15009,5,2,0:0:0:0:
251,220,15274,1,0,0:0:0:0:
126,243,15539,1,0,0:0:0:0:
381,219,15761,1,0,0:0:0:0:
251,220,16061,5,2,0:0:0:0:
121,220,16311,1,0,0:0:0:0:
388,245,16545,1,0,0:0:0:0:
251,220,16809,1,0,0:0:0:0:
115,201,17030,5,2,0:0:0:0:
395,273,17230,1,0,0:0:0:0:
251,220,17466,1,2,0:0:0:0:
395,273,17641,1,0,0:0:0:0:
251,221,17845,1,2,0:0:0:0:
106,180,18016,1,0,0:0:0:0:
395,273,18186,5,2,0:0:0:0:
251,221,18362,2,0,L|251:117,1,95
441,139,18891,1,0,0:0:0:0:
253,169,19244,1,0,0:0:0:0:
441,139,19597,2,0,L|445:331,1,190,2|0,0:0|0:0,0:0:0:0:
159,318,20303,6,0,L|155:126,1,190,2|0,0:0|0:0,0:0:0:0:
441,105,21009,2,0,L|251:101,1,190,2|0,0:0|0:0,0:0:0:0:
60,129,21715,2,0,L|63:318,1,190,2|0,0:0|0:0,0:0:0:0:
350,323,22421,6,0,P|439:291|450:206,1,190,2|0,0:0|0:0,0:0:0:0:
260,259,23127,2,0,P|171:227|160:142,1,190,2|0,0:0|0:0,0:0:0:0:
351,83,23833,1,2,0:0:0:0:
162,126,24185,1,0,0:0:0:0:
447,268,24538,6,0,L|288:164,2,190,2|0|0,0:0|0:0|0:0,0:0:0:0:
161,206,25597,2,0,L|320:102,2,190,2|0|0,0:0|0:0|0:0,0:0:0:0:
447,197,26656,5,2,0:0:0:0:
445,185,27009,1,0,0:0:0:0:
443,170,27362,1,0,0:0:0:0:
197,138,27715,1,2,0:0:0:0:
321,134,28068,1,0,0:0:0:0:
445,135,28421,1,0,0:0:0:0:
150,200,28774,6,0,L|340:193,2,190,2|0|0,0:0|0:0|0:0,0:0:0:0:
436,277,29833,2,0,L|246:284,2,190,2|0|0,0:0|0:0|0:0,0:0:0:0:
93,323,30891,6,0,L|93:132,1,190,2|0,0:0|0:0,0:0:0:0:
275,113,31597,1,0,0:0:0:0:
457,86,31950,2,0,L|266:96,2,190,2|0|0,0:0|0:0|0:0,0:0:0:0:
105,58,33009,1,2,0:0:0:0:
105,92,33068,1,0,0:0:0:0:
105,124,33127,1,0,0:0:0:0:
105,157,33185,1,0,0:0:0:0:
256,192,33715,12,0,37156,0:0:0:0:
141,224,37818,5,2,0:0:0:0:
327,215,38128,5,2,0:0:0:0:
384,217,38206,1,0,0:0:0:0:
327,215,38285,1,0,0:0:0:0:
291,181,38325,1,0,0:0:0:0:
326,151,38364,1,0,0:0:0:0:
469,152,38443,5,2,0:0:0:0:
373,131,38601,1,0,0:0:0:0:
469,152,38759,2,0,L|472:343,1,190,2|2,0:0|0:0,0:0:0:0:
460,317,39154,1,0,0:0:0:0:
384,319,39233,1,0,0:0:0:0:
372,294,39312,1,0,0:0:0:0:
296,293,39391,6,0,B|201:300|201:300|296:293,1,190,2|0,0:0|0:0,0:0:0:0:
393,212,39864,1,0,0:0:0:0:
250,204,40022,1,2,0:0:0:0:
203,193,40101,1,0,0:0:0:0:
250,204,40180,1,0,0:0:0:0:
488,190,40338,1,2,0:0:0:0:
393,160,40496,1,0,0:0:0:0:
346,149,40575,1,0,0:0:0:0:
298,136,40654,6,0,B|203:143|203:143|298:136,1,190,2|0,0:0|0:0,0:0:0:0:
346,149,41049,1,0,0:0:0:0:
394,158,41128,1,0,0:0:0:0:
253,163,41285,1,2,0:0:0:0:
253,163,41601,1,0,0:0:0:0:
158,154,41759,1,0,0:0:0:0:
396,250,41917,6,0,P|428:161|380:86,1,190,2|2,0:0|0:0,0:0:0:0:
191,197,42549,1,0,0:0:0:0:
420,328,42864,2,0,L|424:137,1,190,2|0,0:0|0:0,0:0:0:0:
328,143,43338,1,0,0:0:0:0:
186,145,43496,2,0,L|184:240,1,95,2|0,0:0|0:0,0:0:0:0:
327,279,43812,1,0,0:0:0:0:
97,349,44128,2,0,P|78:207|186:146,1,285,2|0,0:0|0:0,0:0:0:0:
426,146,44759,5,2,0:0:0:0:
159,124,45075,1,2,0:0:0:0:
406,143,45391,1,0,0:0:0:0:
216,142,45706,5,2,0:0:0:0:
159,145,45784,1,0,0:0:0:0:
216,142,45863,1,0,0:0:0:0:
252,108,45903,1,0,0:0:0:0:
217,78,45942,1,0,0:0:0:0:
74,79,46021,5,2,0:0:0:0:
170,58,46179,1,0,0:0:0:0:
74,79,46338,2,0,P|31:158|83:231,1,190,2|2,0:0|0:0,0:0:0:0:
102,221,46732,1,0,0:0:0:0:
178,220,46811,1,0,0:0:0:0:
197,198,46890,1,0,0:0:0:0:
273,198,46969,2,0,B|368:205|368:205|273:198,1,190,2|0,0:0|0:0,0:0:0:0:
179,118,47442,1,0,0:0:0:0:
319,109,47600,5,2,0:0:0:0:
367,113,47679,1,0,0:0:0:0:
319,109,47758,1,0,0:0:0:0:
81,95,47916,1,2,0:0:0:0:
176,65,48074,1,0,0:0:0:0:
223,54,48153,1,0,0:0:0:0:
271,41,48233,6,0,B|366:48|366:48|271:41,1,190,2|0,0:0|0:0,0:0:0:0:
223,54,48628,1,0,0:0:0:0:
176,65,48706,1,0,0:0:0:0:
223,54,48785,1,0,0:0:0:0:
366,53,48864,6,0,B|397:117|397:117|367:182,1,142.5,2|0,0:0|0:0,0:0:0:0:
223,206,49180,2,0,L|129:217,1,95,2|0,0:0|0:0,0:0:0:0:
162,284,49417,1,0,0:0:0:0:
352,299,49496,5,4,0:0:0:0:
447,281,49654,1,0,0:0:0:0:
323,230,49812,1,0,0:0:0:0:
475,207,49970,1,0,0:0:0:0:
351,159,50128,1,8,0:0:0:0:
445,142,50285,2,0,L|394:138,1,47.5
253,132,50443,6,0,L|148:127,1,95,4|0,0:0|0:0,0:0:0:0:
302,78,50759,2,0,L|197:73,1,95
158,127,50996,1,0,0:0:0:0:
302,78,51075,2,0,L|407:73,1,95,8|0,0:0|0:0,0:0:0:0:
348,94,51312,1,0,0:0:0:0:
158,127,51391,5,4,0:0:0:0:
38,154,51549,1,0,0:0:0:0:
278,100,51706,1,0,0:0:0:0:
158,127,51864,1,0,0:0:0:0:
398,73,52022,1,8,0:0:0:0:
278,100,52180,1,0,0:0:0:0:
50,188,52338,6,0,P|109:275|210:301,1,213.750008153916,4|0,0:0|0:0,0:0:0:0:
462,188,52654,2,0,P|403:275|302:301,1,213.750008153916,4|0,0:0|0:0,0:0:0:0:
107,152,52970,1,0,0:0:0:0:
81,211,53049,1,0,0:0:0:0:
108,266,53128,1,0,0:0:0:0:
178,277,53206,1,0,0:0:0:0:
368,274,53285,6,0,L|448:223,1,95,4|0,0:0|0:0,0:0:0:0:
305,228,53601,2,0,L|225:177,1,95,2|0,0:0|0:0,0:0:0:0:
368,191,53917,1,8,0:0:0:0:
399,144,53996,1,0,0:0:0:0:
368,98,54075,1,0,0:0:0:0:
311,98,54154,1,0,0:0:0:0:
168,113,54233,6,0,L|160:207,1,95,2|0,0:0|0:0,0:0:0:0:
293,189,54549,2,0,L|285:283,1,95,2|0,0:0|0:0,0:0:0:0:
418,250,54864,2,0,L|426:344,1,95,8|0,0:0|0:0,0:0:0:0:
187,286,55180,6,0,L|107:235,1,95,2|0,0:0|0:0,0:0:0:0:
250,240,55496,2,0,L|330:189,1,95,2|0,0:0|0:0,0:0:0:0:
187,203,55812,1,8,0:0:0:0:
156,156,55891,1,0,0:0:0:0:
187,110,55970,1,0,0:0:0:0:
244,110,56049,1,0,0:0:0:0:
387,125,56128,5,2,0:0:0:0:
293,154,56285,1,0,0:0:0:0:
417,187,56443,1,2,0:0:0:0:
323,216,56600,1,0,0:0:0:0:
447,249,56759,1,8,0:0:0:0:
353,278,56916,1,0,0:0:0:0:
114,323,57075,6,0,L|34:272,1,95,2|0,0:0|0:0,0:0:0:0:
177,266,57391,2,0,L|97:215,1,95,2|0,0:0|0:0,0:0:0:0:
240,216,57706,1,8,0:0:0:0:
271,169,57785,1,0,0:0:0:0:
240,123,57864,1,0,0:0:0:0:
183,123,57943,1,0,0:0:0:0:
326,57,58022,6,0,L|334:151,1,95,2|0,0:0|0:0,0:0:0:0:
201,129,58338,2,0,L|209:223,1,95,2|0,0:0|0:0,0:0:0:0:
76,220,58654,2,0,L|68:314,1,95,8|0,0:0|0:0,0:0:0:0:
308,328,58970,6,0,L|388:277,1,95,2|0,0:0|0:0,0:0:0:0:
245,271,59286,2,0,L|325:220,1,95,2|0,0:0|0:0,0:0:0:0:
182,221,59601,1,8,0:0:0:0:
151,174,59680,1,0,0:0:0:0:
182,128,59759,1,0,0:0:0:0:
239,128,59838,1,0,0:0:0:0:
381,117,59917,6,0,L|476:116,1,95,2|0,0:0|0:0,0:0:0:0:
323,89,60233,1,0,0:0:0:0:
266,87,60312,1,0,0:0:0:0:
409,44,60391,1,0,0:0:0:0:
466,46,60470,1,0,0:0:0:0:
276,32,60549,5,0,0:0:0:0:
246,35,60588,1,0,0:0:0:0:
218,44,60628,1,0,0:0:0:0:
201,65,60667,1,0,0:0:0:0:
193,93,60706,1,0,0:0:0:0:
201,126,60746,1,0,0:0:0:0:
222,146,60785,1,0,0:0:0:0:
255,155,60825,1,0,0:0:0:0:
394,116,60864,5,4,0:0:0:0:
489,128,61022,1,0,0:0:0:0:
394,116,61180,1,2,0:0:0:0:
489,128,61338,1,0,0:0:0:0:
251,149,61496,1,8,0:0:0:0:
220,196,61575,1,0,0:0:0:0:
251,242,61654,1,0,0:0:0:0:
308,242,61733,1,0,0:0:0:0:
451,98,61812,6,0,L|459:192,1,95,2|0,0:0|0:0,0:0:0:0:
326,174,62128,2,0,L|334:268,1,95,2|0,0:0|0:0,0:0:0:0:
96,240,62443,2,0,L|88:334,1,95,8|0,0:0|0:0,0:0:0:0:
327,318,62759,5,2,0:0:0:0:
424,317,62917,1,0,0:0:0:0:
327,318,63075,1,2,0:0:0:0:
231,318,63233,1,0,0:0:0:0:
468,268,63391,1,8,0:0:0:0:
478,214,63470,1,0,0:0:0:0:
448,171,63549,1,0,0:0:0:0:
391,168,63628,1,0,0:0:0:0:
250,137,63706,5,2,0:0:0:0:
344,166,63863,1,0,0:0:0:0:
220,199,64021,1,2,0:0:0:0:
314,228,64180,1,0,0:0:0:0:
75,248,64337,1,8,0:0:0:0:
169,277,64496,1,0,0:0:0:0:
409,262,64654,5,2,0:0:0:0:
314,275,64812,1,0,0:0:0:0:
409,262,64970,1,2,0:0:0:0:
314,275,65128,1,0,0:0:0:0:
78,290,65285,1,8,0:0:0:0:
47,243,65364,1,0,0:0:0:0:
78,197,65443,1,0,0:0:0:0:
135,197,65522,1,0,0:0:0:0:
277,288,65601,6,0,L|285:194,1,95,2|0,0:0|0:0,0:0:0:0:
152,212,65917,2,0,L|160:118,1,95,2|0,0:0|0:0,0:0:0:0:
399,215,66233,2,0,L|407:121,1,95,8|0,0:0|0:0,0:0:0:0:
166,86,66549,5,2,0:0:0:0:
70,97,66706,1,0,0:0:0:0:
166,86,66864,1,2,0:0:0:0:
262,75,67022,1,0,0:0:0:0:
24,147,67180,1,8,0:0:0:0:
14,201,67259,1,0,0:0:0:0:
44,244,67338,1,0,0:0:0:0:
101,247,67417,1,0,0:0:0:0:
266,279,67495,5,2,0:0:0:0:
360,250,67654,1,0,0:0:0:0:
195,276,67812,1,2,0:0:0:0:
138,272,67891,1,0,0:0:0:0:
279,218,67969,1,0,0:0:0:0:
337,211,68049,1,0,0:0:0:0:
146,242,68128,5,0,0:0:0:0:
113,233,68168,1,0,0:0:0:0:
92,213,68207,1,0,0:0:0:0:
84,180,68247,1,0,0:0:0:0:
92,152,68286,1,0,0:0:0:0:
109,131,68325,1,0,0:0:0:0:
137,122,68365,1,0,0:0:0:0:
167,119,68404,1,0,0:0:0:0:
347,169,68443,5,4,0:0:0:0:
351,137,68759,1,2,0:0:0:0:
355,105,69075,1,8,0:0:0:0:
451,99,69233,1,0,0:0:0:0:
213,106,69391,6,0,P|148:176|191:244,1,190,2|2,0:0|0:0,0:0:0:0:
286,251,69864,1,0,0:0:0:0:
142,305,70022,2,0,L|130:211,1,95,8|0,0:0|0:0,0:0:0:0:
369,258,70338,6,0,P|434:188|391:120,1,190,2|2,0:0|0:0,0:0:0:0:
296,113,70811,1,0,0:0:0:0:
440,59,70970,2,0,L|452:153,1,95,8|0,0:0|0:0,0:0:0:0:
299,169,71285,6,0,L|205:181,1,95,2|0,0:0|0:0,0:0:0:0:
329,230,71601,2,0,L|235:242,1,95,2|0,0:0|0:0,0:0:0:0:
379,310,71917,2,0,L|391:216,1,95,8|0,0:0|0:0,0:0:0:0:
152,197,72233,5,2,0:0:0:0:
149,169,72549,1,2,0:0:0:0:
54,162,72706,1,0,0:0:0:0:
198,103,72864,2,0,L|103:97,1,95,8|0,0:0|0:0,0:0:0:0:
342,89,73180,6,2,B|437:83|437:83|337:89,1,190
246,102,73654,1,0,0:0:0:0:
389,99,73812,2,0,L|483:93,1,95,8|0,0:0|0:0,0:0:0:0:
245,261,74128,6,2,B|150:267|150:267|250:261,1,190
341,248,74602,1,0,0:0:0:0:
247,197,74706,1,0,0:0:0:0:
198,176,74760,2,0,L|292:170,1,95,8|0,0:0|0:0,0:0:0:0:
340,167,74996,1,0,0:0:0:0:
197,243,75075,5,2,0:0:0:0:
149,230,75154,1,0,0:0:0:0:
121,181,75233,1,0,0:0:0:0:
151,134,75312,1,0,0:0:0:0:
308,70,75391,2,0,B|403:79|403:79|291:69,1,190,2|8,0:0|0:0,0:0:0:0:
158,232,75864,1,0,0:0:0:0:
396,229,76022,5,4,0:0:0:0:
398,180,76180,1,0,0:0:0:0:
302,180,76338,1,2,0:0:0:0:
300,131,76496,1,0,0:0:0:0:
156,111,76654,2,0,L|253:107,1,95,8|0,0:0|0:0,0:0:0:0:
490,51,76970,6,0,P|492:123|448:173,1,142.5,2|0,0:0|0:0,0:0:0:0:
305,202,77285,1,2,0:0:0:0:
254,207,77364,1,0,0:0:0:0:
305,202,77443,1,0,0:0:0:0:
448,255,77601,2,0,L|450:145,1,95,8|0,0:0|0:0,0:0:0:0:
211,269,77917,6,2,P|144:216|185:137,1,190
283,131,78391,1,0,0:0:0:0:
140,151,78549,2,0,L|138:261,1,95,8|0,0:0|0:0,0:0:0:0:
376,251,78864,5,2,0:0:0:0:
470,206,79022,1,0,0:0:0:0:
327,190,79180,1,2,0:0:0:0:
422,145,79338,1,0,0:0:0:0:
279,127,79496,1,8,0:0:0:0:
373,82,79654,1,0,0:0:0:0:
135,80,79812,5,4,0:0:0:0:
129,111,80128,1,2,0:0:0:0:
123,142,80443,1,8,0:0:0:0:
28,159,80601,1,0,0:0:0:0:
266,220,80759,1,2,0:0:0:0:
266,220,81075,1,2,0:0:0:0:
361,203,81233,1,0,0:0:0:0:
123,142,81391,1,8,0:0:0:0:
28,159,81549,1,0,0:0:0:0:
266,220,81706,5,2,0:0:0:0:
380,203,81864,1,0,0:0:0:0:
233,147,82022,1,2,0:0:0:0:
414,126,82180,1,0,0:0:0:0:
267,67,82338,1,8,0:0:0:0:
375,63,82496,1,0,0:0:0:0:
136,126,82654,5,2,0:0:0:0:
87,145,82733,1,0,0:0:0:0:
70,197,82812,1,0,0:0:0:0:
91,243,82891,1,0,0:0:0:0:
236,317,82970,1,2,0:0:0:0:
291,302,83049,1,0,0:0:0:0:
312,246,83128,1,0,0:0:0:0:
281,200,83207,1,0,0:0:0:0:
140,228,83285,5,8,0:0:0:0:
85,213,83364,1,0,0:0:0:0:
64,157,83443,1,0,0:0:0:0:
95,111,83522,1,0,0:0:0:0:
417,111,83601,5,4,0:0:0:0:
421,148,83917,1,0,0:0:0:0:
425,185,84233,1,0,0:0:0:0:
234,241,84549,2,0,B|279:325|279:325|371:345,2,190,2|0|0,0:0|0:0|0:0,0:0:0:0:
463,296,85496,6,0,L|464:107,1,190,2|0,0:0|0:0,0:0:0:0:
274,120,86128,2,0,L|274:233,1,95
36,302,86443,2,0,L|35:113,1,190,2|0,0:0|0:0,0:0:0:0:
159,111,86917,1,0,0:0:0:0:
255,111,87075,1,0,0:0:0:0:
272,131,87233,1,0,0:0:0:0:
34,112,87391,5,2,0:0:0:0:
147,157,87707,1,0,0:0:0:0:
26,186,88023,1,0,0:0:0:0:
217,242,88339,2,0,B|172:326|172:326|80:346,2,190,2|0|0,0:0|0:0|0:0,0:0:0:0:
26,206,89285,5,2,0:0:0:0:
148,243,89601,1,0,0:0:0:0:
34,280,89917,1,0,0:0:0:0:
224,297,90233,1,2,0:0:0:0:
34,280,90549,1,0,0:0:0:0:
224,297,90904,1,0,0:0:0:0:
473,273,91180,5,2,0:0:0:0:
471,246,91496,1,0,0:0:0:0:
469,219,91812,1,0,0:0:0:0:
255,274,92128,6,0,P|178:217|203:140,1,190,2|0,0:0|0:0,0:0:0:0:
394,117,92759,1,0,0:0:0:0:
204,62,93075,2,0,L|198:252,1,190,2|0,0:0|0:0,0:0:0:0:
196,253,93706,1,0,0:0:0:0:
100,272,93864,1,0,0:0:0:0:
339,307,94022,6,0,P|416:250|391:173,1,190,2|0,0:0|0:0,0:0:0:0:
262,176,94496,1,0,0:0:0:0:
166,176,94654,1,0,0:0:0:0:
149,196,94812,1,0,0:0:0:0:
387,177,94970,5,2,0:0:0:0:
387,177,95285,1,0,0:0:0:0:
292,177,95443,1,0,0:0:0:0:
196,177,95601,2,0,L|195:81,1,95,2|0,0:0|0:0,0:0:0:0:
435,74,95917,6,0,L|438:263,1,190,2|0,0:0|0:0,0:0:0:0:
342,273,96391,1,0,0:0:0:0:
294,283,96470,1,0,0:0:0:0:
246,293,96549,1,0,0:0:0:0:
341,215,96706,1,0,0:0:0:0:
84,198,96864,6,0,L|178:180,2,95,2|0|0,0:0|0:0|0:0,0:0:0:0:
368,155,97496,1,0,0:0:0:0:
83,319,97812,2,0,L|80:58,1,261.25,2|0,0:0|0:0,0:0:0:0:
291,60,98759,5,4,0:0:0:0:
482,68,99075,1,0,0:0:0:0:
291,60,99391,1,0,0:0:0:0:
101,149,99706,2,0,B|146:233|146:233|238:253,2,190,2|0|0,0:0|0:0|0:0,0:0:0:0:
387,64,100654,6,0,L|391:253,1,190,2|0,0:0|0:0,0:0:0:0:
200,268,101285,2,0,L|199:167,1,95
438,308,101601,2,0,L|439:119,1,190,2|0,0:0|0:0,0:0:0:0:
315,117,102075,1,0,0:0:0:0:
219,117,102233,1,0,0:0:0:0:
202,137,102391,1,0,0:0:0:0:
440,118,102549,5,2,0:0:0:0:
440,118,102864,1,0,0:0:0:0:
344,132,103022,1,0,0:0:0:0:
249,151,103180,2,0,L|248:250,1,95
487,269,103496,5,2,0:0:0:0:
345,295,103812,1,0,0:0:0:0:
203,323,104128,1,0,0:0:0:0:
392,188,104443,1,2,0:0:0:0:
250,214,104759,1,0,0:0:0:0:
392,188,105075,1,0,0:0:0:0:
106,210,105391,2,0,B|151:294|151:294|243:314,2,190,2|0|0,0:0|0:0|0:0,0:0:0:0:
392,188,106338,5,2,0:0:0:0:
201,212,106654,1,0,0:0:0:0:
392,188,106970,1,0,0:0:0:0:
202,267,107285,2,0,B|110:247|110:247|65:163,2,190,2|0|0,0:0|0:0|0:0,0:0:0:0:
488,311,108233,2,0,L|484:122,1,190,2|0,0:0|0:0,0:0:0:0:
292,110,108864,1,0,0:0:0:0:
387,104,109022,1,0,0:0:0:0:
148,324,109180,6,0,P|71:267|96:190,1,190,2|0,0:0|0:0,0:0:0:0:
225,193,109654,1,0,0:0:0:0:
321,193,109812,1,0,0:0:0:0:
338,213,109970,1,0,0:0:0:0:
100,194,110128,6,0,L|97:100,1,95,2|0,0:0|0:0,0:0:0:0:
191,159,110443,2,0,L|194:65,1,95
50,281,110759,2,0,L|47:187,1,95,2|0,0:0|0:0,0:0:0:0:
287,193,111075,6,0,P|359:132|321:61,1,190,2|0,0:0|0:0,0:0:0:0:
177,77,111549,1,2,0:0:0:0:
123,85,111628,1,0,0:0:0:0:
177,77,111706,1,0,0:0:0:0:
321,61,111864,1,0,0:0:0:0:
140,167,112022,6,2,L|41:187,2,95
374,167,112654,1,2,0:0:0:0:
138,167,112970,2,0,P|254:352|375:167,1,522.5,2|0,0:0|0:0,0:0:0:0:
200,260,113917,6,0,L|91:258,1,109.250002083778,4|0,0:0|0:0,0:0:0:0:
256,209,114233,2,0,L|365:207,1,109.250002083778,2|0,0:0|0:0,0:0:0:0:
145,137,114549,2,0,L|36:135,1,109.250002083778,8|0,0:0|0:0,0:0:0:0:
256,209,114864,5,2,0:0:0:0:
256,209,115022,1,0,0:0:0:0:
145,137,115180,2,0,L|35:134,1,109.250002083778,2|0,0:0|0:0,0:0:0:0:
255,106,115496,2,0,L|365:103,1,109.250002083778,8|0,0:0|0:0,0:0:0:0:
144,136,115812,6,0,L|141:246,1,109.250002083778,2|0,0:0|0:0,0:0:0:0:
306,282,116128,2,0,L|196:285,1,109.250002083778,2|0,0:0|0:0,0:0:0:0:
415,320,116443,2,0,L|418:210,1,109.250002083778,8|0,0:0|0:0,0:0:0:0:
197,317,116759,6,0,L|87:314,1,109.250002083778,2|0,0:0|0:0,0:0:0:0:
254,251,117075,2,0,L|144:248,1,109.250002083778,2|0,0:0|0:0,0:0:0:0:
227,225,117312,1,0,0:0:0:0:
309,191,117391,2,0,L|199:188,1,109.250002083778,8|0,0:0|0:0,0:0:0:0:
418,142,117706,6,0,L|421:252,1,109.250002083778,2|0,0:0|0:0,0:0:0:0:
256,280,118022,2,0,L|366:283,1,109.250002083778,2|0,0:0|0:0,0:0:0:0:
144,345,118338,2,0,L|34:342,1,109.250002083778,8|0,0:0|0:0,0:0:0:0:
257,280,118654,5,2,0:0:0:0:
257,280,118812,1,0,0:0:0:0:
421,196,118970,2,0,L|311:193,1,109.250002083778,2|0,0:0|0:0,0:0:0:0:
94,186,119285,2,0,L|204:183,1,109.250002083778,8|0,0:0|0:0,0:0:0:0:
423,244,119601,6,0,L|426:134,1,109.250002083778,2|0,0:0|0:0,0:0:0:0:
261,101,119917,2,0,L|371:98,1,109.250002083778,2|0,0:0|0:0,0:0:0:0:
150,215,120233,2,0,L|260:212,1,109.250002083778,8|0,0:0|0:0,0:0:0:0:
38,323,120549,6,0,P|30:241|94:204,1,163.875003125668,2|0,0:0|0:0,0:0:0:0:
261,213,120864,1,2,0:0:0:0:
321,224,120943,1,0,0:0:0:0:
261,213,121022,1,0,0:0:0:0:
42,160,121180,2,0,L|37:50,1,109.250002083778,8|0,0:0|0:0,0:0:0:0:
312,124,121496,6,0,L|421:126,1,109.250002083778,4|0,0:0|0:0,0:0:0:0:
256,175,121812,2,0,L|147:177,1,109.250002083778,2|0,0:0|0:0,0:0:0:0:
367,247,122128,2,0,L|476:249,1,109.250002083778,8|0,0:0|0:0,0:0:0:0:
256,175,122443,5,2,0:0:0:0:
256,175,122601,1,0,0:0:0:0:
145,247,122759,2,0,L|35:250,1,109.250002083778,2|0,0:0|0:0,0:0:0:0:
257,278,123075,2,0,L|147:281,1,109.250002083778,8|0,0:0|0:0,0:0:0:0:
368,248,123391,6,0,L|371:138,1,109.250002083778,2|0,0:0|0:0,0:0:0:0:
206,102,123707,2,0,L|316:99,1,109.250002083778,2|0,0:0|0:0,0:0:0:0:
97,64,124022,2,0,L|94:174,1,109.250002083778,8|0,0:0|0:0,0:0:0:0:
315,317,124338,6,0,L|425:314,1,109.250002083778,2|0,0:0|0:0,0:0:0:0:
258,251,124654,2,0,L|368:248,1,109.250002083778,2|0,0:0|0:0,0:0:0:0:
285,225,124891,1,0,0:0:0:0:
203,191,124970,2,0,L|313:188,1,109.250002083778,8|0,0:0|0:0,0:0:0:0:
41,249,125285,5,2,0:0:0:0:
205,216,125443,1,0,0:0:0:0:
74,171,125601,1,2,0:0:0:0:
172,157,125759,1,0,0:0:0:0:
41,99,125917,1,8,0:0:0:0:
206,87,126075,1,0,0:0:0:0:
471,249,126233,5,2,0:0:0:0:
307,216,126391,1,0,0:0:0:0:
438,171,126549,1,2,0:0:0:0:
340,157,126707,1,0,0:0:0:0:
405,131,126785,1,0,0:0:0:0:
471,99,126864,1,8,0:0:0:0:
306,87,127023,1,0,0:0:0:0:
82,94,127180,5,2,0:0:0:0:
54,116,127259,1,0,0:0:0:0:
80,136,127338,1,0,0:0:0:0:
135,139,127417,1,0,0:0:0:0:
278,175,127496,1,2,0:0:0:0:
308,199,127575,1,0,0:0:0:0:
280,217,127654,1,0,0:0:0:0:
220,220,127733,1,0,0:0:0:0:
366,310,127812,5,8,0:0:0:0:
400,291,127891,1,0,0:0:0:0:
368,268,127970,1,0,0:0:0:0:
307,267,128049,1,0,0:0:0:0:
149,228,128128,1,2,0:0:0:0:
110,209,128207,1,0,0:0:0:0:
147,186,128286,1,0,0:0:0:0:
213,183,128365,1,0,0:0:0:0:
354,147,128443,5,2,0:0:0:0:
420,150,128522,1,0,0:0:0:0:
457,173,128601,1,0,0:0:0:0:
418,192,128680,1,0,0:0:0:0:
158,147,128759,1,8,0:0:0:0:
92,150,128838,1,0,0:0:0:0:
55,173,128917,1,0,0:0:0:0:
94,192,128996,1,0,0:0:0:0:
418,192,129075,5,4,0:0:0:0:
422,158,129391,1,0,0:0:0:0:
426,125,129706,1,0,0:0:0:0:
235,91,130022,2,0,L|75:193,2,190,2|0|0,0:0|0:0|0:0,0:0:0:0:
426,83,130970,6,0,L|430:273,1,190,2|0,0:0|0:0,0:0:0:0:
336,280,131443,1,0,0:0:0:0:
241,289,131601,1,2,0:0:0:0:
336,280,131759,1,0,0:0:0:0:
98,201,131917,6,0,L|258:99,2,190,2|0|0,0:0|0:0|0:0,0:0:0:0:
383,214,132864,2,0,L|223:112,2,190,2|0|0,0:0|0:0|0:0,0:0:0:0:
96,283,133812,5,2,0:0:0:0:
92,249,134128,1,0,0:0:0:0:
88,216,134443,1,0,0:0:0:0:
373,195,134759,5,2,0:0:0:0:
183,201,135075,1,0,0:0:0:0:
179,161,135391,1,0,0:0:0:0:
464,151,135706,5,2,0:0:0:0:
274,157,136022,1,0,0:0:0:0:
270,117,136338,1,2,0:0:0:0:
365,109,136496,1,0,0:0:0:0:
127,60,136654,6,0,L|33:224,2,190,2|0|0,0:0|0:0|0:0,0:0:0:0:
385,60,137601,2,0,L|479:224,2,190,2|0|0,0:0|0:0|0:0,0:0:0:0:
127,58,138549,2,0,P|261:110|385:59,1,285,2|0,0:0|0:0,0:0:0:0:
289,60,139180,1,2,0:0:0:0:
387,59,139338,1,0,0:0:0:0:
150,45,139496,5,2,0:0:0:0:
146,75,139812,1,0,0:0:0:0:
336,106,140128,1,2,0:0:0:0:
90,139,140443,6,0,P|93:233|167:281,1,190,2|0,0:0|0:0,0:0:0:0:
264,280,140917,1,2,0:0:0:0:
167,281,141075,1,0,0:0:0:0:
385,304,141391,6,0,P|461:253|462:161,1,190,2|0,0:0|0:0,0:0:0:0:
365,162,141865,1,2,0:0:0:0:
462,161,142023,1,0,0:0:0:0:
245,217,142338,2,0,L|90:108,2,190,2|0|0,0:0|0:0|0:0,0:0:0:0:
463,201,143285,1,2,0:0:0:0:
206,257,143601,2,0,L|203:110,1,142.5,2|0,0:0|0:0,0:0:0:0:
348,108,143917,2,0,L|444:104,1,95,2|2,0:0|0:0,0:0:0:0:
446,72,144154,1,0,0:0:0:0:
255,64,144233,6,0,L|146:62,1,109.250002083778,4|0,0:0|0:0,0:0:0:0:
311,127,144549,2,0,L|420:129,1,109.250002083778,2|0,0:0|0:0,0:0:0:0:
255,145,144864,1,8,0:0:0:0:
200,156,144943,1,0,0:0:0:0:
167,186,145022,1,0,0:0:0:0:
174,224,145101,1,0,0:0:0:0:
339,292,145180,6,0,L|448:290,1,109.250002083778,2|0,0:0|0:0,0:0:0:0:
283,220,145496,2,0,L|392:218,1,109.250002083778,2|0,0:0|0:0,0:0:0:0:
227,223,145812,1,8,0:0:0:0:
221,174,145891,1,0,0:0:0:0:
366,167,145970,1,0,0:0:0:0:
372,120,146049,1,0,0:0:0:0:
208,96,146128,6,0,L|99:94,1,109.250002083778,4|0,0:0|0:0,0:0:0:0:
262,117,146443,2,0,L|371:119,1,109.250002083778,2|0,0:0|0:0,0:0:0:0:
206,189,146759,2,0,L|315:191,1,109.250002083778,8|0,0:0|0:0,0:0:0:0:
371,169,146996,1,0,0:0:0:0:
207,281,147075,5,2,0:0:0:0:
151,276,147154,1,0,0:0:0:0:
117,231,147233,1,0,0:0:0:0:
128,191,147312,1,0,0:0:0:0:
273,195,147391,1,2,0:0:0:0:
284,155,147470,1,0,0:0:0:0:
250,110,147549,1,0,0:0:0:0:
194,105,147628,1,0,0:0:0:0:
356,81,147706,2,0,L|358:190,1,109.250002083778,8|0,0:0|0:0,0:0:0:0:
138,151,148022,6,0,L|29:153,1,109.250002083778,2|0,0:0|0:0,0:0:0:0:
194,214,148338,2,0,L|85:216,1,109.250002083778,2|0,0:0|0:0,0:0:0:0:
250,278,148654,2,0,L|141:280,1,109.250002083778,8|0,0:0|0:0,0:0:0:0:
196,213,148891,1,0,0:0:0:0:
361,204,148970,6,0,L|363:95,1,109.250002083778,2|0,0:0|0:0,0:0:0:0:
199,103,149285,2,0,L|308:101,1,109.250002083778,2|0,0:0|0:0,0:0:0:0:
143,121,149601,2,0,L|141:230,1,109.250002083778,8|0,0:0|0:0,0:0:0:0:
361,300,149917,6,0,L|252:298,1,109.250002083778,2|0,0:0|0:0,0:0:0:0:
417,235,150233,2,0,L|308:233,1,109.250002083778,2|0,0:0|0:0,0:0:0:0:
252,297,150470,1,0,0:0:0:0:
417,235,150549,1,8,0:0:0:0:
450,182,150628,1,0,0:0:0:0:
417,137,150706,1,0,0:0:0:0:
361,136,150785,1,0,0:0:0:0:
197,116,150864,6,0,L|88:114,1,109.250002083778,2|0,0:0|0:0,0:0:0:0:
253,42,151180,2,0,L|362:40,1,109.250002083778,2|0,0:0|0:0,0:0:0:0:
197,117,151496,1,8,0:0:0:0:
362,39,151654,1,2,0:0:0:0:
142,43,151812,6,0,L|139:153,1,109.250002083778,4|0,0:0|0:0,0:0:0:0:
304,150,152128,2,0,L|307:260,1,109.250002083778,2|0,0:0|0:0,0:0:0:0:
253,267,152364,1,0,0:0:0:0:
89,286,152443,1,8,0:0:0:0:
34,272,152522,1,0,0:0:0:0:
16,212,152601,1,0,0:0:0:0:
49,160,152680,1,0,0:0:0:0:
213,297,152759,6,0,L|216:187,1,109.250002083778,4|0,0:0|0:0,0:0:0:0:
51,190,153075,2,0,L|48:80,1,109.250002083778,2|0,0:0|0:0,0:0:0:0:
102,73,153311,1,0,0:0:0:0:
266,54,153391,1,8,0:0:0:0:
321,68,153469,1,0,0:0:0:0:
339,128,153548,1,0,0:0:0:0:
306,180,153627,1,0,0:0:0:0:
142,157,153706,6,0,L|32:160,1,109.250002083778,4|0,0:0|0:0,0:0:0:0:
198,234,154022,2,0,L|201:124,1,109.250002083778,2|0,0:0|0:0,0:0:0:0:
36,160,154338,1,8,0:0:0:0:
201,127,154496,1,2,0:0:0:0:
420,261,154654,6,0,L|423:151,1,109.250002083778,4|0,0:0|0:0,0:0:0:0:
247,222,154970,2,0,L|244:112,1,109.250002083778,2|0,0:0|0:0,0:0:0:0:
430,176,155285,2,0,L|433:66,1,109.250002083778,8|0,0:0|0:0,0:0:0:0:
378,67,155522,1,0,0:0:0:0:
186,63,155601,5,4,0:0:0:0:
34,76,155759,1,0,0:0:0:0:
156,128,155917,1,2,0:0:0:0:
67,132,156075,1,0,0:0:0:0:
185,209,156233,1,8,0:0:0:0:
33,196,156391,1,0,0:0:0:0:
87,195,156470,1,0,0:0:0:0:
279,75,156549,5,4,0:0:0:0:
431,88,156707,1,0,0:0:0:0:
309,140,156865,1,2,0:0:0:0:
398,144,157023,1,0,0:0:0:0:
280,221,157180,1,8,0:0:0:0:
432,208,157339,1,0,0:0:0:0:
378,207,157418,1,0,0:0:0:0:
216,128,157496,5,4,0:0:0:0:
162,129,157575,1,0,0:0:0:0:
308,167,157654,1,2,0:0:0:0:
362,166,157733,1,0,0:0:0:0:
209,165,157812,1,2,0:0:0:0:
155,166,157891,1,0,0:0:0:0:
310,207,157970,1,2,0:0:0:0:
364,206,158049,1,0,0:0:0:0:
202,207,158128,5,8,0:0:0:0:
148,206,158207,1,0,0:0:0:0:
128,208,158285,1,0,0:0:0:0:
148,206,158364,1,0,0:0:0:0:
313,270,158443,5,4,0:0:0:0:
384,267,158522,1,0,0:0:0:0:
417,216,158601,1,0,0:0:0:0:
385,166,158680,1,0,0:0:0:0:
199,270,158759,5,2,0:0:0:0:
128,267,158838,1,0,0:0:0:0:
95,216,158917,1,0,0:0:0:0:
127,166,158996,1,0,0:0:0:0:
346,129,159075,5,2,0:0:0:0:
411,118,159154,1,0,0:0:0:0:
166,129,159233,1,2,0:0:0:0:
101,118,159312,1,0,0:0:0:0:
367,269,159391,5,4,0:0:0:0:
265,238,159548,1,0,0:0:0:0:
368,191,159706,1,2,0:0:0:0:
146,193,159864,1,8,0:0:0:0:
247,158,160022,1,0,0:0:0:0:
145,115,160179,1,2,0:0:0:0:
368,191,160338,5,2,0:0:0:0:
266,224,160496,1,0,0:0:0:0:
164,248,160654,1,2,0:0:0:0:
384,298,160811,1,8,0:0:0:0:
282,261,160969,1,0,0:0:0:0:
385,220,161126,1,2,0:0:0:0:
163,259,161285,5,2,0:0:0:0:
264,239,161443,1,0,0:0:0:0:
263,207,161601,1,2,0:0:0:0:
41,169,161759,1,8,0:0:0:0:
143,147,161917,1,0,0:0:0:0:
41,169,162074,1,2,0:0:0:0:
262,185,162232,5,2,0:0:0:0:
161,163,162390,1,0,0:0:0:0:
59,145,162548,1,2,0:0:0:0:
110,134,162627,1,0,0:0:0:0:
281,117,162706,1,8,0:0:0:0:
179,85,162864,1,0,0:0:0:0:
401,57,163022,1,8,0:0:0:0:
179,85,163180,5,2,0:0:0:0:
281,103,163337,1,0,0:0:0:0:
281,142,163495,1,2,0:0:0:0:
59,169,163653,1,8,0:0:0:0:
161,187,163810,1,0,0:0:0:0:
264,204,163969,1,2,0:0:0:0:
42,222,164127,5,2,0:0:0:0:
144,240,164284,1,0,0:0:0:0:
144,279,164442,1,2,0:0:0:0:
366,295,164600,1,8,0:0:0:0:
264,277,164757,1,0,0:0:0:0:
366,295,164916,1,8,0:0:0:0:
144,177,165074,5,2,0:0:0:0:
246,164,165232,1,0,0:0:0:0:
348,151,165390,1,2,0:0:0:0:
126,113,165548,1,8,0:0:0:0:
228,100,165706,1,0,0:0:0:0:
126,113,165864,1,0,0:0:0:0:
347,64,166021,6,0,B|410:70|410:70|334:63,1,126.666666666667,2|2,0:0|0:0,0:0:0:0:
126,113,166495,2,0,B|63:119|63:119|139:112,1,126.666666666667,8|2,0:0|0:0,0:0:0:0:
346,311,166969,5,4,0:0:0:0:
244,293,167127,1,0,0:0:0:0:
243,241,167284,1,2,0:0:0:0:
465,202,167442,1,8,0:0:0:0:
363,184,167600,1,0,0:0:0:0:
465,202,167758,1,2,0:0:0:0:
244,91,167916,5,2,0:0:0:0:
346,109,168074,1,0,0:0:0:0:
448,127,168232,1,2,0:0:0:0:
226,177,168390,1,8,0:0:0:0:
328,159,168548,1,0,0:0:0:0:
226,177,168705,1,8,0:0:0:0:
448,286,168863,5,2,0:0:0:0:
346,280,169021,1,0,0:0:0:0:
345,226,169179,1,2,0:0:0:0:
123,189,169337,1,8,0:0:0:0:
225,167,169495,1,0,0:0:0:0:
327,145,169653,1,2,0:0:0:0:
106,111,169810,5,2,0:0:0:0:
208,89,169968,1,0,0:0:0:0:
106,111,170126,1,2,0:0:0:0:
156,129,170205,1,0,0:0:0:0:
327,189,170284,1,8,0:0:0:0:
225,167,170442,1,0,0:0:0:0:
447,127,170600,1,8,0:0:0:0:
225,167,170758,5,4,0:0:0:0:
327,189,170916,1,0,0:0:0:0:
328,234,171073,1,2,0:0:0:0:
107,208,171231,1,8,0:0:0:0:
209,230,171389,1,0,0:0:0:0:
311,252,171547,1,2,0:0:0:0:
83,294,171705,5,2,0:0:0:0:
185,272,171863,1,0,0:0:0:0:
83,294,172021,1,2,0:0:0:0:
133,313,172100,1,0,0:0:0:0:
304,234,172179,1,8,0:0:0:0:
202,212,172337,1,0,0:0:0:0:
304,234,172495,1,8,0:0:0:0:
354,236,172573,1,0,0:0:0:0:
183,156,172652,5,2,0:0:0:0:
81,139,172810,1,0,0:0:0:0:
183,156,172968,1,2,0:0:0:0:
404,125,173126,1,8,0:0:0:0:
303,114,173284,1,0,0:0:0:0:
404,125,173442,1,2,0:0:0:0:
182,67,173600,6,2,B|119:73|119:73|195:66,1,126.666666666667
403,116,174073,2,0,B|466:122|466:122|390:115,1,126.666666666667,8|2,0:0|0:0,0:0:0:0:
149,137,174547,5,4,0:0:0:0:
147,174,174705,1,0,0:0:0:0:
257,185,174863,1,2,0:0:0:0:
36,219,175020,1,8,0:0:0:0:
147,204,175178,1,0,0:0:0:0:
36,219,175336,1,2,0:0:0:0:
257,185,175494,5,2,0:0:0:0:
147,204,175652,1,0,0:0:0:0:
92,215,175731,1,0,0:0:0:0:
147,204,175810,1,8,0:0:0:0:
369,226,175968,1,2,0:0:0:0:
257,185,176126,1,2,0:0:0:0:
369,226,176283,1,2,0:0:0:0:
147,204,176441,5,4,0:0:0:0:
146,169,176599,1,0,0:0:0:0:
145,137,176757,1,2,0:0:0:0:
366,87,176915,1,8,0:0:0:0:
256,114,177073,1,0,0:0:0:0:
366,87,177231,1,2,0:0:0:0:
145,137,177389,5,2,0:0:0:0:
255,164,177547,1,2,0:0:0:0:
201,147,177625,1,0,0:0:0:0:
145,137,177704,1,2,0:0:0:0:
201,147,177783,1,0,0:0:0:0:
366,87,177862,1,8,0:0:0:0:
256,114,178020,1,0,0:0:0:0:
366,87,178178,1,8,0:0:0:0:
421,74,178257,1,0,0:0:0:0:
256,114,178336,5,4,0:0:0:0:
255,147,178494,1,0,0:0:0:0:
144,182,178652,1,2,0:0:0:0:
367,255,178810,1,8,0:0:0:0:
256,220,178968,1,0,0:0:0:0:
367,255,179125,1,2,0:0:0:0:
312,236,179204,1,0,0:0:0:0:
144,182,179283,5,4,0:0:0:0:
33,145,179441,1,0,0:0:0:0:
88,144,179520,1,0,0:0:0:0:
256,220,179599,1,8,0:0:0:0:
34,263,179757,1,2,0:0:0:0:
144,256,179915,1,0,0:0:0:0:
34,263,180073,1,8,0:0:0:0:
89,263,180151,1,0,0:0:0:0:
256,220,180230,5,4,0:0:0:0:
358,206,180388,1,0,0:0:0:0:
358,169,180546,1,0,0:0:0:0:
460,155,180704,1,2,0:0:0:0:
358,132,180862,1,0,0:0:0:0:
256,110,181020,1,2,0:0:0:0:
478,64,181178,5,2,0:0:0:0:
376,49,181336,1,0,0:0:0:0:
155,61,181493,1,2,0:0:0:0:
53,77,181651,1,0,0:0:0:0:
275,133,181809,1,2,0:0:0:0:
173,149,181967,1,0,0:0:0:0:
123,163,182046,1,0,0:0:0:0:
389,163,182127,6,0,L|394:257,1,95,4|0,0:0|0:0,0:0:0:0:
270,233,182442,2,0,L|265:327,1,95,2|0,0:0|0:0,0:0:0:0:
419,209,182758,2,0,L|424:303,1,95,8|0,0:0|0:0,0:0:0:0:
185,303,183074,6,0,B|115:290|115:290|175:251,1,142.5,4|0,0:0|0:0,0:0:0:0:
323,167,183390,2,0,B|393:154|393:154|333:115,1,142.5,4|0,0:0|0:0,0:0:0:0:
187,136,183705,2,0,B|142:122|142:122|182:96,1,95,4|0,0:0|0:0,0:0:0:0:
254,78,183942,1,0,0:0:0:0:
83,107,184021,6,0,L|55:197,1,95,4|0,0:0|0:0,0:0:0:0:
198,173,184337,2,0,L|226:263,1,95,2|0,0:0|0:0,0:0:0:0:
371,244,184653,2,0,L|343:334,1,95,8|0,0:0|0:0,0:0:0:0:
89,307,184969,6,0,B|19:294|19:294|79:255,1,142.5,4|0,0:0|0:0,0:0:0:0:
245,243,185284,2,0,L|254:98,1,142.5,4|0,0:0|0:0,0:0:0:0:
423,193,185600,2,0,B|462:166|462:166|464:118,1,95,4|0,0:0|0:0,0:0:0:0:
439,113,185798,1,0,0:0:0:0:
416,113,185836,1,0,0:0:0:0:
391,111,185877,1,0,0:0:0:0:
214,118,185916,5,4,0:0:0:0:
62,128,186074,1,0,0:0:0:0:
186,193,186232,1,2,0:0:0:0:
91,198,186390,1,0,0:0:0:0:
215,260,186548,1,8,0:0:0:0:
63,271,186705,1,0,0:0:0:0:
302,302,186863,6,0,P|373:296|416:245,1,142.5,4|0,0:0|0:0,0:0:0:0:
224,238,187179,2,0,P|153:232|110:181,1,142.5,4|0,0:0|0:0,0:0:0:0:
302,174,187495,2,0,L|401:173,1,95,4|0,0:0|0:0,0:0:0:0:
384,172,187673,1,0,0:0:0:0:
373,173,187692,1,0,0:0:0:0:
364,172,187712,1,0,0:0:0:0:
351,172,187732,1,0,0:0:0:0:
339,173,187752,1,0,0:0:0:0:
328,172,187771,1,0,0:0:0:0:
315,173,187791,1,0,0:0:0:0:
197,173,187811,5,4,0:0:0:0:
140,163,187890,1,0,0:0:0:0:
315,173,187969,1,0,0:0:0:0:
372,183,188048,1,0,0:0:0:0:
192,137,188127,5,2,0:0:0:0:
135,127,188206,1,0,0:0:0:0:
320,137,188285,1,0,0:0:0:0:
377,147,188364,1,0,0:0:0:0:
187,101,188442,5,8,0:0:0:0:
130,91,188521,1,0,0:0:0:0:
325,101,188600,1,0,0:0:0:0:
382,111,188679,1,0,0:0:0:0:
161,71,188758,6,0,B|72:103|72:103|112:128,1,142.5,4|0,0:0|0:0,0:0:0:0:
351,71,189074,2,0,B|440:103|440:103|400:128,1,142.5,2|0,0:0|0:0,0:0:0:0:
255,138,189390,1,2,0:0:0:0:
183,140,189469,1,0,0:0:0:0:
255,138,189548,1,0,0:0:0:0:
329,140,189627,1,0,0:0:0:0:
110,140,189705,6,0,L|71:242,1,109.250002083778,4|0,0:0|0:0,0:0:0:0:
236,241,190021,2,0,L|128:230,1,109.250002083778,2|0,0:0|0:0,0:0:0:0:
347,197,190337,2,0,L|455:186,1,109.250002083778,8|0,0:0|0:0,0:0:0:0:
236,241,190653,5,2,0:0:0:0:
236,241,190811,1,0,0:0:0:0:
347,197,190969,2,0,L|455:186,1,109.250002083778,2|0,0:0|0:0,0:0:0:0:
236,138,191284,2,0,L|128:127,1,109.250002083778,8|0,0:0|0:0,0:0:0:0:
347,197,191600,6,0,L|455:186,1,109.250002083778,2|0,0:0|0:0,0:0:0:0:
290,121,191916,2,0,L|398:110,1,109.250002083778,2|0,0:0|0:0,0:0:0:0:
179,106,192232,2,0,L|71:117,1,109.250002083778,8|0,0:0|0:0,0:0:0:0:
291,281,192548,6,0,L|297:171,1,109.250002083778,2|0,0:0|0:0,0:0:0:0:
132,294,192863,2,0,L|240:283,1,109.250002083778,2|0,0:0|0:0,0:0:0:0:
157,264,193100,1,0,0:0:0:0:
75,241,193179,2,0,L|69:131,1,109.250002083778,8|0,0:0|0:0,0:0:0:0:
289,188,193495,5,2,0:0:0:0:
431,175,193653,1,0,0:0:0:0:
289,156,193811,1,2,0:0:0:0:
431,143,193969,1,0,0:0:0:0:
212,118,194127,2,0,L|104:107,1,109.250002083778,8|0,0:0|0:0,0:0:0:0:
322,155,194442,6,0,L|430:144,1,109.250002083778,2|0,0:0|0:0,0:0:0:0:
211,185,194758,1,2,0:0:0:0:
211,185,194916,1,0,0:0:0:0:
430,249,195074,2,0,L|434:137,1,109.250002083778,8|0,0:0|0:0,0:0:0:0:
214,111,195390,6,0,L|106:122,1,109.250002083778,2|0,0:0|0:0,0:0:0:0:
269,136,195705,2,0,L|272:246,1,109.250002083778,2|0,0:0|0:0,0:0:0:0:
492,256,196021,2,0,L|384:267,1,109.250002083778,8|0,0:0|0:0,0:0:0:0:
163,293,196337,6,0,P|153:215|218:174,1,163.875003125668,4|0,0:0|0:0,0:0:0:0:
382,164,196652,1,2,0:0:0:0:
325,153,196731,1,0,0:0:0:0:
262,138,196810,1,0,0:0:0:0:
482,85,196969,2,0,L|485:195,1,109.250002083778,8|0,0:0|0:0,0:0:0:0:
266,72,197284,6,0,L|158:83,1,109.250002083778,4|0,0:0|0:0,0:0:0:0:
322,149,197600,2,0,L|430:160,1,109.250002083778,2|0,0:0|0:0,0:0:0:0:
211,164,197916,2,0,L|103:175,1,109.250002083778,8|0,0:0|0:0,0:0:0:0:
322,227,198232,1,2,0:0:0:0:
322,227,198390,1,0,0:0:0:0:
158,283,198548,2,0,L|155:173,1,109.250002083778,2|0,0:0|0:0,0:0:0:0:
376,163,198863,2,0,L|484:174,1,109.250002083778,8|0,0:0|0:0,0:0:0:0:
265,259,199179,6,0,L|157:248,1,109.250002083778,2|0,0:0|0:0,0:0:0:0:
342,218,199495,2,0,L|234:207,1,109.250002083778,2|0,0:0|0:0,0:0:0:0:
420,179,199811,2,0,L|312:168,1,109.250002083778,8|0,0:0|0:0,0:0:0:0:
91,67,200127,6,0,L|80:175,1,109.250002083778,2|0,0:0|0:0,0:0:0:0:
245,233,200442,2,0,L|137:222,1,109.250002083778,2|0,0:0|0:0,0:0:0:0:
220,204,200679,1,0,0:0:0:0:
302,185,200758,2,0,L|194:174,1,109.250002083778,8|0,0:0|0:0,0:0:0:0:
423,237,201074,5,4,0:0:0:0:
281,215,201232,1,0,0:0:0:0:
434,195,201390,1,2,0:0:0:0:
292,173,201548,1,0,0:0:0:0:
445,153,201705,1,8,0:0:0:0:
303,131,201863,1,0,0:0:0:0:
84,238,202021,5,4,0:0:0:0:
226,216,202179,1,0,0:0:0:0:
73,196,202337,1,2,0:0:0:0:
215,174,202495,1,0,0:0:0:0:
138,163,202574,1,0,0:0:0:0:
62,154,202652,1,8,0:0:0:0:
204,132,202810,1,0,0:0:0:0:
444,133,202969,5,4,0:0:0:0:
449,187,203048,1,0,0:0:0:0:
304,188,203127,1,0,0:0:0:0:
299,242,203206,1,0,0:0:0:0:
442,227,203284,1,2,0:0:0:0:
442,260,203363,1,0,0:0:0:0:
297,262,203442,1,0,0:0:0:0:
286,273,203521,1,0,0:0:0:0:
426,308,203600,5,8,0:0:0:0:
421,320,203679,1,0,0:0:0:0:
275,295,203758,1,0,0:0:0:0:
253,303,203837,1,0,0:0:0:0:
393,335,203916,1,2,0:0:0:0:
382,341,203995,1,0,0:0:0:0:
231,324,204074,1,0,0:0:0:0:
188,328,204153,1,0,0:0:0:0:
328,353,204232,5,2,0:0:0:0:
306,357,204311,1,0,0:0:0:0:
144,332,204390,1,0,0:0:0:0:
90,335,204469,1,0,0:0:0:0:
242,226,204548,1,8,0:0:0:0:
308,224,204627,1,0,0:0:0:0:
242,226,204706,1,2,0:0:0:0:
177,227,204785,1,0,0:0:0:0:
339,162,204863,5,4,0:0:0:0:
120,218,205021,2,0,L|119:109,1,109.250002083778,8|0,0:0|0:0,0:0:0:0:
180,106,205258,1,0,0:0:0:0:
325,255,205337,1,4,0:0:0:0:
106,199,205495,2,0,L|105:308,1,109.250002083778,8|0,0:0|0:0,0:0:0:0:
166,311,205732,1,0,0:0:0:0:
358,218,205811,6,0,B|410:203|410:203|303:175,1,163.875003125668,4|0,0:0|0:0,0:0:0:0:
157,144,206127,2,0,B|50:116|50:116|102:101,1,163.875003125668,4|0,0:0|0:0,0:0:0:0:
211,91,206442,1,2,0:0:0:0:
271,83,206521,1,0,0:0:0:0:
416,44,206600,1,2,0:0:0:0:
356,36,206679,1,0,0:0:0:0:
192,144,206758,5,4,0:0:0:0:
411,200,206916,2,0,L|412:91,1,109.250002083778,8|0,0:0|0:0,0:0:0:0:
351,94,207153,1,0,0:0:0:0:
206,229,207232,1,4,0:0:0:0:
425,228,207390,2,0,L|426:337,1,109.250002083778,8|0,0:0|0:0,0:0:0:0:
365,340,207627,1,0,0:0:0:0:
176,277,207705,6,0,B|69:249|69:249|121:234,1,163.875003125668,4|0,0:0|0:0,0:0:0:0:
286,213,208021,2,0,B|393:185|393:185|341:170,1,163.875003125668,4|0,0:0|0:0,0:0:0:0:
184,123,208337,2,2,L|71:93,1,109.250002083778
298,56,208653,6,0,L|301:166,1,109.250002083778,4|0,0:0|0:0,0:0:0:0:
176,165,208969,2,0,L|173:275,1,109.250002083778,2|0,0:0|0:0,0:0:0:0:
49,225,209284,2,0,L|52:335,1,109.250002083778,8|0,0:0|0:0,0:0:0:0:
271,318,209600,5,2,0:0:0:0:
331,306,209679,1,0,0:0:0:0:
331,258,209758,1,0,0:0:0:0:
271,246,209837,1,0,0:0:0:0:
126,226,209916,1,2,0:0:0:0:
66,214,209995,1,0,0:0:0:0:
126,188,210074,1,0,0:0:0:0:
186,176,210153,1,0,0:0:0:0:
331,170,210232,5,8,0:0:0:0:
391,158,210311,1,0,0:0:0:0:
246,107,210390,1,0,0:0:0:0:
186,95,210469,1,0,0:0:0:0:
350,43,210548,1,2,0:0:0:0:
410,57,210627,1,0,0:0:0:0:
302,78,210705,1,0,0:0:0:0:
296,122,210784,1,0,0:0:0:0:
441,121,210863,5,2,0:0:0:0:
447,165,210942,1,0,0:0:0:0:
430,199,211021,1,0,0:0:0:0:
375,212,211100,1,0,0:0:0:0:
211,252,211179,1,8,0:0:0:0:
156,239,211258,1,0,0:0:0:0:
266,209,211337,1,0,0:0:0:0:
271,157,211416,1,0,0:0:0:0:
126,181,211495,5,2,0:0:0:0:
67,162,211574,1,0,0:0:0:0:
44,111,211653,1,0,0:0:0:0:
67,61,211732,1,0,0:0:0:0:
230,49,211811,5,8,0:0:0:0:
301,57,211890,1,0,0:0:0:0:
321,96,211969,1,0,0:0:0:0:
286,132,212048,1,0,0:0:0:0:
141,167,212127,5,2,0:0:0:0:
86,180,212206,1,0,0:0:0:0:
229,254,212284,1,0,0:0:0:0:
284,241,212363,1,0,0:0:0:0:
120,241,212442,5,4,0:0:0:0:
339,198,212600,1,8,0:0:0:0:
397,200,212679,1,0,0:0:0:0:
397,132,212758,1,0,0:0:0:0:
339,128,212837,1,0,0:0:0:0:
194,191,212916,5,4,0:0:0:0:
413,148,213074,1,8,0:0:0:0:
471,150,213153,1,0,0:0:0:0:
471,82,213232,1,0,0:0:0:0:
413,78,213311,1,0,0:0:0:0:
249,58,213390,6,0,B|142:86|142:86|194:101,1,163.875003125668,4|0,0:0|0:0,0:0:0:0:
338,126,213705,2,0,B|445:154|445:154|393:169,1,163.875003125668,4|0,0:0|0:0,0:0:0:0:
228,131,214021,2,0,L|121:158,1,109.250002083778,8|0,0:0|0:0,0:0:0:0:
182,184,214258,1,0,0:0:0:0:
346,122,214337,5,4,0:0:0:0:
401,165,214416,1,0,0:0:0:0:
256,160,214495,1,8,0:0:0:0:
202,207,214574,1,0,0:0:0:0:
347,213,214653,1,0,0:0:0:0:
353,270,214732,1,0,0:0:0:0:
200,302,214811,5,4,0:0:0:0:
145,259,214890,1,0,0:0:0:0:
290,264,214969,1,8,0:0:0:0:
347,213,215048,1,0,0:0:0:0:
202,207,215127,1,0,0:0:0:0:
195,149,215206,1,0,0:0:0:0:
394,160,215284,6,0,B|449:151|449:151|345:122,1,163.875003125668,4|0,0:0|0:0,0:0:0:0:
167,122,215600,2,0,B|63:151|63:151|118:160,1,163.875003125668,4|0,0:0|0:0,0:0:0:0:
308,227,215916,1,8,0:0:0:0:
368,219,215995,1,0,0:0:0:0:
204,227,216074,1,2,0:0:0:0:
144,219,216153,1,0,0:0:0:0:
368,219,216232,6,0,L|403:116,1,109.250002083778,4|0,0:0|0:0,0:0:0:0:
271,219,216548,2,0,L|236:116,1,109.250002083778,2|0,0:0|0:0,0:0:0:0:
456,117,216863,2,0,L|421:220,1,109.250002083778,8|0,0:0|0:0,0:0:0:0:
144,165,217179,6,0,L|109:268,1,109.250002083778,4|0,0:0|0:0,0:0:0:0:
241,165,217495,2,0,L|276:268,1,109.250002083778,2|0,0:0|0:0,0:0:0:0:
56,267,217811,2,0,L|91:164,1,109.250002083778,8|0,0:0|0:0,0:0:0:0:
368,219,218127,5,4,0:0:0:0:
144,219,218284,1,0,0:0:0:0:
308,143,218442,1,2,0:0:0:0:
204,143,218600,1,0,0:0:0:0:
368,86,218758,1,8,0:0:0:0:
144,86,218916,1,0,0:0:0:0:
368,86,219074,5,4,0:0:0:0:
374,64,219153,1,0,0:0:0:0:
229,61,219232,1,0,0:0:0:0:
174,67,219311,1,0,0:0:0:0:
319,280,219390,5,2,0:0:0:0:
374,226,219469,1,0,0:0:0:0:
229,302,219548,1,0,0:0:0:0:
176,258,219627,1,0,0:0:0:0:
319,280,219705,5,8,0:0:0:0:
325,237,219784,1,0,0:0:0:0:
180,200,219863,1,0,0:0:0:0:
125,195,219942,1,0,0:0:0:0:
374,226,220021,6,0,P|440:168|393:96,1,190,4|0,0:0|0:0,0:0:0:0:
249,80,220495,1,8,0:0:0:0:
249,125,220653,1,0,0:0:0:0:
155,146,220811,1,0,0:0:0:0:
393,96,220969,6,0,L|396:191,1,95,2|0,0:0|0:0,0:0:0:0:
253,195,221284,2,0,L|250:290,1,95,2|0,0:0|0:0,0:0:0:0:
394,295,221600,2,0,L|489:292,1,95,8|0,0:0|0:0,0:0:0:0:
249,242,221916,6,0,L|245:50,1,190,2|0,0:0|0:0,0:0:0:0:
387,52,222390,1,2,0:0:0:0:
245,52,222548,1,8,0:0:0:0:
103,54,222705,1,0,0:0:0:0:
341,99,222863,6,0,L|344:194,1,95,2|0,0:0|0:0,0:0:0:0:
201,206,223179,2,0,L|198:301,1,95,2|0,0:0|0:0,0:0:0:0:
54,307,223495,2,0,L|149:304,1,95,8|0,0:0|0:0,0:0:0:0:
388,293,223811,6,0,L|483:290,1,95,2|0,0:0|0:0,0:0:0:0:
481,243,224048,1,0,0:0:0:0:
338,199,224127,1,0,0:0:0:0:
291,200,224205,1,0,0:0:0:0:
338,199,224284,1,2,0:0:0:0:
482,209,224442,2,0,L|479:114,1,95,8|0,0:0|0:0,0:0:0:0:
240,217,224758,6,0,L|145:214,1,95,2|0,0:0|0:0,0:0:0:0:
147,167,224995,1,0,0:0:0:0:
290,123,225074,1,0,0:0:0:0:
337,124,225152,1,0,0:0:0:0:
290,123,225231,1,2,0:0:0:0:
147,105,225390,2,0,L|144:200,1,95,8|0,0:0|0:0,0:0:0:0:
382,194,225705,5,2,0:0:0:0:
286,199,225863,1,0,0:0:0:0:
239,201,226021,1,0,0:0:0:0:
380,167,226179,1,2,0:0:0:0:
427,182,226258,1,0,0:0:0:0:
380,167,226337,2,0,L|285:164,1,95,8|0,0:0|0:0,0:0:0:0:
47,199,226653,6,0,P|73:63|201:43,1,285,2|2,0:0|0:0,0:0:0:0:
343,75,227284,1,8,0:0:0:0:
201,43,227442,1,0,0:0:0:0:
438,47,227600,6,0,P|467:137|443:226,1,190,4|0,0:0|0:0,0:0:0:0:
299,253,228074,1,2,0:0:0:0:
442,227,228232,2,0,L|443:132,1,95,8|0,0:0|0:0,0:0:0:0:
204,282,228548,2,0,L|203:187,1,95,2|0,0:0|0:0,0:0:0:0:
346,199,228863,2,0,L|347:104,1,95,2|0,0:0|0:0,0:0:0:0:
203,152,229179,2,0,L|202:57,1,95,8|0,0:0|0:0,0:0:0:0:
346,36,229495,5,2,0:0:0:0:
378,59,229574,1,0,0:0:0:0:
346,85,229653,1,0,0:0:0:0:
284,75,229732,1,0,0:0:0:0:
142,163,229811,5,2,0:0:0:0:
80,173,229890,1,0,0:0:0:0:
48,143,229969,1,0,0:0:0:0:
80,124,230048,1,0,0:0:0:0:
222,196,230127,5,8,0:0:0:0:
253,148,230205,1,0,0:0:0:0:
224,107,230284,1,0,0:0:0:0:
162,115,230363,1,0,0:0:0:0:
350,115,230442,6,0,L|445:112,1,95,4|0,0:0|0:0,0:0:0:0:
301,151,230758,2,0,L|206:154,1,95,2|0,0:0|0:0,0:0:0:0:
350,269,231074,2,0,L|445:272,1,95,8|0,0:0|0:0,0:0:0:0:
158,299,231390,6,0,L|155:204,1,95,4|0,0:0|0:0,0:0:0:0:
298,245,231705,2,0,L|301:150,1,95,2|0,0:0|0:0,0:0:0:0:
110,235,232021,2,0,L|113:140,1,95,2|0,0:0|0:0,0:0:0:0:
354,299,232337,6,0,L|357:204,1,95,4|0,0:0|0:0,0:0:0:0:
214,245,232653,2,0,L|211:150,1,95,2|0,0:0|0:0,0:0:0:0:
412,229,232969,2,0,L|409:134,1,95,2|0,0:0|0:0,0:0:0:0:
80,116,233284,5,4,0:0:0:0:
75,158,233363,1,0,0:0:0:0:
217,163,233442,1,0,0:0:0:0:
222,205,233521,1,0,0:0:0:0:
80,268,233600,5,2,0:0:0:0:
75,226,233679,1,0,0:0:0:0:
217,221,233758,1,0,0:0:0:0:
222,179,233837,1,0,0:0:0:0:
80,210,233916,5,8,0:0:0:0:
85,168,233995,1,0,0:0:0:0:
227,139,234074,1,0,0:0:0:0:
284,129,234153,1,0,0:0:0:0:
426,98,234232,5,4,0:0:0:0:
483,107,234311,1,0,0:0:0:0:
317,73,234390,1,0,0:0:0:0:
260,82,234469,1,0,0:0:0:0:
404,122,234548,5,2,0:0:0:0:
430,167,234627,1,0,0:0:0:0:
287,150,234705,1,0,0:0:0:0:
230,162,234784,1,0,0:0:0:0:
373,223,234863,1,8,0:0:0:0:
378,171,234942,1,0,0:0:0:0:
188,182,235021,1,0,0:0:0:0:
131,192,235100,1,0,0:0:0:0:
381,192,235179,5,4,0:0:0:0:
430,100,236758,6,0,L|335:97,2,95,0|8|2,0:0|0:0|0:0,0:0:0:0:
82,100,238653,6,0,L|177:103,2,95,8|0|2,0:0|0:0|0:0,0:0:0:0:
430,100,239442,1,8,0:0:0:0:
334,94,239600,2,0,P|250:137|253:223,1,190,0|2,0:0|0:0,0:0:0:0:
102,266,240232,2,0,L|197:263,1,95,0|2,0:0|0:0,0:0:0:0:
102,266,240548,2,0,P|65:180|134:140,1,190,8|2,0:0|0:0,0:0:0:0:
355,95,241179,2,0,L|260:98,1,95,0|8,0:0|0:0,0:0:0:0:
355,95,241495,2,0,P|419:123|432:189,1,142.5,2|0,0:0|0:0,0:0:0:0:
287,160,241811,6,0,B|215:221|215:221|258:241,1,142.5,4|0,0:0|0:0,0:0:0:0:
403,290,242127,2,0,B|446:270|446:270|374:209,1,142.5,4|0,0:0|0:0,0:0:0:0:
231,171,242442,1,8,0:0:0:0:
136,157,242600,1,0,0:0:0:0:
376,157,242758,6,0,L|439:85,1,95,4|0,0:0|0:0,0:0:0:0:
376,63,242995,1,0,0:0:0:0:
314,42,243074,2,0,L|251:114,1,95,2|0,0:0|0:0,0:0:0:0:
376,157,243390,2,0,L|439:229,1,95,8|0,0:0|0:0,0:0:0:0:
376,253,243627,1,0,0:0:0:0:
235,290,243705,5,4,0:0:0:0:
173,296,243784,1,0,0:0:0:0:
235,290,243863,1,0,0:0:0:0:
359,276,244021,1,2,0:0:0:0:
421,268,244100,1,0,0:0:0:0:
421,202,244179,1,0,0:0:0:0:
359,194,244258,1,0,0:0:0:0:
216,156,244337,5,8,0:0:0:0:
154,162,244416,1,0,0:0:0:0:
216,156,244495,1,0,0:0:0:0:
340,83,244653,2,0,L|403:155,1,95,2|0,0:0|0:0,0:0:0:0:
278,185,244969,5,2,0:0:0:0:
216,191,245048,1,0,0:0:0:0:
278,231,245127,1,0,0:0:0:0:
340,225,245206,1,0,0:0:0:0:
199,283,245284,1,8,0:0:0:0:
137,275,245363,1,0,0:0:0:0:
109,214,245442,1,0,0:0:0:0:
137,162,245521,1,0,0:0:0:0:
280,98,245600,5,2,0:0:0:0:
342,90,245679,1,0,0:0:0:0:
280,136,245758,1,0,0:0:0:0:
342,128,245837,1,0,0:0:0:0:
198,94,245916,1,8,0:0:0:0:
198,94,246232,1,2,0:0:0:0:
102,96,246390,1,0,0:0:0:0:
410,96,246548,6,0,L|473:168,1,95,4|0,0:0|0:0,0:0:0:0:
349,141,246863,2,0,L|286:213,1,95,2|0,0:0|0:0,0:0:0:0:
412,236,247179,2,0,L|349:308,1,95,8|0,0:0|0:0,0:0:0:0:
110,317,247495,6,0,L|47:245,1,95,4|0,0:0|0:0,0:0:0:0:
201,262,247811,2,0,L|264:190,1,95,2|0,0:0|0:0,0:0:0:0:
110,173,248127,2,0,L|173:101,1,95,8|0,0:0|0:0,0:0:0:0:
409,103,248442,6,0,L|472:175,1,95,4|0,0:0|0:0,0:0:0:0:
299,165,248758,2,0,L|236:237,1,95,2|0,0:0|0:0,0:0:0:0:
409,260,249074,2,0,L|346:332,1,95,8|0,0:0|0:0,0:0:0:0:
103,103,249390,6,0,L|40:175,1,95,4|0,0:0|0:0,0:0:0:0:
233,172,249706,2,0,L|296:244,1,95,2|0,0:0|0:0,0:0:0:0:
104,243,250022,2,0,L|41:315,1,95,8|0,0:0|0:0,0:0:0:0:
104,318,250258,1,0,0:0:0:0:
294,157,250337,5,4,0:0:0:0:
446,159,250495,1,0,0:0:0:0:
322,222,250653,1,2,0:0:0:0:
417,226,250811,1,0,0:0:0:0:
293,292,250969,1,8,0:0:0:0:
445,294,251127,1,0,0:0:0:0:
383,296,251205,1,0,0:0:0:0:
201,313,251284,5,4,0:0:0:0:
30,317,251442,1,0,0:0:0:0:
173,248,251600,1,2,0:0:0:0:
59,250,251758,1,0,0:0:0:0:
202,178,251916,1,8,0:0:0:0:
31,182,252074,1,0,0:0:0:0:
92,183,252152,1,0,0:0:0:0:
294,258,252232,5,4,0:0:0:0:
475,255,252390,1,0,0:0:0:0:
322,193,252548,1,2,0:0:0:0:
446,188,252706,1,0,0:0:0:0:
293,123,252863,1,8,0:0:0:0:
475,121,253022,1,0,0:0:0:0:
414,115,253100,1,0,0:0:0:0:
232,253,253179,5,4,0:0:0:0:
42,254,253337,1,0,0:0:0:0:
204,188,253495,1,2,0:0:0:0:
71,187,253653,1,0,0:0:0:0:
233,118,253811,1,8,0:0:0:0:
42,120,253969,1,0,0:0:0:0:
103,114,254047,1,0,0:0:0:0:
304,93,254127,5,4,0:0:0:0:
365,99,254205,1,0,0:0:0:0:
206,88,254284,1,0,0:0:0:0:
145,94,254362,1,0,0:0:0:0:
323,137,254442,5,2,0:0:0:0:
384,143,254520,1,0,0:0:0:0:
187,132,254599,1,0,0:0:0:0:
126,138,254679,1,0,0:0:0:0:
342,181,254758,5,2,0:0:0:0:
403,187,254838,1,0,0:0:0:0:
168,176,254916,1,0,0:0:0:0:
107,182,254996,1,0,0:0:0:0:
375,311,255074,6,0,P|256:1|136:311,1,855,4|0,0:0|0:0,0:0:0:0:
256,193,256653,1,2,0:0:0:0:
328,198,256733,1,0,0:0:0:0:
256,193,256811,1,2,0:0:0:0:
184,198,256891,1,0,0:0:0:0:
436,204,256969,6,0,P|473:120|409:72,1,185.249991519928,4|0,0:0|0:0,0:0:0:0:
254,94,257284,2,2,L|384:78,1,123.499994346619
215,56,257600,2,0,L|92:71,1,123.499994346619,8|0,0:0|0:0,0:0:0:0:
343,126,257916,6,0,L|358:248,1,123.499994346619,2|0,0:0|0:0,0:0:0:0:
209,209,258232,2,0,L|193:331,1,123.499994346619,2|0,0:0|0:0,0:0:0:0:
442,344,258548,2,0,L|458:222,1,123.499994346619,8|0,0:0|0:0,0:0:0:0:
210,199,258863,6,0,L|87:214,1,123.499994346619,2|0,0:0|0:0,0:0:0:0:
250,262,259179,1,2,0:0:0:0:
312,255,259258,1,0,0:0:0:0:
247,198,259337,1,0,0:0:0:0:
185,205,259416,1,0,0:0:0:0:
340,173,259495,5,8,0:0:0:0:
402,166,259574,1,0,0:0:0:0:
463,91,259653,1,0,0:0:0:0:
401,98,259732,1,0,0:0:0:0:
246,101,259811,5,2,0:0:0:0:
178,113,259890,1,0,0:0:0:0:
146,150,259969,1,0,0:0:0:0:
178,185,260048,1,0,0:0:0:0:
333,184,260127,5,8,0:0:0:0:
401,196,260206,1,0,0:0:0:0:
433,233,260285,1,0,0:0:0:0:
401,268,260364,1,0,0:0:0:0:
248,295,260442,2,0,L|125:310,1,123.499994346619,2|0,0:0|0:0,0:0:0:0:
374,356,260758,6,0,L|390:234,1,123.499994346619,4|0,0:0|0:0,0:0:0:0:
228,283,261074,2,0,L|212:161,1,123.499994346619,2|0,0:0|0:0,0:0:0:0:
461,226,261390,2,0,L|445:104,1,123.499994346619,8|0,0:0|0:0,0:0:0:0:
198,95,261705,6,0,L|75:110,1,123.499994346619,2|0,0:0|0:0,0:0:0:0:
237,168,262021,2,0,L|114:183,1,123.499994346619,2|0,0:0|0:0,0:0:0:0:
365,249,262337,2,0,L|242:264,1,123.499994346619,8|0,0:0|0:0,0:0:0:0:
180,273,262574,1,0,0:0:0:0:
335,325,262653,6,0,L|458:310,1,123.499994346619,2|0,0:0|0:0,0:0:0:0:
271,304,262969,1,2,0:0:0:0:
204,292,263048,1,0,0:0:0:0:
179,227,263127,1,0,0:0:0:0:
215,171,263205,1,0,0:0:0:0:
370,213,263284,1,8,0:0:0:0:
406,157,263362,1,0,0:0:0:0:
381,92,263441,1,0,0:0:0:0:
314,80,263520,1,0,0:0:0:0:
71,70,263600,6,0,L|256:70,1,185.249991519928,4|0,0:0|0:0,0:0:0:0:
456,100,263916,2,0,L|254:100,1,199.499993911743,4|0,0:0|0:0,0:0:0:0:
41,127,264232,2,0,L|255:126,1,213.750008153916,4|0,0:0|0:0,0:0:0:0:
471,127,264548,6,0,P|482:219|411:261,1,185.249991519928,4|0,0:0|0:0,0:0:0:0:
255,269,264863,2,2,L|132:253,1,123.499994346619
320,207,265179,2,0,L|442:191,1,123.499994346619,8|0,0:0|0:0,0:0:0:0:
192,207,265495,6,0,L|69:191,1,123.499994346619,4|0,0:0|0:0,0:0:0:0:
318,190,265811,2,0,L|441:174,1,123.499994346619,2|0,0:0|0:0,0:0:0:0:
191,111,266127,2,0,B|101:88|101:88|191:69,1,185.249991519928,8|0,0:0|0:0,0:0:0:0:
346,72,266442,5,2,0:0:0:0:
407,77,266521,1,0,0:0:0:0:
253,160,266600,1,2,0:0:0:0:
192,156,266679,1,0,0:0:0:0:
346,177,266758,2,0,B|436:200|436:200|346:219,1,185.249991519928,8|0,0:0|0:0,0:0:0:0:
158,222,267074,1,2,0:0:0:0:
283,259,267232,1,0,0:0:0:0:
344,263,267311,1,0,0:0:0:0:
168,263,267390,6,0,P|87:224|107:146,1,185.249991519928,4|0,0:0|0:0,0:0:0:0:
344,263,267705,2,0,P|425:224|405:146,1,185.249991519928,4|0,0:0|0:0,0:0:0:0:
248,134,268021,2,0,L|125:134,1,123.499994346619,8|0,0:0|0:0,0:0:0:0:
404,145,268337,6,0,L|418:268,1,123.499994346619,4|0,0:0|0:0,0:0:0:0:
244,225,268653,2,0,L|229:348,1,123.499994346619,2|0,0:0|0:0,0:0:0:0:
478,247,268969,2,0,L|463:370,1,123.499994346619,8|0,0:0|0:0,0:0:0:0:
108,286,269284,6,0,L|94:163,1,123.499994346619,4|0,0:0|0:0,0:0:0:0:
268,206,269600,2,0,L|283:83,1,123.499994346619,2|0,0:0|0:0,0:0:0:0:
34,184,269916,2,0,L|49:61,1,123.499994346619,8|0,0:0|0:0,0:0:0:0:
116,61,270153,1,0,0:0:0:0:
303,64,270232,5,4,0:0:0:0:
464,68,270390,1,0,0:0:0:0:
334,131,270548,1,2,0:0:0:0:
438,137,270705,1,0,0:0:0:0:
308,203,270863,1,8,0:0:0:0:
469,199,271021,1,0,0:0:0:0:
410,208,271100,1,0,0:0:0:0:
209,64,271179,5,4,0:0:0:0:
48,68,271337,1,0,0:0:0:0:
178,131,271495,1,2,0:0:0:0:
74,137,271652,1,0,0:0:0:0:
204,203,271810,1,8,0:0:0:0:
43,199,271968,1,0,0:0:0:0:
102,208,272047,1,0,0:0:0:0:
314,68,272127,5,4,0:0:0:0:
360,54,272206,1,0,0:0:0:0:
198,68,272285,1,0,0:0:0:0:
152,54,272364,1,0,0:0:0:0:
321,100,272442,5,2,0:0:0:0:
371,86,272521,1,0,0:0:0:0:
191,100,272600,1,0,0:0:0:0:
141,86,272679,1,0,0:0:0:0:
327,131,272758,5,2,0:0:0:0:
379,119,272837,1,0,0:0:0:0:
185,131,272916,1,0,0:0:0:0:
133,119,272995,1,0,0:0:0:0:
334,163,273074,5,2,0:0:0:0:
389,151,273153,1,0,0:0:0:0:
178,163,273232,1,0,0:0:0:0:
123,151,273311,1,0,0:0:0:0:
341,196,273390,5,2,0:0:0:0:
400,187,273469,1,0,0:0:0:0:
171,196,273547,1,0,0:0:0:0:
112,187,273626,1,0,0:0:0:0:
349,231,273705,5,2,0:0:0:0:
411,222,273784,1,0,0:0:0:0:
163,231,273863,1,2,0:0:0:0:
101,222,273942,1,0,0:0:0:0:
411,222,274021,5,4,0:0:0:0:
256,192,274179,12,0,276863,0:0:0:0:
97,220,277495,5,2,0:0:0:0:
191,209,277653,1,0,0:0:0:0:
285,198,277811,2,0,P|327:113|281:40,1,190,2|0,0:0|0:0,0:0:0:0:
185,50,278305,1,2,0:0:0:0:
280,40,278470,1,2,0:0:0:0:
90,155,278800,2,0,L|279:167,2,190,2|0|2,0:0|0:0|0:0,0:0:0:0:
280,56,279885,5,2,0:0:0:0:
368,84,280279,1,0,0:0:0:0:
144,84,280674,1,0,0:0:0:0:
368,84,281092,2,0,L|371:276,1,190,2|0,0:0|0:0,0:0:0:0:
144,84,281984,2,0,L|142:184,1,95,2|0,0:0|0:0,0:0:0:0:
368,84,282495,5,2,0:0:0:0:
254,83,282631,1,0,0:0:0:0:
199,84,282699,1,0,0:0:0:0:
254,83,282767,1,2,0:0:0:0:
