osu file format v14

[General]
AudioFilename: audio.mp3
AudioLeadIn: 0
PreviewTime: 281044
Countdown: 0
SampleSet: Normal
StackLeniency: 0.7
Mode: 0
LetterboxInBreaks: 0
WidescreenStoryboard: 0

[Editor]
Bookmarks: 37486,114309,144625,174941,190098,205256,212834,225148,235572,281046,291781,302835,319888
DistanceSpacing: 1.3
BeatDivisor: 4
GridSize: 4
TimelineZoom: 2.1

[Metadata]
Title:Caliburne ~Story of the Legendary sword~
TitleUnicode:Caliburne ~Story of the Legendary sword~
Artist:Project Grimoire
ArtistUnicode:Project Grimoire
Creator:SnowNiNo_
Version:Caliburne
Source:maimai ORANGE
Tags:Team Grimoire ICE Grimoire of Emerald Brionac ~Lugh Lamhfhata~ Arthur ~once Upon a Time~ -Tochi
BeatmapID:1319335
BeatmapSetID:625881

[Difficulty]
HPDrainRate:5.5
CircleSize:4
OverallDifficulty:9
ApproachRate:9.6
SliderMultiplier:1.9
SliderTickRate:1

[Events]
//Background and Video events
0,0,"1396308418-img-1576.jpg",0,0
//Break Periods
//Storyboard Layer 0 (Background)
//Storyboard Layer 1 (Fail)
//Storyboard Layer 2 (Pass)
//Storyboard Layer 3 (Foreground)
//Storyboard Sound Samples

[TimingPoints]
578,352.941176470588,3,2,0,30,1,0
1637,352.941176470588,3,2,0,30,1,0
1637,-133.333333333333,3,2,0,30,0,0
16153,400,3,2,0,30,1,0
16153,-133.333333333333,3,2,0,30,0,0
16937,352.941176470588,3,2,0,30,1,0
16937,-133.333333333333,3,2,0,30,0,0
17622,315.789473684211,3,2,0,30,1,0
17622,-133.333333333333,3,2,0,30,0,0
18033,272.727272727273,3,2,0,30,1,0
18033,-133.333333333333,3,2,0,30,0,0
18578,352.941176470588,3,2,0,30,1,0
18578,-133.333333333333,3,2,0,30,0,0
33401,-227.272727272727,3,2,0,20,0,0
33489,-227.272727272727,3,2,1,5,0,0
38166,-227.272727272727,3,2,1,30,0,0
38520,315.789473684211,3,2,0,30,1,0
38520,-133.333333333333,3,2,0,30,0,0
38598,-133.333333333333,3,2,1,30,0,0
39467,-133.333333333333,3,2,0,30,0,0
40730,-133.333333333333,3,2,1,30,0,0
41362,-133.333333333333,3,2,0,30,0,0
42388,-133.333333333333,3,2,1,30,0,0
43256,-133.333333333333,3,2,0,30,0,0
46177,-133.333333333333,3,2,1,30,0,0
47046,-133.333333333333,3,2,0,30,0,0
48309,-133.333333333333,3,2,1,30,0,0
48941,-133.333333333333,3,2,0,30,0,0
49888,-100,3,1,1,70,0,0
52730,-83.3333333333333,3,1,1,70,0,0
52967,-83.3333333333333,3,1,1,5,0,0
53046,-83.3333333333333,3,1,1,70,0,0
53283,-83.3333333333333,3,1,1,5,0,0
53362,-83.3333333333333,3,2,1,70,0,0
53677,-100,3,1,1,50,0,0
53914,-100,3,1,1,5,0,0
53993,-100,3,1,1,50,0,0
54230,-100,3,1,1,5,0,0
54309,-100,3,1,1,50,0,0
54862,-100,3,1,1,5,0,0
54941,-100,3,1,1,50,0,0
55177,-100,3,1,1,5,0,0
55256,-100,3,1,1,50,0,0
55809,-100,3,1,1,5,0,0
55888,-100,3,1,1,50,0,0
56125,-100,3,1,1,5,0,0
56204,-100,3,1,1,50,0,0
56756,-100,3,1,1,5,0,0
56835,-100,3,1,1,50,0,0
57072,-100,3,1,1,5,0,0
57151,-100,3,1,1,50,0,0
57704,-100,3,1,1,5,0,0
57783,-100,3,1,1,50,0,0
58020,-100,3,1,1,5,0,0
58098,-100,3,1,1,50,0,0
58651,-100,3,1,1,5,0,0
58730,-100,3,1,1,50,0,0
58967,-100,3,1,1,5,0,0
59046,-100,3,1,1,50,0,0
59598,-100,3,1,1,5,0,0
59677,-100,3,1,1,50,0,0
59914,-100,3,1,1,5,0,0
59993,-100,3,1,1,50,0,0
60546,-100,3,1,1,5,0,0
60625,-100,3,1,1,50,0,0
83993,-200,3,1,20,50,0,0
84072,-200,3,2,0,30,0,0
85809,-200,3,2,0,5,0,0
85888,-200,3,2,0,30,0,0
87704,-200,3,2,0,5,0,0
87783,-200,3,2,0,30,0,0
89598,-200,3,2,0,5,0,0
89677,-200,3,2,0,30,0,0
91493,-200,3,2,0,5,0,0
91572,-200,3,2,0,30,0,0
93388,-200,3,2,0,5,0,0
93467,-200,3,2,0,30,0,0
95283,-200,3,2,0,5,0,0
95362,-200,3,2,0,30,0,0
96230,-200,3,2,0,5,0,0
96309,-200,3,2,1,30,0,0
97177,-200,3,2,1,5,0,0
97256,-200,3,2,0,30,0,0
98125,-200,3,2,0,5,0,0
98204,-200,3,2,0,30,0,0
99072,-200,3,2,0,5,0,0
99151,-200,3,2,0,30,0,0
100967,-200,3,2,0,5,0,0
101046,-200,3,2,0,30,0,0
102862,-200,3,2,0,5,0,0
102941,-200,3,2,0,30,0,0
104756,-200,3,2,0,5,0,0
104835,-200,3,2,0,30,0,0
106651,-200,3,2,0,5,0,0
106730,-200,3,2,0,30,0,0
108546,-200,3,2,0,5,0,0
108625,-200,3,2,0,30,0,0
110441,-200,3,2,0,5,0,0
110520,-200,3,2,0,30,0,0
111388,-200,3,2,1,5,0,0
111467,-200,3,2,1,30,0,0
112335,-200,3,2,1,5,0,0
112414,-200,3,2,0,30,0,0
113283,-200,3,2,1,5,0,0
113362,-200,3,2,1,30,0,0
114230,-200,3,2,1,5,0,0
114309,-200,3,2,0,30,0,0
115256,-200,3,2,1,30,0,0
115335,-200,3,2,0,30,0,0
117151,-200,3,2,1,30,0,0
117230,-200,3,2,0,30,0,0
119046,-200,3,2,1,30,0,0
119125,-200,3,2,0,30,0,0
120941,-200,3,2,1,30,0,0
121020,-200,3,2,0,30,0,0
122835,-200,3,2,1,30,0,0
122914,-200,3,2,0,30,0,0
124730,-200,3,2,1,30,0,0
124809,-200,3,2,0,30,0,0
126625,-200,3,2,1,30,0,0
126704,-200,3,2,0,30,0,0
130414,-200,3,2,1,30,0,0
130493,-200,3,2,0,30,0,0
132309,-200,3,2,1,30,0,0
132388,-200,3,2,0,30,0,0
134204,-200,3,2,1,30,0,0
134283,-200,3,2,0,30,0,0
136098,-200,3,2,1,30,0,0
136177,-200,3,2,0,30,0,0
137993,-200,3,2,1,30,0,0
138072,-200,3,2,0,30,0,0
139888,-200,3,2,1,30,0,0
139967,-200,3,2,0,30,0,0
141783,-200,3,2,1,30,0,0
141862,-200,3,2,0,30,0,0
143677,-200,3,2,1,30,0,0
144625,-50,3,1,1,70,0,1
157888,-100,3,1,1,70,0,1
159783,-50,3,1,1,70,0,1
173046,-100,3,1,1,70,0,1
174941,-200,3,1,1,70,0,1
175020,-200,3,2,2,30,0,0
190098,-100,3,1,1,50,0,0
204388,-100,3,2,0,50,0,0
205256,473.634354278497,4,1,1,70,1,0
205256,-55.5555555555556,4,1,1,70,0,0
227992,315.789473684211,3,1,1,80,1,0
228939,-66.6666666666667,3,1,1,80,0,0
234623,-100,3,1,1,80,0,0
235570,-50,3,1,1,80,0,1
248834,-100,3,1,1,80,0,1
250728,-100,3,1,1,80,0,0
251123,-100,3,1,1,5,0,0
251202,-50,3,1,1,100,0,0
251360,-100,3,1,1,80,0,0
251676,-66.6666666666667,3,1,1,80,0,0
252623,-100,3,1,1,80,0,0
253018,-100,3,1,1,5,0,0
253097,-50,3,1,1,100,0,0
253255,-100,3,1,1,80,0,0
253570,-66.6666666666667,3,1,1,80,0,0
254518,-100,3,1,1,80,0,0
258702,-100,3,1,1,5,0,0
258781,-50,3,1,1,100,0,0
258939,-100,3,1,1,80,0,0
259255,-66.6666666666667,3,1,1,80,0,0
260202,-100,3,1,1,80,0,0
260597,-100,3,1,1,5,0,0
260676,-50,3,1,1,100,0,0
260834,-100,3,1,1,80,0,0
261149,-66.6666666666667,3,1,1,80,0,0
262097,-100,3,1,1,80,0,0
281044,-100,3,1,20,80,0,0
281123,-100,3,1,1,50,0,0
295255,-100,3,1,1,60,0,0
296202,-100,3,1,1,70,0,0
297149,-100,3,1,1,80,0,0
298097,-100,3,1,1,90,0,0
299044,-100,3,1,1,100,0,0
300939,-200,3,1,1,100,0,0
301018,-200,3,1,1,5,0,0
302834,-83.3333333333333,3,1,1,80,0,1
319886,-200,3,1,20,100,0,0
319965,-200,3,1,1,5,0,0
323202,-200,3,2,0,5,0,0
323360,-200,3,2,0,20,0,0
323661,329.67032967033,3,2,0,20,1,0
323661,-133.333333333333,3,2,0,20,0,0
324650,359.281437125748,3,2,0,20,1,0
324650,-133.333333333333,3,2,0,20,0,0
325735,394.736842105263,3,2,0,15,1,0
326942,437.956204379562,3,2,0,15,1,0
327834,444.444444444444,3,2,0,15,1,0
327834,-133.333333333333,3,2,0,15,0,0
328345,545.454545454546,3,2,0,15,1,0

[Colours]
Combo1 : 255,128,0
Combo2 : 0,255,255
Combo3 : 64,64,255
Combo4 : 242,24,57

[HitObjects]
401,184,1284,5,0,0:0:0:0:
401,184,1637,2,0,L|412:35,2,142.500005435944,2|0|0,0:0|0:0|0:0,0:0:0:0:
380,267,2695,2,0,P|432:264|487:184,2,142.500005435944,2|0|0,0:0|0:0|0:0,0:0:0:0:
318,206,3753,1,2,0:0:0:0:
401,184,4106,1,0,0:0:0:0:
339,123,4460,5,0,0:0:0:0:
318,206,4813,2,0,L|329:355,2,142.500005435944,2|0|0,0:0|0:0|0:0,0:0:0:0:
257,144,5872,5,2,0:0:0:0:
280,61,6225,1,0,0:0:0:0:
339,123,6578,1,0,0:0:0:0:
257,144,6931,5,2,0:0:0:0:
198,82,7284,1,0,0:0:0:0:
280,61,7636,1,0,0:0:0:0:
339,123,7989,6,0,L|491:137,2,142.500005435944,2|0|0,0:0|0:0|0:0,0:0:0:0:
257,144,9048,2,0,B|252:89|278:56|321:43|321:43|253:63|163:38,1,285.000010871888,2|0,0:0|0:0,0:0:0:0:
101,92,10107,6,0,P|84:133|70:246,2,142.500005435944,2|0|0,0:0|0:0|0:0,0:0:0:0:
169,39,11167,1,2,0:0:0:0:
178,123,11520,1,0,0:0:0:0:
246,70,11872,1,0,0:0:0:0:
101,92,12225,6,0,P|98:155|161:207,2,142.500005435944,2|0|0,0:0|0:0|0:0,0:0:0:0:
169,39,13283,1,2,0:0:0:0:
246,70,13636,1,0,0:0:0:0:
255,154,13989,1,0,0:0:0:0:
178,123,14342,6,0,L|34:111,2,142.500005435944,2|0|0,0:0|0:0|0:0,0:0:0:0:
256,164,15401,6,0,P|269:207|272:264,2,95.0000036239625,2|0|0,0:0|0:0|0:0,0:0:0:0:
264,134,16153,6,0,P|294:101|353:72,2,95.0000036239625
238,144,16937,6,0,P|194:133|141:93,2,95.0000036239625
256,164,17622,6,0,L|368:174,1,95.0000036239625
366,253,18033,6,0,L|271:244,2,95.0000036239625
428,197,18578,5,2,0:0:0:0:
428,197,18754,1,0,0:0:0:0:
428,197,18930,2,0,P|445:278|403:328,2,142.500005435944,0|0|2,0:0|0:0|0:0,0:0:0:0:
350,172,19989,1,0,0:0:0:0:
366,253,20342,1,0,0:0:0:0:
284,228,20695,6,0,L|122:215,1,142.500005435944,2|0,0:0|0:0,0:0:0:0:
121,133,21401,2,0,P|67:175|69:263,2,142.500005435944,0|2|0,0:0|0:0|0:0,0:0:0:0:
203,155,22460,1,0,0:0:0:0:
141,216,22813,6,0,L|146:370,2,142.500005435944,2|0|0,0:0|0:0|0:0,0:0:0:0:
203,155,23872,1,2,0:0:0:0:
285,177,24225,1,0,0:0:0:0:
305,260,24578,1,0,0:0:0:0:
367,199,24930,6,0,L|389:49,1,142.500005435944,2|0,0:0|0:0,0:0:0:0:
306,36,25636,2,0,L|285:176,2,142.500005435944,0|2|0,0:0|0:0|0:0,0:0:0:0:
387,58,26695,1,0,0:0:0:0:
376,142,27048,6,0,L|355:282,1,142.500005435944,2|0,0:0|0:0,0:0:0:0:
295,344,27754,1,0,0:0:0:0:
273,261,28107,1,2,0:0:0:0:
213,323,28460,2,0,P|144:354|69:352,1,142.500005435944
30,282,29166,6,0,L|43:128,2,142.500005435944,2|0|0,0:0|0:0|0:0,0:0:0:0:
78,354,30225,1,2,0:0:0:0:
114,277,30577,2,0,L|127:123,1,142.500005435944
175,64,31283,6,0,P|102:51|43:110,2,142.500005435944,2|0|0,0:0|0:0|0:0,0:0:0:0:
212,141,32342,1,2,0:0:0:0:
300,141,32695,1,0,0:0:0:0:
337,64,33048,1,0,0:0:0:0:
240,8,33401,6,0,B|223:32|256:45|256:45|239:110|239:110|192:109|157:127|157:127|231:192|183:264|183:264|199:337|256:372|256:372|313:337|329:264|329:264|281:192|355:127|355:127|320:109|273:110|273:110|256:45|256:45|289:32|272:8,1,982.300029977418,6|0,0:0|0:0,0:0:0:0:
415,268,38166,5,0,0:0:0:0:
415,268,38520,2,0,L|420:221,2,35.625001358986,2|0|0,0:0|0:0|0:0,0:0:0:0:
369,340,38835,1,2,0:0:0:0:
328,264,38993,1,0,0:0:0:0:
282,336,39151,1,0,0:0:0:0:
282,336,39467,6,0,P|230:297|137:300,1,142.500005435944,2|2,0:0|0:0,0:0:0:0:
154,293,40098,1,0,0:0:0:0:
75,255,40256,1,0,0:0:0:0:
86,170,40414,1,2,0:0:0:0:
86,170,40730,5,2,0:0:0:0:
149,111,40888,1,0,0:0:0:0:
149,111,41046,1,0,0:0:0:0:
149,111,41362,2,0,P|169:148|133:243,1,142.500005435944,2|2,0:0|0:0,0:0:0:0:
139,238,41993,5,0,0:0:0:0:
224,235,42151,1,0,0:0:0:0:
242,318,42309,2,0,P|283:297|287:183,1,142.500005435944,2|2,0:0|0:0,0:0:0:0:
307,212,42941,1,0,0:0:0:0:
307,212,43256,2,0,L|458:204,1,142.500005435944,2|0,0:0|0:0,0:0:0:0:
453,208,43888,1,0,0:0:0:0:
453,208,44204,6,0,L|462:129,1,71.2500027179719,2|0,0:0|0:0,0:0:0:0:
476,52,44520,2,0,P|432:42|323:76,1,142.500005435944,2|0,0:0|0:0,0:0:0:0:
268,113,44993,1,2,0:0:0:0:
324,176,45151,1,2,0:0:0:0:
212,50,45467,1,2,0:0:0:0:
212,50,45783,1,0,0:0:0:0:
212,50,46098,6,0,L|265:46,2,35.625001358986,2|0|0,0:0|0:0|0:0,0:0:0:0:
140,97,46414,1,2,0:0:0:0:
208,147,46572,1,0,0:0:0:0:
136,194,46730,1,0,0:0:0:0:
136,194,47046,6,0,P|190:184|249:245,1,142.500005435944,2|2,0:0|0:0,0:0:0:0:
248,241,47677,1,0,0:0:0:0:
290,315,47835,1,0,0:0:0:0:
373,295,47993,5,2,0:0:0:0:
373,295,48309,1,2,0:0:0:0:
456,275,48467,1,0,0:0:0:0:
456,275,48625,1,0,0:0:0:0:
456,275,48941,2,0,L|431:134,1,142.500005435944,2|2,0:0|0:0,0:0:0:0:
431,134,49572,5,0,0:0:0:0:
431,134,49730,1,0,0:0:0:0:
267,263,49888,5,6,0:0:0:0:
247,54,50046,1,2,0:0:0:0:
367,224,50204,1,2,0:0:0:0:
158,243,50362,1,2,0:0:0:0:
329,123,50520,1,2,0:0:0:0:
349,329,50677,1,0,0:0:0:0:
349,329,50756,1,0,0:0:0:0:
349,329,50835,5,6,0:0:0:0:
227,158,50993,1,2,0:0:0:0:
435,137,51151,1,2,0:0:0:0:
266,260,51309,1,2,0:0:0:0:
245,51,51467,1,2,0:0:0:0:
367,224,51625,1,0,0:0:0:0:
367,224,51704,1,0,0:0:0:0:
367,224,51783,5,6,0:0:0:0:
158,243,51941,1,2,0:0:0:0:
367,94,52099,1,2,0:0:0:0:
392,347,52256,1,2,0:0:0:0:
241,138,52414,1,2,0:0:0:0:
496,113,52572,1,2,0:0:0:0:
288,264,52730,6,0,B|231:259|231:259|190:280|190:280|118:273,1,170.999994781494,2|0,0:0|2:0,0:0:0:0:
160,194,53046,2,0,P|205:242|178:342,1,170.999994781494,2|0,0:0|2:0,0:0:0:0:
98,357,53362,2,0,L|92:384,6,28.4999991302491
122,273,53677,6,0,L|285:259,1,142.5,6|0,0:0|2:0,0:0:0:0:
226,187,53993,2,0,L|84:199,1,142.5,2|4,0:0|2:0,0:0:0:0:
264,261,54309,2,0,P|303:220|304:170,1,95
231,44,54625,6,0,L|225:198,1,142.5,2|0,0:0|2:0,0:0:0:0:
307,183,54941,2,0,L|312:40,1,142.5,2|0,0:0|2:0,0:0:0:0:
229,190,55256,1,0,0:0:0:0:
229,190,55414,1,0,0:0:0:0:
264,261,55572,6,0,P|309:284|417:296,1,142.5,2|0,0:0|2:0,0:0:0:0:
243,348,55888,2,0,P|182:353|83:380,1,142.5,2|0,0:0|2:0,0:0:0:0:
7,377,56204,2,0,P|28:324|35:273,1,95
18,190,56520,6,0,L|178:177,1,142.5,2|0,0:0|2:0,0:0:0:0:
176,89,56835,2,0,L|336:102,1,142.5,2|0,0:0|2:0,0:0:0:0:
375,184,57151,1,0,0:0:0:0:
375,184,57309,1,0,0:0:0:0:
281,226,57467,6,0,P|273:175|325:95,1,142.5,2|0,0:0|2:0,0:0:0:0:
364,288,57783,2,0,P|323:320|228:315,1,142.5,2|0,0:0|2:0,0:0:0:0:
375,184,58098,2,0,P|416:195|459:241,1,95
281,226,58414,6,0,L|272:61,1,142.5,2|0,0:0|2:0,0:0:0:0:
187,26,58730,2,0,L|179:168,1,142.5,2|0,0:0|2:0,0:0:0:0:
192,266,59046,1,0,0:0:0:0:
192,266,59204,1,0,0:0:0:0:
99,227,59362,6,0,L|90:62,1,142.5,2|0,0:0|2:0,0:0:0:0:
80,332,59677,2,0,P|138:326|195:251,1,142.5,2|0,0:0|2:0,0:0:0:0:
179,168,59993,2,0,P|229:174|270:205,1,95
270,342,60309,6,0,L|264:162,1,142.5,2|0,0:0|2:0,0:0:0:0:
189,73,60625,1,2,0:0:0:0:
186,96,60703,1,0,0:0:0:0:
183,120,60782,1,0,0:0:0:0:
181,143,60861,1,0,0:0:0:0:
178,167,60940,5,0,0:0:0:0:
207,128,61020,1,0,0:0:0:0:
249,108,61098,1,0,0:0:0:0:
296,112,61177,1,0,0:0:0:0:
335,138,61256,6,0,P|389:149|427:170,1,95,6|0,0:0|0:0,0:0:0:0:
360,266,61572,2,0,P|317:287|271:295,1,95,2|0,0:0|0:0,0:0:0:0:
247,295,61809,1,0,0:0:0:0:
247,295,61888,1,8,0:0:0:0:
151,232,62046,1,0,0:0:0:0:
251,177,62204,6,0,L|263:66,1,95,2|0,0:0|0:0,0:0:0:0:
347,240,62520,1,2,0:0:0:0:
247,295,62677,1,0,0:0:0:0:
247,295,62756,1,0,0:0:0:0:
247,295,62835,2,0,P|188:318|135:322,1,95,8|0,0:0|0:0,0:0:0:0:
347,240,63151,6,0,P|403:254|451:277,1,95,2|0,0:0|0:0,0:0:0:0:
343,358,63467,1,2,0:0:0:0:
247,295,63625,1,0,0:0:0:0:
247,295,63704,1,0,0:0:0:0:
247,295,63783,2,0,L|252:188,1,95,8|0,0:0|0:0,0:0:0:0:
351,122,64098,5,2,0:0:0:0:
347,240,64256,1,0,0:0:0:0:
447,185,64414,2,0,L|452:78,1,95,2|0,0:0|0:0,0:0:0:0:
454,66,64651,1,0,0:0:0:0:
454,66,64730,1,8,0:0:0:0:
355,4,64888,1,0,0:0:0:0:
351,122,65046,6,0,L|346:216,1,95,2|0,0:0|0:0,0:0:0:0:
355,4,65362,1,2,0:0:0:0:
252,60,65520,1,0,0:0:0:0:
252,60,65598,1,0,0:0:0:0:
252,60,65678,1,8,0:0:0:0:
351,122,65835,1,0,0:0:0:0:
248,178,65993,6,0,L|142:170,1,95,2|0,0:0|0:0,0:0:0:0:
252,60,66309,1,2,0:0:0:0:
351,122,66467,1,0,0:0:0:0:
351,122,66546,1,0,0:0:0:0:
351,122,66625,2,0,P|366:177|360:234,1,95,8|0,0:0|0:0,0:0:0:0:
244,296,66941,6,0,L|138:288,1,95,2|0,0:0|0:0,0:0:0:0:
248,178,67256,1,2,0:0:0:0:
347,240,67414,1,0,0:0:0:0:
347,240,67493,1,0,0:0:0:0:
347,240,67572,2,0,P|362:300|358:339,1,95,8|0,0:0|0:0,0:0:0:0:
351,122,67888,6,0,P|409:129|456:156,1,95,2|0,0:0|0:0,0:0:0:0:
507,265,68204,1,2,0:0:0:0:
504,288,68282,1,0,0:0:0:0:
501,312,68361,1,0,0:0:0:0:
498,335,68440,1,0,0:0:0:0:
495,359,68520,5,8,0:0:0:0:
463,323,68598,1,0,0:0:0:0:
422,299,68677,1,0,0:0:0:0:
376,289,68756,1,0,0:0:0:0:
329,294,68835,6,0,L|223:306,1,95,6|0,0:0|0:0,0:0:0:0:
179,228,69151,1,2,0:0:0:0:
273,218,69309,1,0,0:0:0:0:
273,218,69388,1,0,0:0:0:0:
273,218,69467,1,8,0:0:0:0:
235,304,69625,1,0,0:0:0:0:
217,142,69783,6,0,L|108:125,1,95,2|0,0:0|0:0,0:0:0:0:
311,132,70098,1,2,0:0:0:0:
273,218,70256,1,0,0:0:0:0:
273,218,70335,1,0,0:0:0:0:
273,218,70414,1,8,0:0:0:0:
255,56,70572,1,0,0:0:0:0:
367,208,70730,6,0,L|473:196,1,95,2|0,0:0|0:0,0:0:0:0:
273,218,71046,1,2,0:0:0:0:
329,294,71204,1,0,0:0:0:0:
329,294,71283,1,0,0:0:0:0:
329,294,71362,1,8,0:0:0:0:
311,132,71520,1,0,0:0:0:0:
235,304,71677,5,2,0:0:0:0:
367,208,71835,1,0,0:0:0:0:
217,142,71993,1,2,0:0:0:0:
329,294,72151,1,0,0:0:0:0:
311,132,72309,2,0,L|417:120,1,95,8|0,0:0|0:0,0:0:0:0:
235,304,72625,6,0,L|140:314,1,95,2|0,0:0|0:0,0:0:0:0:
273,218,72941,1,2,0:0:0:0:
329,294,73098,1,0,0:0:0:0:
329,294,73177,1,0,0:0:0:0:
329,294,73256,1,8,0:0:0:0:
179,228,73414,1,0,0:0:0:0:
367,208,73572,6,0,L|461:197,1,95,2|0,0:0|0:0,0:0:0:0:
311,132,73888,1,2,0:0:0:0:
273,218,74046,1,0,0:0:0:0:
273,218,74125,1,0,0:0:0:0:
273,218,74204,1,8,0:0:0:0:
255,56,74362,1,0,0:0:0:0:
367,208,74520,6,0,L|423:284,1,95,2|0,0:0|0:0,0:0:0:0:
405,122,74835,1,2,0:0:0:0:
311,132,74993,1,0,0:0:0:0:
311,132,75072,1,0,0:0:0:0:
311,132,75151,2,0,L|216:142,1,95,8|0,0:0|0:0,0:0:0:0:
349,46,75467,5,2,0:0:0:0:
367,208,75625,1,0,0:0:0:0:
443,36,75783,1,2,0:0:0:0:
273,218,75941,1,0,0:0:0:0:
273,218,76020,1,0,0:0:0:0:
273,218,76098,2,0,L|178:228,1,95,8|0,0:0|0:0,0:0:0:0:
349,46,76414,6,0,L|443:35,1,95,2|0,0:0|0:0,0:0:0:0:
311,132,76730,1,2,0:0:0:0:
255,56,76888,1,0,0:0:0:0:
255,56,76967,1,0,0:0:0:0:
255,56,77046,1,8,0:0:0:0:
405,122,77204,1,0,0:0:0:0:
216,142,77362,6,0,L|177:228,1,95,2|0,0:0|0:0,0:0:0:0:
161,66,77677,1,2,0:0:0:0:
255,56,77835,1,0,0:0:0:0:
255,56,77914,1,0,0:0:0:0:
255,56,77993,1,8,0:0:0:0:
216,142,78151,1,0,0:0:0:0:
311,132,78309,6,0,L|405:121,1,95,2|0,0:0|0:0,0:0:0:0:
216,142,78625,1,2,0:0:0:0:
272,218,78783,1,0,0:0:0:0:
272,218,78862,1,0,0:0:0:0:
272,218,78941,1,8,0:0:0:0:
255,56,79098,1,0,0:0:0:0:
177,228,79256,5,2,0:0:0:0:
311,132,79414,1,0,0:0:0:0:
160,66,79572,1,2,0:0:0:0:
272,218,79730,1,0,0:0:0:0:
255,56,79888,1,8,0:0:0:0:
121,152,80046,1,0,0:0:0:0:
311,132,80204,6,0,L|406:142,1,95,2|0,0:0|0:0,0:0:0:0:
177,228,80520,2,0,L|82:238,1,95,2|0,0:0|0:0,0:0:0:0:
255,56,80835,1,8,0:0:0:0:
272,218,80993,1,0,0:0:0:0:
160,66,81151,6,0,L|66:55,1,95,2|0,0:0|0:0,0:0:0:0:
272,218,81467,2,0,L|366:207,1,95,2|0,0:0|0:0,0:0:0:0:
255,56,81783,1,8,0:0:0:0:
177,228,81941,1,0,0:0:0:0:
311,132,82098,5,2,0:0:0:0:
160,66,82256,1,2,0:0:0:0:
272,218,82414,1,2,0:0:0:0:
255,56,82572,1,2,0:0:0:0:
177,228,82730,1,10,0:0:0:0:
311,132,82888,1,2,0:0:0:0:
160,66,83046,5,0,0:0:0:0:
114,80,83125,1,0,0:0:0:0:
77,110,83204,1,0,0:0:0:0:
54,151,83283,1,0,0:0:0:0:
46,198,83362,1,0,0:0:0:0:
57,244,83441,1,0,0:0:0:0:
83,284,83519,1,0,0:0:0:0:
122,311,83598,1,0,0:0:0:0:
168,323,83677,1,0,0:0:0:0:
215,317,83756,1,0,0:0:0:0:
257,294,83835,1,0,0:0:0:0:
288,258,83914,1,0,0:0:0:0:
303,213,83993,6,0,B|303:152|246:100|246:100|323:150|385:180|432:166|456:143|454:101|423:70|371:73|344:100|348:158|372:214|404:245,1,546.25,6|0,0:0|0:0,0:0:0:0:
476,299,85888,6,0,B|441:342|368:353|322:295|322:295|356:373|356:373|274:318|181:361|181:361|226:313|210:253,1,546.25,2|0,0:0|0:0,0:0:0:0:
142,213,87783,6,0,B|179:172|236:182|236:182|166:142|92:157|92:157|128:110|116:63|116:63|177:94|249:112|265:80|264:46|230:38|209:73,1,546.25,2|0,0:0|0:0,0:0:0:0:
309,9,89677,6,0,B|337:37|340:92|305:140|305:140|363:71|436:40|436:40|377:91|362:169|403:221|417:223|441:220|445:191,1,546.25,2|0,0:0|0:0,0:0:0:0:
443,296,91572,6,0,B|391:303|342:274|322:229|322:229|281:257|232:242|232:242|260:303|220:399|100:390|61:319|76:257,1,546.25,2|0,0:0|0:0,0:0:0:0:
156,276,93467,6,0,B|158:230|127:190|72:187|72:187|162:185|201:156|201:156|243:156|266:165|266:165|308:137|339:140|384:164|384:164|391:213|443:230,1,546.25,2|0,0:0|0:0,0:0:0:0:
438,99,95362,6,0,B|347:37|253:77|253:77|291:48|299:16,1,261.25,2|0,0:0|0:0,0:0:0:0:
168,58,96309,6,0,B|160:104|182:145|219:168|263:163|263:163|210:185|205:242,1,261.25
297,252,97256,6,0,B|346:223|353:178|353:178|359:288|292:336,1,261.25,2|0,0:0|0:0,0:0:0:0:
422,292,98204,6,0,B|448:234|438:138|438:138|405:77|340:87,1,261.25,2|0,0:0|0:0,0:0:0:0:
353,178,99151,6,0,B|319:178|282:161|264:111|264:111|248:165|262:232|262:232|225:173|148:187|148:187|165:117|115:88|54:98|49:137|73:152|92:135,1,546.25,6|0,0:0|0:0,0:0:0:0:
16,59,101046,6,0,B|84:1|164:37|194:65|194:65|214:35|248:11|322:17|343:88|343:88|384:89|422:104|451:154|434:198,1,546.25,2|0,0:0|0:0,0:0:0:0:
394,284,102941,6,0,B|365:277|326:236|333:177|333:177|316:231|266:253|266:253|261:202|227:184|173:172|140:196|135:234|160:260|195:261|210:245|221:218|219:192|208:148|144:142,1,546.25,2|0,0:0|0:0,0:0:0:0:
78,223,104835,6,0,B|90:314|167:323|167:323|85:325|19:371|19:371|70:287|33:129,1,546.25,2|0,0:0|0:0,0:0:0:0:
101,52,106730,6,0,B|53:23|8:33|8:33|83:-7|266:-3|334:52|334:52|290:37|223:54,1,546.25,2|0,0:0|0:0,0:0:0:0:
167,136,108625,6,0,B|204:164|259:160|295:127|295:127|320:145|322:174|322:174|297:202|310:241|310:241|270:219|240:237|240:237|198:222|163:233|163:233|189:267|181:302|181:302|219:301|239:317,1,546.25,2|0,0:0|0:0,0:0:0:0:
326,373,110520,6,0,B|345:345|344:316|344:316|366:342|399:351|399:351|410:329|406:285|406:285|439:312|480:313,1,261.25,2|0,0:0|0:0,0:0:0:0:
472,220,111467,6,0,B|489:171|489:171|463:97|406:101|406:101|385:143|312:151,1,261.25,2|0,0:0|0:0,0:0:0:0:
275,65,112414,6,0,B|229:84|215:165|215:165|247:243|338:253,1,261.25,2|0,0:0|0:0,0:0:0:0:
380,338,113362,6,0,B|348:355|300:358|300:358|271:322|210:324|210:324|185:349|131:357,1,261.25,2|0,0:0|0:0,0:0:0:0:
55,311,114309,5,4,0:0:0:0:
73,217,114625,1,2,0:0:0:0:
167,205,114941,1,2,0:0:0:0:
209,289,115256,2,0,P|244:315|306:311,2,95,2|0|0,0:0|0:0|0:0,0:0:0:0:
167,205,116204,5,2,0:0:0:0:
224,129,116520,1,2,0:0:0:0:
308,171,116835,1,2,0:0:0:0:
308,171,116993,1,2,0:0:0:0:
308,171,117151,2,0,L|299:280,2,95,2|0|0,0:0|0:0|0:0,0:0:0:0:
309,75,118098,5,2,0:0:0:0:
224,115,118414,1,2,0:0:0:0:
222,210,118730,1,2,0:0:0:0:
141,159,119046,1,2,0:0:0:0:
224,115,119362,1,2,0:0:0:0:
308,171,119677,1,2,0:0:0:0:
394,132,119993,6,0,L|387:32,2,95,2|0|0,0:0|0:0|0:0,0:0:0:0:
388,226,120941,2,0,L|381:326,2,95,2|0|0,0:0|0:0|0:0,0:0:0:0:
308,171,121888,5,2,0:0:0:0:
394,132,122204,1,2,0:0:0:0:
474,187,122520,1,2,0:0:0:0:
388,226,122835,1,2,0:0:0:0:
308,171,123151,1,2,0:0:0:0:
314,77,123467,1,2,0:0:0:0:
394,132,123783,6,0,L|387:232,2,95
394,132,124572,1,2,0:0:0:0:
394,132,124730,1,2,0:0:0:0:
314,77,125046,1,2,0:0:0:0:
314,77,125204,1,2,0:0:0:0:
314,77,125362,1,2,0:0:0:0:
308,171,125677,6,0,B|260:183|204:175|201:172,2,95,2|0|0,0:0|0:0|0:0,0:0:0:0:
385,226,126625,2,0,B|376:225|431:218|479:230,2,95,2|0|0,0:0|0:0|0:0,0:0:0:0:
299,266,127572,1,2,0:0:0:0:
299,266,127730,1,2,0:0:0:0:
299,266,127888,2,0,B|251:278|195:270|192:267,2,95,2|0|2,0:0|0:0|0:0,0:0:0:0:
299,266,129467,5,6,0:0:0:0:
242,189,129783,1,2,0:0:0:0:
204,276,130098,1,2,0:0:0:0:
147,199,130414,2,0,P|153:153|198:104,2,95,2|0|0,0:0|0:0|0:0,0:0:0:0:
204,276,131362,5,2,0:0:0:0:
109,286,131677,1,2,0:0:0:0:
52,209,131993,1,2,0:0:0:0:
52,209,132151,1,2,0:0:0:0:
52,209,132309,1,2,0:0:0:0:
147,199,132625,1,2,0:0:0:0:
204,276,132941,1,2,0:0:0:0:
109,286,133256,6,0,P|95:239|103:173,2,95,2|0|0,0:0|0:0|0:0,0:0:0:0:
166,363,134204,2,0,P|207:340|240:306,2,95,2|0|0,0:0|0:0|0:0,0:0:0:0:
109,286,135151,5,2,0:0:0:0:
204,276,135467,1,2,0:0:0:0:
261,353,135783,1,2,0:0:0:0:
166,363,136098,1,2,0:0:0:0:
204,276,136414,1,2,0:0:0:0:
299,266,136730,1,2,0:0:0:0:
356,343,137046,6,0,L|468:354,2,95,2|0|0,0:0|0:0|0:0,0:0:0:0:
261,353,137993,1,2,0:0:0:0:
299,266,138309,1,2,0:0:0:0:
394,256,138625,1,2,0:0:0:0:
451,333,138941,6,0,P|483:292|485:237,2,95,2|0|0,0:0|0:0|0:0,0:0:0:0:
451,333,139730,1,2,0:0:0:0:
451,333,139888,1,2,0:0:0:0:
358,310,140204,1,2,0:0:0:0:
358,310,140362,1,2,0:0:0:0:
358,310,140520,1,2,0:0:0:0:
341,216,140835,6,0,P|290:246|270:278,2,95,2|0|0,0:0|0:0|0:0,0:0:0:0:
366,124,141783,2,0,P|366:64|384:32,2,95,2|0|0,0:0|0:0|0:0,0:0:0:0:
432,191,142730,5,2,0:0:0:0:
432,191,142888,1,2,0:0:0:0:
432,191,143046,2,0,L|426:301,1,95,2|0,0:0|0:0,0:0:0:0:
362,355,143677,1,2,0:0:0:0:
322,368,144625,6,0,L|123:348,1,190,6|0,0:0|0:0,0:0:0:0:
322,16,144941,2,0,L|123:36,1,190,2|0,0:0|0:0,0:0:0:0:
340,341,145256,2,0,L|128:320,1,190,10|0,0:0|0:0,0:0:0:0:
340,31,145572,2,0,L|130:52,1,190,2|0,0:0|0:0,0:0:0:0:
357,322,145888,2,0,L|167:303,1,190,2|0,0:0|0:0,0:0:0:0:
357,48,146204,1,10,0:0:0:0:
167,66,146362,1,2,0:0:0:0:
425,127,146520,6,0,L|445:322,1,190,2|0,0:0|0:0,0:0:0:0:
87,127,146835,2,0,L|67:322,1,190,2|0,0:0|0:0,0:0:0:0:
407,109,147151,2,0,L|427:304,1,190,10|0,0:0|0:0,0:0:0:0:
105,109,147467,2,0,L|85:304,1,190,2|0,0:0|0:0,0:0:0:0:
389,91,147783,1,2,0:0:0:0:
408,280,147941,1,2,0:0:0:0:
123,91,148098,2,0,L|103:286,1,190,10|0,0:0|0:0,0:0:0:0:
398,58,148414,6,0,L|417:247,1,190,2|0,0:0|0:0,0:0:0:0:
114,58,148730,1,2,0:0:0:0:
94,247,148888,1,2,0:0:0:0:
392,41,149046,2,0,L|411:230,1,190,10|0,0:0|0:0,0:0:0:0:
120,41,149362,2,0,L|100:230,1,190,2|0,0:0|0:0,0:0:0:0:
386,24,149677,1,2,0:0:0:0:
405,213,149835,1,2,0:0:0:0:
127,29,149993,2,0,L|107:218,1,190,10|0,0:0|0:0,0:0:0:0:
413,348,150309,6,0,L|393:158,1,190,2|0,0:0|0:0,0:0:0:0:
99,348,150625,1,2,0:0:0:0:
117,158,150783,1,2,0:0:0:0:
426,356,150941,2,0,L|406:166,1,190,10|0,0:0|0:0,0:0:0:0:
86,356,151256,2,0,L|105:166,1,190,2|0,0:0|0:0,0:0:0:0:
439,364,151572,1,2,0:0:0:0:
434,316,151651,1,2,0:0:0:0:
429,268,151730,1,2,0:0:0:0:
73,364,151888,2,0,L|92:174,1,190,2|0,0:0|0:0,0:0:0:0:
182,73,152204,6,0,L|384:59,1,190,6|0,0:0|0:0,0:0:0:0:
182,311,152520,2,0,L|384:325,1,190,2|0,0:0|0:0,0:0:0:0:
168,64,152835,2,0,L|370:50,1,190,10|0,0:0|0:0,0:0:0:0:
168,320,153151,2,0,L|370:334,1,190,2|0,0:0|0:0,0:0:0:0:
154,55,153467,2,0,L|356:41,1,190,2|0,0:0|0:0,0:0:0:0:
154,329,153783,1,10,0:0:0:0:
343,342,153941,1,2,0:0:0:0:
92,108,154098,6,0,L|75:306,1,190,2|0,0:0|0:0,0:0:0:0:
420,108,154414,2,0,L|437:306,1,190,2|0,0:0|0:0,0:0:0:0:
104,94,154730,2,0,L|87:292,1,190,10|0,0:0|0:0,0:0:0:0:
408,94,155046,2,0,L|425:292,1,190,2|0,0:0|0:0,0:0:0:0:
116,80,155362,1,2,0:0:0:0:
99,269,155520,1,2,0:0:0:0:
396,80,155677,2,0,L|413:278,1,190,10|0,0:0|0:0,0:0:0:0:
135,63,155993,5,2,0:0:0:0:
114,285,156151,1,0,0:0:0:0:
320,192,156309,1,2,0:0:0:0:
94,171,156467,1,0,0:0:0:0:
188,374,156625,1,2,0:0:0:0:
209,150,156783,1,0,0:0:0:0:
6,247,156941,5,2,0:0:0:0:
229,265,157098,1,0,0:0:0:0:
135,63,157256,1,2,0:0:0:0:
114,285,157414,1,0,0:0:0:0:
320,192,157572,1,2,0:0:0:0:
94,171,157730,1,0,0:0:0:0:
210,358,157888,5,2,0:0:0:0:
256,360,157966,1,0,0:0:0:0:
300,349,158045,1,0,0:0:0:0:
334,315,158124,1,0,0:0:0:0:
346,269,158204,1,2,0:0:0:0:
383,239,158282,1,0,0:0:0:0:
430,240,158361,1,0,0:0:0:0:
471,264,158441,1,0,0:0:0:0:
492,306,158520,1,2,0:0:0:0:
477,351,158598,1,0,0:0:0:0:
434,372,158677,1,0,0:0:0:0:
388,359,158756,1,0,0:0:0:0:
366,316,158835,5,2,0:0:0:0:
385,262,158914,1,0,0:0:0:0:
437,239,158993,1,0,0:0:0:0:
477,199,159072,1,0,0:0:0:0:
488,143,159151,1,2,0:0:0:0:
460,93,159230,1,0,0:0:0:0:
407,70,159309,1,0,0:0:0:0:
350,74,159388,1,0,0:0:0:0:
313,117,159467,1,2,0:0:0:0:
299,172,159546,1,0,0:0:0:0:
261,215,159625,1,0,0:0:0:0:
207,234,159704,1,0,0:0:0:0:
159,203,159783,6,0,L|136:0,1,190,6|0,0:0|0:0,0:0:0:0:
353,203,160098,2,0,L|376:0,1,190,2|0,0:0|0:0,0:0:0:0:
143,217,160414,2,0,L|120:14,1,190,10|0,0:0|0:0,0:0:0:0:
369,217,160730,2,0,L|392:14,1,190,2|0,0:0|0:0,0:0:0:0:
127,231,161046,2,0,L|104:28,1,190,2|0,0:0|0:0,0:0:0:0:
385,231,161362,1,10,0:0:0:0:
406,42,161520,1,2,0:0:0:0:
293,304,161677,6,0,L|102:315,1,190,2|0,0:0|0:0,0:0:0:0:
293,80,161993,2,0,L|102:69,1,190,2|0,0:0|0:0,0:0:0:0:
305,317,162309,2,0,L|114:328,1,190,10|0,0:0|0:0,0:0:0:0:
305,67,162625,2,0,L|114:56,1,190,2|0,0:0|0:0,0:0:0:0:
317,330,162941,1,2,0:0:0:0:
127,340,163099,1,2,0:0:0:0:
317,54,163256,2,0,L|126:43,1,190,10|0,0:0|0:0,0:0:0:0:
398,335,163572,6,0,L|207:346,1,190,2|0,0:0|0:0,0:0:0:0:
398,49,163888,1,2,0:0:0:0:
208,38,164046,1,2,0:0:0:0:
408,346,164204,2,0,L|217:357,1,190,10|0,0:0|0:0,0:0:0:0:
408,38,164520,2,0,L|217:27,1,190,2|0,0:0|0:0,0:0:0:0:
418,357,164835,1,2,0:0:0:0:
228,367,164993,1,2,0:0:0:0:
418,27,165151,2,0,L|227:16,1,190,10|0,0:0|0:0,0:0:0:0:
99,301,165467,6,0,L|290:290,1,190,2|0,0:0|0:0,0:0:0:0:
99,83,165783,1,2,0:0:0:0:
288,93,165941,1,2,0:0:0:0:
89,315,166098,2,0,L|280:304,1,190,10|0,0:0|0:0,0:0:0:0:
89,69,166414,2,0,L|280:80,1,190,2|0,0:0|0:0,0:0:0:0:
79,329,166730,1,2,0:0:0:0:
126,325,166809,1,2,0:0:0:0:
173,322,166888,1,2,0:0:0:0:
79,55,167046,2,0,L|270:66,1,190,2|0,0:0|0:0,0:0:0:0:
376,151,167362,6,0,L|361:347,1,190,6|0,0:0|0:0,0:0:0:0:
136,151,167677,2,0,L|151:347,1,190,2|0,0:0|0:0,0:0:0:0:
392,146,167993,2,0,L|377:342,1,190,10|0,0:0|0:0,0:0:0:0:
120,146,168309,2,0,L|135:342,1,190,2|0,0:0|0:0,0:0:0:0:
408,141,168625,2,0,L|393:337,1,190,2|0,0:0|0:0,0:0:0:0:
104,141,168941,1,10,0:0:0:0:
118,330,169099,1,2,0:0:0:0:
216,51,169256,6,0,L|9:28,1,190,2|0,0:0|0:0,0:0:0:0:
216,333,169572,2,0,L|9:356,1,190,2|0,0:0|0:0,0:0:0:0:
227,43,169888,2,0,L|20:20,1,190,10|0,0:0|0:0,0:0:0:0:
227,341,170204,2,0,L|20:364,1,190,2|0,0:0|0:0,0:0:0:0:
238,35,170520,1,2,0:0:0:0:
49,14,170677,1,2,0:0:0:0:
238,349,170835,2,0,L|31:372,1,190,10|0,0:0|0:0,0:0:0:0:
253,42,171151,5,2,0:0:0:0:
34,17,171308,1,0,0:0:0:0:
238,120,171467,1,2,0:0:0:0:
20,153,171624,1,0,0:0:0:0:
244,199,171783,1,2,0:0:0:0:
42,287,171940,1,0,0:0:0:0:
253,42,172098,5,2,0:0:0:0:
208,301,172256,1,0,0:0:0:0:
332,65,172414,1,2,0:0:0:0:
357,326,172572,1,0,0:0:0:0:
415,66,172730,1,2,0:0:0:0:
505,311,172888,1,0,0:0:0:0:
251,152,173046,5,2,0:0:0:0:
214,182,173124,1,0,0:0:0:0:
169,196,173203,1,0,0:0:0:0:
122,193,173282,1,0,0:0:0:0:
80,172,173361,1,2,0:0:0:0:
48,137,173440,1,0,0:0:0:0:
45,89,173519,1,0,0:0:0:0:
65,45,173598,1,0,0:0:0:0:
107,24,173677,1,2,0:0:0:0:
152,32,173756,1,0,0:0:0:0:
185,65,173835,1,0,0:0:0:0:
197,109,173914,1,0,0:0:0:0:
175,151,173993,5,2,0:0:0:0:
124,179,174072,1,0,0:0:0:0:
106,232,174151,1,0,0:0:0:0:
130,283,174230,1,0,0:0:0:0:
185,302,174309,1,2,0:0:0:0:
237,276,174388,1,0,0:0:0:0:
254,221,174467,1,0,0:0:0:0:
296,182,174546,1,0,0:0:0:0:
352,184,174625,1,2,0:0:0:0:
393,223,174704,1,0,0:0:0:0:
401,279,174783,1,0,0:0:0:0:
375,330,174862,1,0,0:0:0:0:
319,345,174941,6,0,L|204:355,2,95,6|0|0,0:0|0:0|0:0,0:0:0:0:
354,256,175888,2,0,L|469:266,2,95,2|0|0,0:0|0:0|0:0,0:0:0:0:
260,270,176835,6,0,P|236:214|262:131,1,142.5,2|0,0:0|0:0,0:0:0:0:
291,105,177467,1,2,0:0:0:0:
337,93,177625,1,2,0:0:0:0:
384,98,177783,2,0,L|493:110,2,95,2|0|0,0:0|0:0|0:0,0:0:0:0:
306,43,178730,6,0,L|197:55,1,95,2|0,0:0|0:0,0:0:0:0:
116,64,179362,1,0,0:0:0:0:
174,138,179677,2,0,L|283:150,1,95,2|0,0:0|0:0,0:0:0:0:
364,159,180309,1,0,0:0:0:0:
307,235,180625,6,0,L|198:247,2,95,2|0|0,0:0|0:0|0:0,0:0:0:0:
346,322,181572,2,0,L|455:334,2,95,2|0|0,0:0|0:0|0:0,0:0:0:0:
300,335,182362,1,0,0:0:0:0:
255,351,182520,6,0,L|160:340,1,95,2|0,0:0|0:0,0:0:0:0:
67,323,183151,1,0,0:0:0:0:
129,250,183467,2,0,L|223:239,1,95,2|0,0:0|0:0,0:0:0:0:
317,225,184098,1,0,0:0:0:0:
257,151,184414,6,0,L|106:134,1,142.5,2|0,0:0|0:0,0:0:0:0:
68,147,185046,1,2,0:0:0:0:
41,186,185204,1,2,0:0:0:0:
38,233,185362,2,0,L|30:346,2,95,2|0|0,0:0|0:0|0:0,0:0:0:0:
68,147,186309,6,0,P|105:185|197:206,1,142.5,2|0,0:0|0:0,0:0:0:0:
236,196,186941,1,2,0:0:0:0:
317,147,187256,2,0,L|332:312,1,142.5,2|0,0:0|0:0,0:0:0:0:
335,336,187888,1,2,0:0:0:0:
414,283,188204,6,0,L|422:186,2,95,2|0|0,0:0|0:0|0:0,0:0:0:0:
335,336,189151,1,2,0:0:0:0:
329,241,189467,1,0,0:0:0:0:
414,283,189783,1,0,0:0:0:0:
414,283,189941,1,0,0:0:0:0:
250,294,190098,6,0,L|238:237,2,47.5,2|0|0,0:0|0:0|0:0,0:0:0:0:
280,136,190414,1,2,0:0:0:0:
157,210,190572,1,0,0:0:0:0:
111,196,190650,1,0,0:0:0:0:
75,165,190730,1,8,0:0:0:0:
54,123,190808,1,0,0:0:0:0:
52,76,190888,1,0,0:0:0:0:
188,61,191046,6,0,L|195:3,2,47.5,2|0|0,0:0|0:0|0:0,0:0:0:0:
54,123,191362,1,2,0:0:0:0:
157,210,191520,1,0,0:0:0:0:
173,254,191598,1,0,0:0:0:0:
208,285,191677,1,8,0:0:0:0:
253,297,191756,1,0,0:0:0:0:
299,287,191835,1,0,0:0:0:0:
381,158,191993,6,0,L|366:47,1,95,2|0,0:0|0:0,0:0:0:0:
173,254,192309,2,0,L|158:365,1,95,2|0,0:0|0:0,0:0:0:0:
277,92,192625,1,8,0:0:0:0:
238,63,192703,1,0,0:0:0:0:
195,44,192782,1,0,0:0:0:0:
148,35,192861,1,0,0:0:0:0:
101,37,192941,6,0,L|40:33,3,47.5,2|0|0|0,0:0|0:0|0:0|0:0,0:0:0:0:
17,137,193256,2,0,L|78:132,3,47.5,2|0|0|0,0:0|0:0|0:0|0:0,0:0:0:0:
166,116,193572,1,8,0:0:0:0:
208,136,193650,1,0,0:0:0:0:
238,172,193729,1,0,0:0:0:0:
248,218,193808,1,0,0:0:0:0:
238,264,193888,6,0,P|194:295|147:307,1,95,2|0,0:0|0:0,0:0:0:0:
334,173,194204,2,0,P|385:208|418:248,1,95,2|0,0:0|0:0,0:0:0:0:
208,136,194520,1,8,0:0:0:0:
230,94,194598,1,0,0:0:0:0:
266,63,194677,1,0,0:0:0:0:
310,47,194756,1,0,0:0:0:0:
357,48,194835,6,0,L|411:56,3,47.5,2|0|0|0,0:0|0:0|0:0|0:0,0:0:0:0:
479,129,195151,2,0,L|431:135,3,47.5,2|0|0|0,0:0|0:0|0:0|0:0,0:0:0:0:
334,173,195468,1,8,0:0:0:0:
312,131,195546,1,0,0:0:0:0:
275,102,195625,1,0,0:0:0:0:
228,92,195704,1,0,0:0:0:0:
183,103,195783,6,0,L|134:111,2,47.5,2|0|0,0:0|0:0|0:0,0:0:0:0:
328,11,196098,1,2,0:0:0:0:
275,102,196256,1,0,0:0:0:0:
270,149,196334,1,0,0:0:0:0:
266,197,196413,1,8,0:0:0:0:
262,244,196492,1,0,0:0:0:0:
258,291,196571,1,0,0:0:0:0:
160,342,196730,6,0,L|154:291,2,47.5,2|0|0,0:0|0:0|0:0,0:0:0:0:
145,208,197046,2,0,P|101:227|72:266,1,95,2|0,0:0|0:0,0:0:0:0:
225,244,197362,6,0,L|231:193,1,47.5,10|0,0:0|0:0,0:0:0:0:
38,126,197520,2,0,L|44:177,1,47.5,2|0,0:0|0:0,0:0:0:0:
245,90,197677,6,0,L|251:39,2,47.5,2|0|0,0:0|0:0|0:0,0:0:0:0:
230,196,197993,1,2,0:0:0:0:
331,78,198151,1,0,0:0:0:0:
373,55,198229,1,0,0:0:0:0:
419,55,198308,1,8,0:0:0:0:
461,78,198387,1,0,0:0:0:0:
486,117,198466,1,0,0:0:0:0:
505,258,198625,6,0,L|500:317,2,47.5,2|0|0,0:0|0:0|0:0,0:0:0:0:
396,150,198941,1,2,0:0:0:0:
397,272,199098,1,0,0:0:0:0:
376,314,199176,1,0,0:0:0:0:
337,340,199255,1,8,0:0:0:0:
290,344,199334,1,0,0:0:0:0:
248,324,199413,1,0,0:0:0:0:
313,121,199572,6,0,L|432:107,1,95,2|0,0:0|0:0,0:0:0:0:
128,234,199888,2,0,L|9:220,1,95,2|0,0:0|0:0,0:0:0:0:
175,122,200204,1,8,0:0:0:0:
214,147,200282,1,0,0:0:0:0:
241,186,200361,1,0,0:0:0:0:
250,232,200440,1,0,0:0:0:0:
239,278,200520,6,0,L|229:336,3,47.5,2|0|0|0,0:0|0:0|0:0|0:0,0:0:0:0:
141,366,200835,2,0,L|132:319,3,47.5,2|0|0|0,0:0|0:0|0:0|0:0,0:0:0:0:
158,220,201151,1,8,0:0:0:0:
144,174,201229,1,0,0:0:0:0:
111,141,201308,1,0,0:0:0:0:
64,131,201387,1,0,0:0:0:0:
19,146,201466,5,6,0:0:0:0:
226,218,201625,1,2,0:0:0:0:
184,8,201783,1,2,0:0:0:0:
122,180,201941,1,2,0:0:0:0:
310,146,202098,1,10,0:0:0:0:
100,72,202256,1,2,0:0:0:0:
247,312,202414,5,6,0:0:0:0:
284,53,202572,1,2,0:0:0:0:
102,237,202730,1,10,0:0:0:0:
358,196,202888,1,2,0:0:0:0:
128,78,203046,1,10,0:0:0:0:
249,325,203204,1,2,0:0:0:0:
290,40,203362,5,6,0:0:0:0:
89,243,203520,1,2,0:0:0:0:
371,198,203678,1,10,0:0:0:0:
118,68,203836,1,2,0:0:0:0:
252,340,203993,1,8,0:0:0:0:
252,340,204072,1,0,0:0:0:0:
252,340,204151,1,0,0:0:0:0:
299,29,204309,6,0,L|346:35,3,47.5
237,87,204625,2,0,L|189:94,3,47.5
304,138,204941,2,0,L|352:145,3,47.5
238,202,205256,6,0,B|228:320,2,113.999996520996,6|0|2,0:0|0:0|0:0,0:0:0:0:
351,145,205729,2,0,B|341:27,2,113.999996520996,2|0|2,0:0|0:0|0:0,0:0:0:0:
361,259,206203,5,2,0:0:0:0:
259,207,206361,1,0,0:0:0:0:
351,145,206519,1,2,0:0:0:0:
269,321,206676,5,2,0:0:0:0:
259,207,206834,1,2,0:0:0:0:
361,259,206992,1,2,0:0:0:0:
167,269,207150,6,0,L|46:260,2,113.999996520996,2|0|2,0:0|0:0|0:0,0:0:0:0:
249,93,207624,2,0,L|370:84,2,113.999996520996,2|0|2,0:0|0:0|0:0,0:0:0:0:
53,105,208097,5,2,0:0:0:0:
259,207,208255,1,0,0:0:0:0:
146,42,208413,1,2,0:0:0:0:
146,42,208492,1,2,0:0:0:0:
146,42,208571,5,2,0:0:0:0:
156,156,208729,1,2,0:0:0:0:
249,93,208887,1,2,0:0:0:0:
53,105,209045,6,0,L|42:226,2,113.999996520996,2|0|2,0:0|0:0|0:0,0:0:0:0:
259,207,209518,2,0,L|248:86,2,113.999996520996,2|0|2,0:0|0:0|0:0,0:0:0:0:
176,384,209992,5,2,0:0:0:0:
156,156,210150,1,0,0:0:0:0:
362,258,210307,1,2,0:0:0:0:
166,270,210465,5,2,0:0:0:0:
259,207,210623,1,2,0:0:0:0:
269,321,210781,1,2,0:0:0:0:
156,156,210939,6,0,L|145:35,2,113.999996520996,2|0|2,0:0|0:0|0:0,0:0:0:0:
362,258,211413,2,0,L|373:379,1,113.999996520996,2|0,0:0|0:0,0:0:0:0:
259,207,211729,1,2,0:0:0:0:
351,144,211886,2,0,L|362:265,1,113.999996520996,2|0,0:0|0:0,0:0:0:0:
249,93,212202,1,2,0:0:0:0:
340,30,212360,2,0,L|351:151,1,113.999996520996,2|0,0:0|0:0,0:0:0:0:
259,207,212676,1,2,0:0:0:0:
455,195,212834,6,0,L|444:81,2,113.999996520996,6|0|2,0:0|0:0|0:0,0:0:0:0:
249,93,213307,2,0,L|259:206,2,113.999996520996,2|0|2,0:0|0:0|0:0,0:0:0:0:
361,257,213781,5,2,0:0:0:0:
340,30,213939,1,0,0:0:0:0:
154,162,214097,1,2,0:0:0:0:
350,143,214255,5,2,0:0:0:0:
249,93,214412,1,2,0:0:0:0:
259,206,214570,1,2,0:0:0:0:
340,30,214728,6,0,L|461:43,2,113.999996520996,2|0|2,0:0|0:0|0:0,0:0:0:0:
154,162,215202,2,0,L|33:175,2,113.999996520996,2|0|2,0:0|0:0|0:0,0:0:0:0:
361,257,215675,5,2,0:0:0:0:
249,93,215833,1,0,0:0:0:0:
168,269,215991,1,2,0:0:0:0:
168,269,216070,1,2,0:0:0:0:
168,269,216149,5,2,0:0:0:0:
259,206,216307,1,2,0:0:0:0:
154,162,216465,1,2,0:0:0:0:
273,313,216623,6,0,L|394:325,2,113.999996520996,2|0|2,0:0|0:0|0:0,0:0:0:0:
249,93,217096,2,0,L|135:81,2,113.999996520996,2|0|2,0:0|0:0|0:0,0:0:0:0:
361,257,217570,5,2,0:0:0:0:
340,30,217728,1,0,0:0:0:0:
154,162,217886,1,2,0:0:0:0:
350,143,218044,5,2,0:0:0:0:
257,206,218202,1,2,0:0:0:0:
249,93,218360,1,2,0:0:0:0:
361,257,218517,6,0,L|356:376,2,113.999996520996,2|0|2,0:0|0:0|0:0,0:0:0:0:
350,143,218991,2,0,L|354:29,1,113.999996520996,2|0,0:0|0:0,0:0:0:0:
257,206,219307,1,2,0:0:0:0:
361,257,219465,2,0,L|365:143,1,113.999996520996,2|0,0:0|0:0,0:0:0:0:
265,319,219780,1,2,0:0:0:0:
369,370,219938,2,0,L|373:256,1,113.999996520996,2|0,0:0|0:0,0:0:0:0:
257,206,220254,1,2,0:0:0:0:
487,56,220412,5,2,0:0:0:0:
372,256,220570,1,2,0:0:0:0:
264,54,220728,1,2,0:0:0:0:
500,87,220885,5,2,0:0:0:0:
337,250,221043,1,2,0:0:0:0:
285,27,221201,1,2,0:0:0:0:
504,121,221359,5,2,0:0:0:0:
305,236,221517,1,2,0:0:0:0:
305,236,221596,1,2,0:0:0:0:
305,236,221675,1,2,0:0:0:0:
312,7,221833,5,2,0:0:0:0:
500,155,221991,1,2,0:0:0:0:
277,215,222148,1,2,0:0:0:0:
449,27,222306,5,2,0:0:0:0:
364,135,222464,1,2,0:0:0:0:
312,7,222622,1,2,0:0:0:0:
438,8,222780,5,2,0:0:0:0:
384,135,222938,1,2,0:0:0:0:
301,24,223096,1,2,0:0:0:0:
424,0,223254,5,2,0:0:0:0:
404,129,223412,1,2,0:0:0:0:
404,129,223490,1,2,0:0:0:0:
404,129,223569,1,2,0:0:0:0:
404,129,223648,1,2,0:0:0:0:
404,129,223727,2,2,L|412:251,2,113.999996520996
117,146,224201,5,6,0:0:0:0:
327,338,224359,1,2,0:0:0:0:
388,59,224517,1,2,0:0:0:0:
109,183,224675,5,2,0:0:0:0:
362,314,224833,1,2,0:0:0:0:
349,29,224991,1,2,0:0:0:0:
349,29,225069,1,2,0:0:0:0:
349,29,225148,5,6,0:0:0:0:
112,221,225306,1,2,0:0:0:0:
112,221,225385,1,2,0:0:0:0:
112,221,225464,1,2,0:0:0:0:
390,282,225622,5,2,0:0:0:0:
303,10,225780,1,2,0:0:0:0:
125,257,225938,1,2,0:0:0:0:
390,121,226095,6,0,L|514:130,2,113.999996520996,6|0|2,0:0|0:0|0:0,0:0:0:0:
219,242,226569,2,0,L|105:233,2,113.999996520996,2|0|2,0:0|0:0|0:0,0:0:0:0:
294,41,227043,6,0,P|340:92|359:149,1,113.999996520996,2|0,0:0|0:0,0:0:0:0:
407,356,227358,2,0,P|339:370|280:358,1,113.999996520996,2|0,0:0|0:0,0:0:0:0:
106,234,227674,2,0,P|127:168|167:123,1,113.999996520996,2|0,0:0|0:0,0:0:0:0:
199,96,227911,1,2,0:0:0:0:
199,96,227992,5,2,0:0:0:0:
207,256,228149,1,0,0:0:0:0:
104,103,228307,1,2,0:0:0:0:
302,249,228465,1,0,0:0:0:0:
59,188,228623,1,2,0:0:0:0:
347,164,228781,1,0,0:0:0:0:
255,309,228939,6,0,B|197:349|197:349|124:332,1,142.500005435944,2|0,0:0|0:0,0:0:0:0:
358,133,229255,2,0,B|421:163|421:163|443:235,1,142.500005435944,2|0,0:0|0:0,0:0:0:0:
154,133,229570,2,0,B|148:62|148:62|199:8,1,142.500005435944,2|0,0:0|0:0,0:0:0:0:
233,8,229807,1,2,0:0:0:0:
233,8,229886,5,2,0:0:0:0:
389,194,230044,1,0,0:0:0:0:
154,133,230202,1,2,0:0:0:0:
381,44,230360,1,0,0:0:0:0:
249,251,230518,1,2,0:0:0:0:
233,8,230676,1,0,0:0:0:0:
384,232,230834,6,0,B|398:242|398:242|415:237|415:237|429:248|429:248|447:243|447:243|461:253|461:253|478:248|478:248|492:259|492:259|510:254,1,142.500005435944,2|0,0:0|0:0,0:0:0:0:
165,305,231149,2,0,B|150:315|150:315|133:310|133:310|119:321|119:321|101:316|101:316|87:326|87:326|70:321|70:321|56:332|56:332|38:327,1,142.500005435944,2|0,0:0|0:0,0:0:0:0:
306,90,231465,2,0,B|320:100|320:100|337:95|337:95|351:106|351:106|369:101|369:101|383:111|383:111|400:106|400:106|414:117|414:117|432:112,1,142.500005435944,2|0,0:0|0:0,0:0:0:0:
109,29,231781,5,6,0:0:0:0:
245,287,231939,1,0,0:0:0:0:
306,90,232097,1,2,0:0:0:0:
48,226,232255,1,0,0:0:0:0:
220,18,232413,1,2,0:0:0:0:
245,287,232571,1,0,0:0:0:0:
37,114,232728,6,0,B|52:46|52:46|125:1,1,142.500005435944,2|0,0:0|0:0,0:0:0:0:
245,287,233044,2,0,B|178:309|178:309|102:268,1,142.500005435944,2|0,0:0|0:0,0:0:0:0:
277,14,233360,2,0,B|329:60|329:60|331:146,1,142.500005435944,2|0,0:0|0:0,0:0:0:0:
392,328,233676,5,6,0:0:0:0:
384,265,233754,1,2,0:0:0:0:
343,217,233833,1,2,0:0:0:0:
283,200,233912,1,2,0:0:0:0:
223,220,233991,1,2,0:0:0:0:
203,281,234070,1,2,0:0:0:0:
228,339,234149,1,2,0:0:0:0:
289,356,234228,1,2,0:0:0:0:
341,319,234307,1,2,0:0:0:0:
349,256,234386,1,2,0:0:0:0:
305,209,234465,1,2,0:0:0:0:
298,145,234544,1,2,0:0:0:0:
324,81,234623,6,0,B|382:55|382:55|440:90|440:90|504:59,2,190,2|0|0,0:0|0:0|0:0,0:0:0:0:
124,131,235570,6,0,L|105:324,1,190,6|0,0:0|0:0,0:0:0:0:
388,131,235886,2,0,L|407:324,1,190,2|0,0:0|0:0,0:0:0:0:
112,112,236202,2,0,L|93:305,1,190,10|0,0:0|0:0,0:0:0:0:
400,112,236518,2,0,L|419:305,1,190,2|0,0:0|0:0,0:0:0:0:
100,93,236834,2,0,L|81:286,1,190,2|0,0:0|0:0,0:0:0:0:
412,93,237149,1,10,0:0:0:0:
430,282,237306,1,2,0:0:0:0:
289,73,237465,6,0,L|87:94,1,190,2|0,0:0|0:0,0:0:0:0:
289,311,237781,2,0,L|87:290,1,190,2|0,0:0|0:0,0:0:0:0:
300,58,238097,2,0,L|98:79,1,190,10|0,0:0|0:0,0:0:0:0:
300,326,238413,2,0,L|98:305,1,190,2|0,0:0|0:0,0:0:0:0:
311,43,238728,1,2,0:0:0:0:
122,62,238885,1,2,0:0:0:0:
311,341,239044,2,0,L|109:320,1,190,10|0,0:0|0:0,0:0:0:0:
356,63,239360,6,0,L|154:84,1,190,2|0,0:0|0:0,0:0:0:0:
356,321,239676,1,2,0:0:0:0:
167,301,239833,1,2,0:0:0:0:
348,51,239992,2,0,L|146:72,1,190,10|0,0:0|0:0,0:0:0:0:
348,333,240307,2,0,L|146:312,1,190,2|0,0:0|0:0,0:0:0:0:
340,39,240623,1,2,0:0:0:0:
151,58,240780,1,2,0:0:0:0:
340,345,240939,2,0,L|138:324,1,190,10|0,0:0|0:0,0:0:0:0:
69,55,241255,6,0,L|271:34,1,190,2|0,0:0|0:0,0:0:0:0:
69,329,241570,1,2,0:0:0:0:
257,348,241727,1,2,0:0:0:0:
82,68,241886,2,0,L|284:47,1,190,10|0,0:0|0:0,0:0:0:0:
82,316,242202,2,0,L|284:337,1,190,2|0,0:0|0:0,0:0:0:0:
95,81,242518,1,2,0:0:0:0:
142,76,242596,1,2,0:0:0:0:
189,71,242675,1,2,0:0:0:0:
95,303,242834,2,0,L|297:324,1,190,10|0,0:0|0:0,0:0:0:0:
417,81,243149,6,0,L|429:283,1,190,2|0,0:0|0:0,0:0:0:0:
95,81,243465,2,0,L|83:283,1,190,2|0,0:0|0:0,0:0:0:0:
397,75,243781,2,0,L|409:277,1,190,10|0,0:0|0:0,0:0:0:0:
115,75,244097,2,0,L|103:277,1,190,2|0,0:0|0:0,0:0:0:0:
377,69,244413,2,0,L|389:271,1,190,2|0,0:0|0:0,0:0:0:0:
135,69,244728,1,10,0:0:0:0:
123,258,244885,1,2,0:0:0:0:
324,52,245044,6,0,L|116:70,1,190,2|0,0:0|0:0,0:0:0:0:
324,332,245360,2,0,L|116:314,1,190,2|0,0:0|0:0,0:0:0:0:
333,38,245676,2,0,L|125:56,1,190,10|0,0:0|0:0,0:0:0:0:
333,346,245992,2,0,L|125:328,1,190,2|0,0:0|0:0,0:0:0:0:
342,24,246307,1,2,0:0:0:0:
152,40,246464,1,2,0:0:0:0:
342,360,246623,2,0,L|134:342,1,190,10|0,0:0|0:0,0:0:0:0:
169,112,246939,5,2,0:0:0:0:
391,219,247097,1,0,0:0:0:0:
144,238,247255,1,2,0:0:0:0:
253,16,247413,1,0,0:0:0:0:
270,261,247570,1,2,0:0:0:0:
47,152,247728,1,0,0:0:0:0:
295,135,247886,5,2,0:0:0:0:
186,356,248044,1,0,0:0:0:0:
169,112,248202,1,2,0:0:0:0:
391,219,248360,1,0,0:0:0:0:
144,238,248518,1,2,0:0:0:0:
253,16,248676,1,0,0:0:0:0:
270,261,248834,5,2,0:0:0:0:
252,304,248912,1,0,0:0:0:0:
219,338,248991,1,0,0:0:0:0:
176,358,249070,1,0,0:0:0:0:
129,361,249149,1,2,0:0:0:0:
84,347,249228,1,0,0:0:0:0:
48,317,249307,1,0,0:0:0:0:
25,276,249386,1,0,0:0:0:0:
18,229,249465,1,2,0:0:0:0:
29,183,249544,1,0,0:0:0:0:
56,145,249623,1,0,0:0:0:0:
96,119,249702,1,0,0:0:0:0:
142,109,249781,5,2,0:0:0:0:
123,162,249859,1,0,0:0:0:0:
122,219,249938,1,0,0:0:0:0:
137,274,250017,1,0,0:0:0:0:
169,321,250096,1,2,0:0:0:0:
213,356,250175,1,0,0:0:0:0:
266,377,250254,1,0,0:0:0:0:
322,380,250333,1,0,0:0:0:0:
378,367,250412,1,2,0:0:0:0:
426,337,250491,1,0,0:0:0:0:
463,294,250570,1,0,0:0:0:0:
485,241,250649,1,0,0:0:0:0:
491,185,250728,6,0,B|436:114|436:114|268:141,1,237.5,6|0,0:0|2:0,0:0:0:0:
248,248,251202,6,0,L|345:265,1,95,2|0,0:0|0:0,0:0:0:0:
192,158,251360,6,0,L|89:176,1,95
290,137,251676,6,0,B|300:52,1,71.2500027179719,2|0,0:0|0:0,0:0:0:0:
223,22,251834,1,0,0:0:0:0:
107,245,251992,2,0,B|97:160,1,71.2500027179719,2|0,0:0|0:0,0:0:0:0:
151,107,252149,1,0,0:0:0:0:
220,274,252307,1,0,0:0:0:0:
220,274,252465,1,0,0:0:0:0:
29,294,252623,6,0,B|11:136|11:136|78:73,1,237.5,2|0,0:0|2:0,0:0:0:0:
176,7,253097,6,0,B|163:110,1,95,2|0,0:0|0:0,0:0:0:0:
110,269,253255,6,0,B|97:165,1,95
268,49,253570,6,0,B|255:152,1,71.2500027179719,2|0,0:0|0:0,0:0:0:0:
194,193,253728,1,0,0:0:0:0:
60,11,253886,2,0,B|72:114,1,71.2500027179719,2|0,0:0|0:0,0:0:0:0:
98,174,254044,1,0,0:0:0:0:
176,7,254202,1,0,0:0:0:0:
176,7,254360,1,0,0:0:0:0:
259,119,254518,5,2,0:0:0:0:
278,161,254596,1,0,0:0:0:0:
312,194,254675,1,0,0:0:0:0:
356,212,254754,1,0,0:0:0:0:
403,213,254833,1,2,0:0:0:0:
448,197,254912,1,0,0:0:0:0:
482,163,254992,1,0,0:0:0:0:
494,108,255071,1,0,0:0:0:0:
458,63,255150,1,2,0:0:0:0:
400,64,255229,1,0,0:0:0:0:
366,109,255308,1,0,0:0:0:0:
380,164,255387,1,0,0:0:0:0:
431,189,255465,5,2,0:0:0:0:
464,222,255544,1,0,0:0:0:0:
468,269,255623,1,0,0:0:0:0:
451,313,255702,1,0,0:0:0:0:
417,345,255781,1,2,0:0:0:0:
372,359,255860,1,0,0:0:0:0:
326,353,255939,1,0,0:0:0:0:
286,327,256018,1,0,0:0:0:0:
262,287,256097,1,2,0:0:0:0:
238,245,256175,1,0,0:0:0:0:
200,219,256254,1,0,0:0:0:0:
153,211,256333,1,0,0:0:0:0:
108,224,256412,5,2,0:0:0:0:
73,256,256491,1,0,0:0:0:0:
57,301,256570,1,0,0:0:0:0:
73,346,256649,1,0,0:0:0:0:
115,370,256728,1,2,0:0:0:0:
161,361,256807,1,0,0:0:0:0:
192,325,256886,1,0,0:0:0:0:
192,277,256965,1,0,0:0:0:0:
161,241,257044,1,2,0:0:0:0:
115,233,257123,1,0,0:0:0:0:
73,209,257202,1,0,0:0:0:0:
54,165,257281,1,0,0:0:0:0:
63,117,257360,6,0,L|69:58,3,47.5,2|0|0|0,0:0|0:0|0:0|0:0,0:0:0:0:
174,67,257676,2,0,L|168:8,3,47.5,2|0|0|0,0:0|0:0|0:0|0:0,0:0:0:0:
115,233,257992,1,2,0:0:0:0:
115,233,258149,1,2,0:0:0:0:
276,161,258307,6,0,B|294:89|294:89|459:135,1,237.5,2|0,0:0|2:0,0:0:0:0:
493,242,258781,6,0,L|400:268,1,95,2|0,0:0|0:0,0:0:0:0:
254,254,258939,6,0,L|277:160,1,95
321,340,259255,6,0,L|237:363,1,71.2500027179719,2|0,0:0|0:0,0:0:0:0:
148,345,259413,1,0,0:0:0:0:
254,254,259570,2,0,L|170:230,1,71.2500027179719,2|0,0:0|0:0,0:0:0:0:
133,152,259728,1,0,0:0:0:0:
61,273,259886,1,0,0:0:0:0:
61,273,260044,1,0,0:0:0:0:
186,235,260202,6,0,B|241:135|241:135|141:24,1,237.5,2|0,0:0|2:0,0:0:0:0:
49,178,260676,6,0,L|63:288,1,95,2|0,0:0|0:0,0:0:0:0:
174,329,260834,6,0,L|188:219,1,95
158,43,261149,6,0,L|172:153,1,71.2500027179719,2|0,0:0|0:0,0:0:0:0:
185,234,261307,1,0,0:0:0:0:
302,169,261465,2,0,L|288:279,1,71.2500027179719,2|0,0:0|0:0,0:0:0:0:
204,355,261623,1,0,0:0:0:0:
171,117,261781,1,0,0:0:0:0:
171,117,261939,1,0,0:0:0:0:
321,290,262097,6,0,L|431:273,1,95,6|0,0:0|0:0,0:0:0:0:
283,48,262413,1,2,0:0:0:0:
185,234,262570,1,0,0:0:0:0:
419,104,262728,2,0,P|431:57|423:5,1,95,2|0,0:0|0:0,0:0:0:0:
166,113,263044,6,0,P|119:130|84:164,1,95,6|0,0:0|0:0,0:0:0:0:
321,290,263360,1,2,0:0:0:0:
283,48,263518,1,0,0:0:0:0:
68,299,263676,2,0,P|102:330|147:346,1,95,2|0,0:0|0:0,0:0:0:0:
283,48,263992,5,6,0:0:0:0:
166,244,264150,1,0,0:0:0:0:
378,155,264307,1,2,0:0:0:0:
135,101,264465,1,0,0:0:0:0:
285,318,264623,1,2,0:0:0:0:
286,31,264781,1,0,0:0:0:0:
46,247,264939,5,2,0:0:0:0:
57,248,265017,1,0,0:0:0:0:
69,250,265096,1,0,0:0:0:0:
81,252,265175,1,0,0:0:0:0:
92,254,265254,1,2,0:0:0:0:
104,256,265333,1,0,0:0:0:0:
116,258,265412,1,0,0:0:0:0:
128,259,265491,1,0,0:0:0:0:
139,261,265570,1,2,0:0:0:0:
151,263,265649,1,0,0:0:0:0:
163,265,265728,1,0,0:0:0:0:
175,267,265807,1,0,0:0:0:0:
186,269,265886,6,0,B|325:291|325:291|271:255,1,190,6|0,0:0|0:0,0:0:0:0:
160,181,266360,2,0,P|124:202|110:221,1,47.5,2|0,0:0|0:0,0:0:0:0:
256,170,266518,2,0,L|251:57,1,95
284,263,266834,6,0,P|327:237|349:189,1,95,2|0,0:0|0:0,0:0:0:0:
120,205,267149,2,0,P|121:255|151:298,1,95,2|0,0:0|0:0,0:0:0:0:
251,75,267465,2,0,P|206:50|154:55,1,95
284,263,267781,6,0,L|250:67,1,190,2|0,0:0|0:0,0:0:0:0:
144,292,268255,1,2,0:0:0:0:
197,192,268413,1,0,0:0:0:0:
231,363,268570,1,0,0:0:0:0:
57,221,268728,2,0,L|73:127,1,95,2|0,0:0|0:0,0:0:0:0:
284,263,269044,2,0,L|300:356,1,95,2|0,0:0|0:0,0:0:0:0:
250,92,269360,5,0,0:0:0:0:
144,292,269518,1,0,0:0:0:0:
297,171,269676,6,0,P|352:163|390:143,1,95,2|0,0:0|0:0,0:0:0:0:
160,198,269992,2,0,L|143:291,1,95,0|2,0:0|0:0,0:0:0:0:
300,356,270307,2,0,L|284:263,1,95
193,10,270623,2,0,L|158:210,1,190,2|0,0:0|0:0,0:0:0:0:
284,263,271097,1,2,0:0:0:0:
313,77,271255,2,0,L|290:204,1,95
344,355,271570,6,0,P|327:296|197:274,1,190,2|0,0:0|0:0,0:0:0:0:
103,321,272044,2,0,L|96:269,1,47.5,2|0,0:0|0:0,0:0:0:0:
226,170,272202,2,0,L|210:283,1,95
140,94,272518,6,0,P|184:62|310:97,1,190,2|0,0:0|0:0,0:0:0:0:
213,264,272992,2,0,L|220:212,1,47.5,2|0,0:0|0:0,0:0:0:0:
328,169,273149,1,0,0:0:0:0:
352,319,273307,1,0,0:0:0:0:
232,110,273465,6,0,P|262:74|320:57,1,95,6|0,0:0|0:0,0:0:0:0:
213,264,273781,2,0,P|166:256|123:214,1,95,0|2,0:0|0:0,0:0:0:0:
328,169,274097,2,0,L|338:288,1,95
123,321,274413,6,0,L|130:226,1,95,2|0,0:0|0:0,0:0:0:0:
252,190,274728,2,0,L|173:135,1,95,2|0,0:0|0:0,0:0:0:0:
211,6,275044,2,0,L|125:46,1,95
24,132,275360,6,0,P|94:142|131:269,1,190,2|0,0:0|0:0,0:0:0:0:
34,279,275834,2,0,L|42:226,1,47.5,2|0,0:0|0:0,0:0:0:0:
239,273,275992,2,0,L|255:381,1,95
140,242,276307,6,0,P|167:197|294:186,1,190,2|2,0:0|0:0,0:0:0:0:
293,185,276939,1,0,0:0:0:0:
216,57,277097,1,0,0:0:0:0:
430,181,277255,6,0,L|416:291,1,95,6|0,0:0|0:0,0:0:0:0:
353,53,277570,1,2,0:0:0:0:
353,53,277728,1,0,0:0:0:0:
293,185,277886,1,2,0:0:0:0:
490,49,278044,1,0,0:0:0:0:
216,57,278202,6,0,L|96:64,1,95,6|0,0:0|0:0,0:0:0:0:
293,185,278518,1,2,0:0:0:0:
293,185,278676,1,0,0:0:0:0:
353,53,278834,1,2,0:0:0:0:
156,189,278992,1,0,0:0:0:0:
431,181,279149,5,6,0:0:0:0:
434,158,279227,1,0,0:0:0:0:
431,134,279306,1,0,0:0:0:0:
423,112,279385,1,0,0:0:0:0:
411,92,279464,1,2,0:0:0:0:
394,75,279543,1,0,0:0:0:0:
375,61,279622,1,0,0:0:0:0:
353,53,279701,1,0,0:0:0:0:
329,49,279780,1,2,0:0:0:0:
305,50,279859,1,0,0:0:0:0:
283,56,279938,1,0,0:0:0:0:
262,67,280017,1,0,0:0:0:0:
243,82,280096,5,2,0:0:0:0:
287,117,280176,1,0,0:0:0:0:
316,165,280255,1,0,0:0:0:0:
328,221,280334,1,0,0:0:0:0:
320,277,280413,1,2,0:0:0:0:
293,327,280492,1,0,0:0:0:0:
251,365,280571,1,0,0:0:0:0:
199,387,280650,1,0,0:0:0:0:
142,389,280729,1,2,0:0:0:0:
88,373,280808,1,0,0:0:0:0:
43,339,280887,1,0,0:0:0:0:
12,291,280966,1,0,0:0:0:0:
0,236,281045,5,4,0:0:0:0:
0,236,282781,5,2,0:0:0:0:
29,153,282939,1,2,0:0:0:0:
29,153,284518,5,2,0:0:0:0:
84,75,284676,1,2,0:0:0:0:
171,111,284834,1,2,0:0:0:0:
171,111,285307,5,2,0:0:0:0:
153,204,285465,1,2,0:0:0:0:
302,59,285781,5,2,0:0:0:0:
302,59,286255,5,2,0:0:0:0:
320,152,286413,1,2,0:0:0:0:
124,29,286728,5,2,0:0:0:0:
124,29,287202,5,2,0:0:0:0:
106,122,287360,1,2,0:0:0:0:
368,348,287676,5,2,0:0:0:0:
376,48,287992,1,2,0:0:0:0:
159,264,288307,1,2,0:0:0:0:
159,264,288465,1,2,0:0:0:0:
347,274,288623,6,0,L|459:281,1,95,6|0,0:0|0:0,0:0:0:0:
263,108,288939,1,2,0:0:0:0:
253,269,289097,1,0,0:0:0:0:
253,269,289176,1,0,0:0:0:0:
253,269,289255,1,2,0:0:0:0:
357,113,289413,1,0,0:0:0:0:
159,264,289570,6,0,L|64:258,1,95,2|0,0:0|0:0,0:0:0:0:
169,103,289886,1,2,0:0:0:0:
253,269,290044,1,0,0:0:0:0:
253,269,290123,1,0,0:0:0:0:
253,269,290202,1,2,0:0:0:0:
263,108,290360,1,0,0:0:0:0:
159,264,290518,5,2,0:0:0:0:
357,113,290676,1,0,0:0:0:0:
253,269,290834,1,2,0:0:0:0:
169,103,290991,1,0,0:0:0:0:
169,103,291070,1,0,0:0:0:0:
169,103,291149,1,2,0:0:0:0:
347,274,291307,1,0,0:0:0:0:
159,264,291465,6,0,L|64:258,1,95,2|0,0:0|0:0,0:0:0:0:
357,113,291781,2,0,L|451:118,1,95,2|0,0:0|0:0,0:0:0:0:
253,269,292097,1,2,0:0:0:0:
268,27,292255,1,0,0:0:0:0:
347,274,292413,6,0,P|373:326|381:370,1,95,2|0,0:0|0:0,0:0:0:0:
169,103,292728,2,0,P|179:56|202:15,1,95,2|0,0:0|0:0,0:0:0:0:
253,269,293044,2,0,P|220:317|186:346,1,95,2|0,0:0|0:0,0:0:0:0:
312,29,293360,2,0,P|357:14|404:13,1,95,2|0,0:0|0:0,0:0:0:0:
159,264,293676,2,0,P|100:260|58:245,1,95,2|0,0:0|0:0,0:0:0:0:
396,195,293991,2,0,P|430:227|455:267,1,95,2|0,0:0|0:0,0:0:0:0:
253,269,294307,5,2,0:0:0:0:
253,269,294465,1,0,0:0:0:0:
263,108,294623,1,2,0:0:0:0:
263,108,294781,1,0,0:0:0:0:
347,274,294939,1,2,0:0:0:0:
347,274,295097,1,0,0:0:0:0:
169,103,295255,5,2,0:0:0:0:
169,103,295413,1,0,0:0:0:0:
357,113,295570,1,2,0:0:0:0:
357,113,295728,1,0,0:0:0:0:
159,264,295886,1,2,0:0:0:0:
159,264,296044,1,0,0:0:0:0:
122,93,296202,6,0,L|171:103,1,47.5,2|0,0:0|0:0,0:0:0:0:
294,215,296360,1,2,0:0:0:0:
67,242,296518,1,2,0:0:0:0:
245,100,296676,1,2,0:0:0:0:
262,328,296834,1,2,0:0:0:0:
137,176,296992,1,2,0:0:0:0:
329,178,297149,6,0,L|314:249,1,47.5,2|0,0:0|0:0,0:0:0:0:
123,289,297307,1,2,0:0:0:0:
157,65,297465,1,2,0:0:0:0:
320,225,297623,1,2,0:0:0:0:
60,160,297781,1,2,0:0:0:0:
267,50,297939,1,2,0:0:0:0:
255,310,298097,6,0,L|200:299,1,47.5,2|0,0:0|0:0,0:0:0:0:
157,65,298255,1,2,0:0:0:0:
366,140,298413,1,2,0:0:0:0:
123,289,298570,1,2,0:0:0:0:
262,20,298728,1,2,0:0:0:0:
374,259,298886,1,2,0:0:0:0:
112,196,299044,6,0,L|121:144,1,47.5,2|0,0:0|0:0,0:0:0:0:
410,24,299202,1,2,0:0:0:0:
272,333,299360,1,2,0:0:0:0:
198,2,299518,1,2,0:0:0:0:
455,229,299676,1,2,0:0:0:0:
112,196,299834,1,2,0:0:0:0:
404,30,299992,5,2,0:0:0:0:
441,78,300070,1,0,0:0:0:0:
463,135,300149,1,0,0:0:0:0:
468,197,300228,1,0,0:0:0:0:
453,257,300307,1,0,0:0:0:0:
422,310,300386,1,0,0:0:0:0:
377,351,300465,1,0,0:0:0:0:
321,377,300544,1,0,0:0:0:0:
260,386,300623,1,0,0:0:0:0:
200,377,300702,1,0,0:0:0:0:
144,349,300781,1,0,0:0:0:0:
100,307,300860,1,0,0:0:0:0:
83,253,300939,6,0,B|94:192|148:141|148:141|154:220|206:270|289:276|289:276|233:341|169:348,1,475,2|0,0:0|0:0,0:0:0:0:
227,139,302834,6,0,L|352:149,1,113.999996520996,6|0,0:0|0:0,0:0:0:0:
163,233,303149,1,2,0:0:0:0:
178,37,303307,1,0,0:0:0:0:
340,148,303465,2,0,L|330:273,1,113.999996520996,10|0,0:0|0:0,0:0:0:0:
291,46,303781,5,2,0:0:0:0:
453,157,303939,1,0,0:0:0:0:
453,157,304018,1,0,0:0:0:0:
453,157,304097,1,2,0:0:0:0:
276,242,304255,1,0,0:0:0:0:
402,54,304413,1,10,0:0:0:0:
500,258,304570,1,0,0:0:0:0:
291,46,304728,5,2,0:0:0:0:
512,61,304886,1,0,0:0:0:0:
276,242,305044,1,2,0:0:0:0:
401,53,305202,1,0,0:0:0:0:
401,53,305280,1,0,0:0:0:0:
401,53,305360,1,10,0:0:0:0:
500,258,305518,1,0,0:0:0:0:
291,46,305676,6,0,L|177:36,1,113.999996520996,2|0,0:0|0:0,0:0:0:0:
512,61,305992,1,2,0:0:0:0:
276,242,306149,1,0,0:0:0:0:
276,242,306228,1,0,0:0:0:0:
276,242,306307,1,10,0:0:0:0:
401,53,306465,1,0,0:0:0:0:
500,258,306623,6,0,P|445:279|265:287,1,227.999993041992,2|2,0:0|0:0,0:0:0:0:
71,108,307097,1,0,0:0:0:0:
192,170,307255,2,0,P|258:125|290:92,1,113.999996520996,10|0,0:0|0:0,0:0:0:0:
85,257,307570,2,0,P|57:330|48:384,1,113.999996520996,2|0,0:0|0:0,0:0:0:0:
206,319,307886,2,0,P|274:343|326:347,1,113.999996520996,2|0,0:0|0:0,0:0:0:0:
71,108,308202,2,0,P|28:163|9:211,1,113.999996520996,10|0,0:0|0:0,0:0:0:0:
294,215,308518,6,0,L|280:79,1,113.999996520996,2|0,0:0|0:0,0:0:0:0:
206,319,308834,1,2,0:0:0:0:
206,319,308992,1,0,0:0:0:0:
193,66,309149,2,0,P|233:19|299:10,1,113.999996520996,10|0,0:0|0:0,0:0:0:0:
294,215,309465,5,2,0:0:0:0:
105,170,309623,1,0,0:0:0:0:
337,118,309781,1,2,0:0:0:0:
67,276,309939,1,0,0:0:0:0:
332,5,310097,2,0,L|338:134,1,113.999996520996,10|0,0:0|0:0,0:0:0:0:
108,38,310413,6,0,P|172:21|237:24,1,113.999996520996,2|0,0:0|0:0,0:0:0:0:
166,226,310728,1,2,0:0:0:0:
11,26,310886,1,0,0:0:0:0:
50,240,311044,2,0,L|40:361,1,113.999996520996,10|0,0:0|0:0,0:0:0:0:
163,37,311360,5,2,0:0:0:0:
285,240,311518,1,0,0:0:0:0:
282,7,311676,1,2,0:0:0:0:
169,275,311834,1,0,0:0:0:0:
403,140,311992,1,10,0:0:0:0:
403,140,312070,1,0,0:0:0:0:
403,140,312149,1,0,0:0:0:0:
132,81,312307,5,2,0:0:0:0:
103,77,312385,1,0,0:0:0:0:
75,74,312464,1,0,0:0:0:0:
47,71,312543,1,0,0:0:0:0:
18,67,312622,1,2,0:0:0:0:
266,71,312781,1,0,0:0:0:0:
37,317,312939,2,0,L|24:190,1,113.999996520996
304,314,313255,5,2,0:0:0:0:
304,314,313334,1,0,0:0:0:0:
304,314,313413,1,0,0:0:0:0:
266,71,313570,2,0,P|209:47|151:52,1,113.999996520996,2|0,0:0|0:0,0:0:0:0:
159,286,313886,1,10,0:0:0:0:
411,99,314044,1,0,0:0:0:0:
117,156,314202,6,0,P|55:148|7:114,1,113.999996520996,2|0,0:0|0:0,0:0:0:0:
266,71,314518,1,2,0:0:0:0:
266,71,314676,1,0,0:0:0:0:
236,312,314834,2,0,L|224:185,1,113.999996520996,10|0,0:0|0:0,0:0:0:0:
486,25,315149,6,0,L|474:152,1,113.999996520996,2|0,0:0|0:0,0:0:0:0:
404,274,315465,1,2,0:0:0:0:
404,274,315623,1,0,0:0:0:0:
368,123,315781,2,0,P|428:116|488:151,1,113.999996520996,10|0,0:0|0:0,0:0:0:0:
234,258,316097,5,2,0:0:0:0:
359,18,316255,1,0,0:0:0:0:
394,293,316413,1,2,0:0:0:0:
212,93,316570,1,0,0:0:0:0:
475,138,316728,1,2,0:0:0:0:
219,326,316886,1,0,0:0:0:0:
212,19,317044,5,2,0:0:0:0:
433,246,317202,1,0,0:0:0:0:
126,245,317360,1,2,0:0:0:0:
397,112,317518,1,0,0:0:0:0:
220,352,317676,1,2,0:0:0:0:
182,8,317834,1,0,0:0:0:0:
466,246,317992,5,10,0:0:0:0:
439,296,318070,1,0,0:0:0:0:
397,334,318149,1,0,0:0:0:0:
344,354,318228,1,0,0:0:0:0:
288,355,318307,1,2,0:0:0:0:
234,335,318386,1,0,0:0:0:0:
191,298,318465,1,0,0:0:0:0:
164,249,318544,1,0,0:0:0:0:
156,193,318623,1,2,0:0:0:0:
169,137,318702,1,0,0:0:0:0:
200,90,318781,1,0,0:0:0:0:
246,57,318860,1,0,0:0:0:0:
300,42,318939,5,2,0:0:0:0:
338,84,319017,1,0,0:0:0:0:
353,138,319096,1,0,0:0:0:0:
340,193,319175,1,0,0:0:0:0:
304,237,319254,1,2,0:0:0:0:
252,259,319333,1,0,0:0:0:0:
196,255,319412,1,0,0:0:0:0:
148,226,319491,1,0,0:0:0:0:
118,177,319570,6,0,L|127:113,1,56.9999982604981,2|0,0:0|0:0,0:0:0:0:
386,121,319728,2,0,L|393:177,1,56.9999982604981,2|0,0:0|0:0,0:0:0:0:
240,376,319886,6,0,B|223:352|256:339|256:339|239:274|239:274|192:275|157:257|157:257|231:192|183:120|183:120|199:47|256:0|256:0|313:47|329:120|329:120|281:192|355:257|355:257|320:275|273:274|273:274|256:339|256:339|289:352|272:376,1,997.5,6|0,0:0|0:0,0:0:0:0:
273,374,323360,5,2,0:0:0:0:
190,352,323518,1,2,0:0:0:0:
100,330,323661,2,0,L|93:165,1,142.5,2|0,0:0|0:0,0:0:0:0:
148,112,324155,1,2,0:0:0:0:
148,112,324320,1,2,0:0:0:0:
419,197,324650,6,0,L|413:340,2,142.5,2|2|2,0:0|0:0|0:0,0:0:0:0:
357,111,325735,5,2,0:0:0:0:
321,204,326129,1,2,0:0:0:0:
419,197,326524,1,2,0:0:0:0:
357,111,326942,5,2,0:0:0:0:
259,118,327379,1,2,0:0:0:0:
223,211,327834,2,0,L|218:291,1,71.2500027179719,2|2,0:0|0:0,0:0:0:0:
331,333,328481,6,0,L|328:294,2,23.75
256,192,328754,12,0,331617,0:0:0:0:
