osu file format v14

[General]
AudioFilename: CaliburnE.mp3
AudioLeadIn: 0
PreviewTime: 54
Countdown: 0
SampleSet: Normal
StackLeniency: 0.7
Mode: 1
LetterboxInBreaks: 0
WidescreenStoryboard: 0

[Editor]
DistanceSpacing: 1.8
BeatDivisor: 4
GridSize: 4
TimelineZoom: 2.599999

[Metadata]
Title:Caliburne ~Story of the Legendary sword~
TitleUnicode:Caliburne ~Story of the Legendary sword~
Artist:Project Grimoire
ArtistUnicode:Project Grimoire
Creator:Nofool
Version:Kantan
Source:maimai ORANGE
Tags:Team Grimoire
BeatmapID:1165899
BeatmapSetID:382279

[Difficulty]
HPDrainRate:8
CircleSize:6
OverallDifficulty:4
ApproachRate:8
SliderMultiplier:1.4
SliderTickRate:1

[Events]
//Background and Video events
0,0,"BG75.jpg",0,0
//Break Periods
//Storyboard Layer 0 (Background)
//Storyboard Layer 1 (Fail)
//Storyboard Layer 2 (Pass)
//Storyboard Layer 3 (Foreground)
//Storyboard Sound Samples

[TimingPoints]
-419,315.789473684211,3,1,0,80,1,0
449,-125,3,1,0,80,0,0
11817,-100,3,1,0,80,0,0
31712,-106.382978723404,3,1,0,80,0,0
32659,-108.695652173913,3,1,0,80,0,0
33607,-111.111111111111,3,1,0,80,0,0
44107,-111.111111111111,3,1,0,50,0,0
46002,-90.9090909090909,3,1,0,80,0,1
61081,-92.5925925925926,3,1,0,80,0,0
62028,-98.0392156862745,3,1,0,80,0,0
62975,-100,3,1,0,80,0,0
92344,-111.111111111111,3,1,0,80,0,0
93291,-109.89010989011,3,1,0,80,0,0
94238,-108.695652173913,3,1,0,80,0,0
95186,-107.52688172043,3,1,0,80,0,0
96133,-106.382978723404,3,1,0,80,0,0
97081,-105.263157894737,3,1,0,80,0,0
98028,-104.166666666667,3,1,0,80,0,0
98975,-100,3,1,0,80,0,0
112317,-90.9090909090909,3,1,0,80,0,1
131265,315.789473684211,4,1,0,80,1,0
131265,-100,3,1,0,80,0,0
132212,329.67032967033,4,1,0,80,1,0
132212,-96.1538461538461,4,1,0,80,0,0
133203,359.281437125748,4,1,0,80,1,0
133203,-88.4955752212389,4,1,0,80,0,0
134288,394.736842105263,4,1,0,80,1,0
134288,-82.6446280991736,4,1,0,80,0,0
135495,437.956204379562,4,1,0,80,1,0
135495,-80,4,1,0,80,0,0
136387,444.444444444444,4,1,0,80,1,0
136387,-81.3008130081301,4,1,0,80,0,0
136864,545.454545454546,4,1,0,80,1,0
136864,-66.6666666666667,4,1,0,80,0,0

[HitObjects]
256,192,528,5,0,0:0:0:0:
256,192,2423,1,0,0:0:0:0:
256,192,4317,1,0,0:0:0:0:
256,192,5264,1,0,0:0:0:0:
256,192,6212,1,8,0:0:0:0:
256,192,8107,1,0,0:0:0:0:
256,192,10002,1,0,0:0:0:0:
256,192,11896,1,8,0:0:0:0:
256,192,12844,1,0,0:0:0:0:
256,192,13159,1,0,0:0:0:0:
256,192,13475,1,8,0:0:0:0:
256,192,13791,2,8,L|328:192,5,70
256,192,14738,1,12,0:0:0:0:
256,192,15686,1,4,0:0:0:0:
256,192,16633,1,0,0:0:0:0:
256,192,17265,1,8,0:0:0:0:
256,192,17581,1,0,0:0:0:0:
256,192,17896,1,8,0:0:0:0:
256,192,18528,1,0,0:0:0:0:
256,192,19159,1,8,0:0:0:0:
256,192,19475,1,0,0:0:0:0:
256,192,20423,1,0,0:0:0:0:
256,192,21054,1,8,0:0:0:0:
256,192,21370,1,0,0:0:0:0:
256,192,21685,1,8,0:0:0:0:
256,192,22317,1,0,0:0:0:0:
256,192,22949,1,8,0:0:0:0:
256,192,23265,1,4,0:0:0:0:
256,192,24212,1,0,0:0:0:0:
256,192,24844,1,8,0:0:0:0:
256,192,25159,1,0,0:0:0:0:
256,192,25791,1,8,0:0:0:0:
256,192,26107,1,0,0:0:0:0:
256,192,27054,1,0,0:0:0:0:
256,192,28002,1,8,0:0:0:0:
256,192,28633,1,0,0:0:0:0:
256,192,28949,1,8,0:0:0:0:
256,192,29265,1,8,0:0:0:0:
256,192,29581,1,0,0:0:0:0:
256,192,29896,2,0,L|332:192,4,70
256,192,30844,1,4,0:0:0:0:
256,192,32738,1,0,0:0:0:0:
256,192,33686,1,8,0:0:0:0:
256,192,34633,1,8,0:0:0:0:
256,192,36528,1,0,0:0:0:0:
256,192,37475,1,8,0:0:0:0:
256,192,38423,1,0,0:0:0:0:
256,192,40317,1,0,0:0:0:0:
256,192,41265,1,8,0:0:0:0:
256,192,42212,1,0,0:0:0:0:
256,192,43159,1,0,0:0:0:0:
256,192,44107,12,0,45686,0:0:0:0:
256,192,46002,5,4,0:0:0:0:
256,192,46633,1,0,0:0:0:0:
256,192,46949,1,8,0:0:0:0:
256,192,47581,1,8,0:0:0:0:
256,192,47896,1,0,0:0:0:0:
256,192,48844,1,8,0:0:0:0:
256,192,49475,1,8,0:0:0:0:
256,192,49791,1,0,0:0:0:0:
256,192,50738,1,0,0:0:0:0:
256,192,51054,1,8,0:0:0:0:
256,192,51370,1,8,0:0:0:0:
256,192,51686,1,0,0:0:0:0:
256,192,52633,1,8,0:0:0:0:
256,192,53581,1,4,0:0:0:0:
256,192,54212,1,0,0:0:0:0:
256,192,54528,1,8,0:0:0:0:
256,192,55159,1,8,0:0:0:0:
256,192,55475,1,0,0:0:0:0:
256,192,56423,1,0,0:0:0:0:
256,192,57054,1,0,0:0:0:0:
256,192,57370,1,8,0:0:0:0:
256,192,58002,1,8,0:0:0:0:
256,192,58317,1,8,0:0:0:0:
256,192,58949,1,0,0:0:0:0:
256,192,59265,2,8,L|424:192,5,154.000004699707
396,192,61159,1,4,0:0:0:0:
396,192,62107,1,4,0:0:0:0:
396,192,63054,1,12,0:0:0:0:
396,192,64002,1,12,0:0:0:0:
256,192,64949,1,0,0:0:0:0:
256,192,65581,1,0,0:0:0:0:
256,192,65896,1,0,0:0:0:0:
256,192,66528,1,8,0:0:0:0:
256,192,66844,1,0,0:0:0:0:
256,192,67475,1,0,0:0:0:0:
256,192,67791,1,4,0:0:0:0:
256,192,68738,1,12,0:0:0:0:
256,192,69686,1,12,0:0:0:0:
256,192,70633,1,4,0:0:0:0:
256,192,71581,1,4,0:0:0:0:
256,192,72528,1,8,0:0:0:0:
256,192,73159,1,8,0:0:0:0:
256,192,73475,1,8,0:0:0:0:
256,192,74107,1,8,0:0:0:0:
256,192,74423,1,8,0:0:0:0:
256,192,75054,1,8,0:0:0:0:
256,192,75370,2,0,L|332:192,4,70
256,192,76317,1,0,0:0:0:0:
256,192,76791,1,0,0:0:0:0:
256,192,77265,1,8,0:0:0:0:
256,192,78212,1,0,0:0:0:0:
256,192,78686,1,0,0:0:0:0:
256,192,79159,1,0,0:0:0:0:
256,192,80107,1,8,0:0:0:0:
256,192,80581,1,0,0:0:0:0:
256,192,81054,1,8,0:0:0:0:
256,192,82002,5,0,0:0:0:0:
256,192,82475,5,8,0:0:0:0:
256,192,82949,1,0,0:0:0:0:
256,192,83896,5,4,0:0:0:0:
256,192,84370,1,0,0:0:0:0:
256,192,84844,1,8,0:0:0:0:
256,192,85791,1,0,0:0:0:0:
256,192,86265,1,8,0:0:0:0:
256,192,86738,1,8,0:0:0:0:
256,192,87686,1,8,0:0:0:0:
256,192,88317,1,0,0:0:0:0:
256,192,88633,1,8,0:0:0:0:
256,192,89265,1,8,0:0:0:0:
256,192,89581,1,0,0:0:0:0:
256,192,90528,2,0,L|328:192,4,70
256,192,91475,1,4,0:0:0:0:
256,192,93370,1,8,0:0:0:0:
256,192,95265,1,0,0:0:0:0:
256,192,97159,1,8,0:0:0:0:
256,192,99054,1,4,0:0:0:0:
256,192,99686,1,0,0:0:0:0:
256,192,100002,1,8,0:0:0:0:
256,192,100949,1,8,0:0:0:0:
256,192,101581,1,8,0:0:0:0:
256,192,101896,1,0,0:0:0:0:
256,192,102844,1,12,0:0:0:0:
256,192,103475,1,0,0:0:0:0:
256,192,103791,1,12,0:0:0:0:
256,192,104738,1,0,0:0:0:0:
256,192,105686,1,8,0:0:0:0:
256,192,106633,1,0,0:0:0:0:
256,192,106949,1,0,0:0:0:0:
256,192,107265,1,0,0:0:0:0:
256,192,107581,1,8,0:0:0:0:
256,192,108528,1,8,0:0:0:0:
256,192,108844,1,8,0:0:0:0:
256,192,109159,1,8,0:0:0:0:
256,192,109475,1,0,0:0:0:0:
256,192,110423,2,12,L|396:192,3,140
256,192,112317,1,4,0:0:0:0:
256,192,112949,1,0,0:0:0:0:
256,192,113265,1,8,0:0:0:0:
256,192,113580,1,8,0:0:0:0:
256,192,114212,1,0,0:0:0:0:
256,192,114844,1,8,0:0:0:0:
256,192,115159,1,0,0:0:0:0:
256,192,115475,1,0,0:0:0:0:
256,192,116107,1,8,0:0:0:0:
256,192,116738,1,0,0:0:0:0:
256,192,117054,1,8,0:0:0:0:
256,192,117686,1,8,0:0:0:0:
256,192,118002,1,0,0:0:0:0:
256,192,118949,1,12,0:0:0:0:
256,192,119265,1,12,0:0:0:0:
256,192,119581,1,0,0:0:0:0:
256,192,119896,1,4,0:0:0:0:
256,192,120528,1,0,0:0:0:0:
256,192,120844,1,12,0:0:0:0:
256,192,121791,1,8,0:0:0:0:
256,192,122423,1,0,0:0:0:0:
256,192,122738,1,12,0:0:0:0:
256,192,123054,1,4,0:0:0:0:
256,192,123686,1,8,0:0:0:0:
256,192,124633,1,8,0:0:0:0:
256,192,125581,1,12,0:0:0:0:
256,192,126528,1,4,0:0:0:0:
256,192,126844,1,12,0:0:0:0:
256,192,127159,1,12,0:0:0:0:
256,192,127475,2,0,L|336:192,9,77.0000023498536
256,192,129054,1,8,0:0:0:0:
256,192,129370,12,0,131265,0:0:0:0:
256,192,132212,5,8,0:0:0:0:
256,192,133203,1,0,0:0:0:0:
256,192,134288,1,0,0:0:0:0:
256,192,135495,1,8,0:0:0:0:
256,192,136387,1,0,0:0:0:0:
256,192,137136,1,8,0:0:0:0:
