osu file format v14

[General]
AudioFilename: CaliburnE.mp3
AudioLeadIn: 0
PreviewTime: 54
Countdown: 0
SampleSet: Normal
StackLeniency: 0.7
Mode: 1
LetterboxInBreaks: 0
WidescreenStoryboard: 0

[Editor]
DistanceSpacing: 1.8
BeatDivisor: 4
GridSize: 4
TimelineZoom: 2.899999

[Metadata]
Title:Caliburne ~Story of the Legendary sword~
TitleUnicode:Caliburne ~Story of the Legendary sword~
Artist:Project Grimoire
ArtistUnicode:Project Grimoire
Creator:Nofool
Version:Inner Oni
Source:maimai ORANGE
Tags:Team Grimoire
BeatmapID:1124594
BeatmapSetID:382279

[Difficulty]
HPDrainRate:6
CircleSize:6
OverallDifficulty:6
ApproachRate:8
SliderMultiplier:1.4
SliderTickRate:1

[Events]
//Background and Video events
0,0,"BG75.jpg",0,0
//Break Periods
//Storyboard Layer 0 (Background)
//Storyboard Layer 1 (Fail)
//Storyboard Layer 2 (Pass)
//Storyboard Layer 3 (Foreground)
//Storyboard Sound Samples

[TimingPoints]
-419,315.789473684211,3,1,0,80,1,0
449,-125,3,1,0,80,0,0
11817,-100,3,1,0,80,0,0
31081,-102.040816326531,3,1,0,80,0,0
31396,-104.166666666667,3,1,0,80,0,0
31712,-106.382978723404,3,1,0,80,0,0
32028,-107.52688172043,3,1,0,80,0,0
32344,-108.695652173913,3,1,0,80,0,0
32659,-109.89010989011,3,1,0,80,0,0
32975,-111.111111111111,3,1,0,80,0,0
44975,-111.111111111111,3,1,0,50,0,0
46002,-90.9090909090909,3,1,0,80,0,1
60962,-91.743119266055,3,1,0,80,0,1
61081,-92.5925925925926,3,1,0,80,0,0
61238,-93.4579439252336,3,1,0,80,0,0
61396,-94.3396226415094,3,1,0,80,0,0
61554,-95.2380952380952,3,1,0,80,0,0
61712,-96.1538461538461,3,1,0,80,0,0
61870,-97.0873786407767,3,1,0,80,0,0
62028,-98.0392156862745,3,1,0,80,0,0
62344,-100,3,1,0,80,0,0
92344,-111.111111111111,3,1,0,80,0,0
93291,-109.89010989011,3,1,0,80,0,0
94238,-108.695652173913,3,1,0,80,0,0
95186,-107.52688172043,3,1,0,80,0,0
96133,-106.382978723404,3,1,0,80,0,0
97081,-105.263157894737,3,1,0,80,0,0
98028,-104.166666666667,3,1,0,80,0,0
98817,-102.040816326531,3,1,0,80,0,0
98975,-100,3,1,0,80,0,0
112317,-90.9090909090909,3,1,0,80,0,1
131265,315.789473684211,4,1,0,80,1,0
131265,-100,3,1,0,80,0,0
132212,329.67032967033,4,1,0,80,1,0
132212,-96.1538461538461,4,1,0,80,0,0
133203,359.281437125748,4,1,0,80,1,0
133203,-88.4955752212389,4,1,0,80,0,0
133472,-89.2857142857143,4,1,0,80,0,0
133831,-90.0900900900901,4,1,0,80,0,0
134288,394.736842105263,4,1,0,80,1,0
134288,-82.6446280991736,4,1,0,80,0,0
134584,-84.7457627118644,4,1,0,80,0,0
134978,-86.2068965517241,4,1,0,80,0,0
135495,437.956204379562,4,1,0,80,1,0
135495,-80,4,1,0,80,0,0
135823,-80.6451612903226,4,1,0,80,0,0
136387,444.444444444444,4,1,0,80,1,0
136387,-81.3008130081301,4,1,0,80,0,0
136498,-81.9672131147541,4,1,0,80,0,0
136864,545.454545454546,4,1,0,80,1,0
136864,-66.6666666666667,4,1,0,80,0,0

[HitObjects]
256,192,528,5,0,0:0:0:0:
256,192,844,1,8,0:0:0:0:
256,192,1475,1,0,0:0:0:0:
256,192,1791,1,0,0:0:0:0:
256,192,2423,1,0,0:0:0:0:
256,192,2738,1,8,0:0:0:0:
256,192,3370,1,0,0:0:0:0:
256,192,3686,1,0,0:0:0:0:
256,192,4317,1,0,0:0:0:0:
256,192,4633,1,8,0:0:0:0:
256,192,5265,1,0,0:0:0:0:
256,192,5581,1,0,0:0:0:0:
256,192,6212,1,0,0:0:0:0:
256,192,6528,1,8,0:0:0:0:
256,192,7002,1,8,0:0:0:0:
256,192,7159,1,8,0:0:0:0:
256,192,7475,1,8,0:0:0:0:
256,192,8107,1,0,0:0:0:0:
256,192,8423,1,8,0:0:0:0:
256,192,9054,1,0,0:0:0:0:
256,192,9370,1,0,0:0:0:0:
256,192,10002,1,0,0:0:0:0:
256,192,10317,1,8,0:0:0:0:
256,192,10949,1,0,0:0:0:0:
256,192,11265,1,0,0:0:0:0:
256,192,11896,1,8,0:0:0:0:
256,192,12054,1,8,0:0:0:0:
256,192,12212,1,8,0:0:0:0:
256,192,12370,1,8,0:0:0:0:
256,192,12528,1,0,0:0:0:0:
256,192,12686,1,0,0:0:0:0:
256,192,12765,1,0,0:0:0:0:
256,192,12844,1,8,0:0:0:0:
256,192,13002,1,8,0:0:0:0:
256,192,13159,1,0,0:0:0:0:
256,192,13317,1,0,0:0:0:0:
256,192,13475,1,8,0:0:0:0:
256,192,13633,1,0,0:0:0:0:
256,192,13712,1,0,0:0:0:0:
256,192,13791,1,8,0:0:0:0:
256,192,13870,1,0,0:0:0:0:
256,192,13949,1,0,0:0:0:0:
256,192,14028,1,0,0:0:0:0:
256,192,14107,1,8,0:0:0:0:
256,192,14186,1,0,0:0:0:0:
256,192,14265,1,0,0:0:0:0:
256,192,14344,1,0,0:0:0:0:
256,192,14423,1,8,0:0:0:0:
256,192,14502,1,0,0:0:0:0:
256,192,14581,1,0,0:0:0:0:
256,192,14659,1,0,0:0:0:0:
256,192,14738,1,8,0:0:0:0:
256,192,15054,1,12,0:0:0:0:
256,192,15686,1,4,0:0:0:0:
256,192,15844,1,0,0:0:0:0:
256,192,16002,1,8,0:0:0:0:
256,192,16159,1,0,0:0:0:0:
256,192,16317,1,8,0:0:0:0:
256,192,16396,1,8,0:0:0:0:
256,192,16475,1,8,0:0:0:0:
256,192,16554,1,8,0:0:0:0:
256,192,16633,1,0,0:0:0:0:
256,192,16949,1,8,0:0:0:0:
256,192,17107,1,0,0:0:0:0:
256,192,17186,1,0,0:0:0:0:
256,192,17265,1,8,0:0:0:0:
256,192,17423,1,8,0:0:0:0:
256,192,17581,1,0,0:0:0:0:
256,192,17738,1,0,0:0:0:0:
256,192,17817,1,0,0:0:0:0:
256,192,17896,1,8,0:0:0:0:
256,192,18054,1,0,0:0:0:0:
256,192,18212,1,8,0:0:0:0:
256,192,18291,1,8,0:0:0:0:
256,192,18370,1,8,0:0:0:0:
256,192,18449,1,8,0:0:0:0:
256,192,18528,1,0,0:0:0:0:
256,192,18686,1,0,0:0:0:0:
256,192,18765,1,0,0:0:0:0:
256,192,18844,1,8,0:0:0:0:
256,192,19002,1,0,0:0:0:0:
256,192,19159,1,8,0:0:0:0:
256,192,19238,1,0,0:0:0:0:
256,192,19317,1,8,0:0:0:0:
256,192,19396,1,8,0:0:0:0:
256,192,19475,1,0,0:0:0:0:
256,192,19633,1,0,0:0:0:0:
256,192,19791,1,8,0:0:0:0:
256,192,19949,1,0,0:0:0:0:
256,192,20107,1,8,0:0:0:0:
256,192,20186,1,8,0:0:0:0:
256,192,20265,1,8,0:0:0:0:
256,192,20344,1,8,0:0:0:0:
256,192,20423,1,0,0:0:0:0:
256,192,20738,1,8,0:0:0:0:
256,192,20896,1,0,0:0:0:0:
256,192,20975,1,0,0:0:0:0:
256,192,21054,1,8,0:0:0:0:
256,192,21212,1,8,0:0:0:0:
256,192,21370,1,0,0:0:0:0:
256,192,21528,1,0,0:0:0:0:
256,192,21607,1,0,0:0:0:0:
256,192,21686,1,8,0:0:0:0:
256,192,21844,1,0,0:0:0:0:
256,192,22002,1,8,0:0:0:0:
256,192,22159,1,8,0:0:0:0:
256,192,22238,1,8,0:0:0:0:
256,192,22317,1,0,0:0:0:0:
256,192,22396,1,8,0:0:0:0:
256,192,22475,1,0,0:0:0:0:
256,192,22554,1,0,0:0:0:0:
256,192,22633,1,8,0:0:0:0:
256,192,22791,1,0,0:0:0:0:
256,192,22949,1,12,0:0:0:0:
256,192,23107,1,12,0:0:0:0:
256,192,23265,1,4,0:0:0:0:
256,192,23423,1,0,0:0:0:0:
256,192,23502,1,0,0:0:0:0:
256,192,23581,1,8,0:0:0:0:
256,192,23738,1,0,0:0:0:0:
256,192,23817,1,0,0:0:0:0:
256,192,23896,1,0,0:0:0:0:
256,192,24054,1,8,0:0:0:0:
256,192,24212,1,0,0:0:0:0:
256,192,24528,1,8,0:0:0:0:
256,192,24686,1,0,0:0:0:0:
256,192,24765,1,0,0:0:0:0:
256,192,24844,1,8,0:0:0:0:
256,192,25002,1,8,0:0:0:0:
256,192,25159,1,0,0:0:0:0:
256,192,25475,1,8,0:0:0:0:
256,192,25633,1,0,0:0:0:0:
256,192,25712,1,0,0:0:0:0:
256,192,25791,1,0,0:0:0:0:
256,192,25949,1,8,0:0:0:0:
256,192,26028,1,8,0:0:0:0:
256,192,26107,1,0,0:0:0:0:
256,192,26265,1,8,0:0:0:0:
256,192,26423,1,0,0:0:0:0:
256,192,26502,1,8,0:0:0:0:
256,192,26581,1,0,0:0:0:0:
256,192,26659,1,0,0:0:0:0:
256,192,26738,1,8,0:0:0:0:
256,192,26896,1,0,0:0:0:0:
256,192,27054,1,4,0:0:0:0:
256,192,27212,1,0,0:0:0:0:
256,192,27370,1,8,0:0:0:0:
256,192,27528,1,0,0:0:0:0:
256,192,27686,1,8,0:0:0:0:
256,192,27765,1,8,0:0:0:0:
256,192,27844,1,0,0:0:0:0:
256,192,28002,1,8,0:0:0:0:
256,192,28317,1,0,0:0:0:0:
256,192,28475,1,8,0:0:0:0:
256,192,28554,1,8,0:0:0:0:
256,192,28633,1,0,0:0:0:0:
256,192,28791,1,0,0:0:0:0:
256,192,28949,1,8,0:0:0:0:
256,192,29107,1,8,0:0:0:0:
256,192,29265,1,8,0:0:0:0:
256,192,29423,1,0,0:0:0:0:
256,192,29581,1,8,0:0:0:0:
256,192,29738,1,0,0:0:0:0:
256,192,29896,1,8,0:0:0:0:
256,192,29975,1,8,0:0:0:0:
256,192,30054,1,8,0:0:0:0:
256,192,30133,1,8,0:0:0:0:
256,192,30212,1,0,0:0:0:0:
256,192,30291,1,0,0:0:0:0:
256,192,30370,1,0,0:0:0:0:
256,192,30449,1,0,0:0:0:0:
256,192,30528,1,8,0:0:0:0:
256,192,30607,1,8,0:0:0:0:
256,192,30686,1,8,0:0:0:0:
256,192,30765,1,8,0:0:0:0:
256,192,30844,1,0,0:0:0:0:
256,192,31159,1,0,0:0:0:0:
256,192,31475,1,0,0:0:0:0:
256,192,31791,1,8,0:0:0:0:
256,192,32107,1,0,0:0:0:0:
256,192,32423,1,8,0:0:0:0:
256,192,32738,1,0,0:0:0:0:
256,192,33054,1,0,0:0:0:0:
256,192,33370,1,0,0:0:0:0:
256,192,33528,1,0,0:0:0:0:
256,192,33686,1,8,0:0:0:0:
256,192,34002,1,0,0:0:0:0:
256,192,34159,1,0,0:0:0:0:
256,192,34317,1,8,0:0:0:0:
256,192,34475,1,8,0:0:0:0:
256,192,34633,1,0,0:0:0:0:
256,192,34949,1,0,0:0:0:0:
256,192,35265,1,0,0:0:0:0:
256,192,35581,1,8,0:0:0:0:
256,192,35896,1,0,0:0:0:0:
256,192,36212,1,8,0:0:0:0:
256,192,36528,1,0,0:0:0:0:
256,192,36844,1,0,0:0:0:0:
256,192,37002,1,0,0:0:0:0:
256,192,37159,1,0,0:0:0:0:
256,192,37475,1,8,0:0:0:0:
256,192,37791,1,0,0:0:0:0:
256,192,38107,1,8,0:0:0:0:
256,192,38423,1,4,0:0:0:0:
256,192,39054,1,0,0:0:0:0:
256,192,39370,1,8,0:0:0:0:
256,192,39686,1,0,0:0:0:0:
256,192,40002,1,8,0:0:0:0:
256,192,40317,1,0,0:0:0:0:
256,192,40633,1,0,0:0:0:0:
256,192,40949,1,0,0:0:0:0:
256,192,41107,1,0,0:0:0:0:
256,192,41265,1,8,0:0:0:0:
256,192,41581,1,0,0:0:0:0:
256,192,41738,1,8,0:0:0:0:
256,192,41896,1,8,0:0:0:0:
256,192,42054,1,8,0:0:0:0:
256,192,42212,1,0,0:0:0:0:
256,192,42528,1,0,0:0:0:0:
256,192,42844,1,0,0:0:0:0:
256,192,43159,1,8,0:0:0:0:
256,192,43475,1,0,0:0:0:0:
256,192,43791,1,8,0:0:0:0:
256,192,44107,1,0,0:0:0:0:
256,192,44265,1,0,0:0:0:0:
256,192,44423,1,0,0:0:0:0:
256,192,44738,1,0,0:0:0:0:
256,192,45054,12,0,45844,0:0:0:0:
256,192,46002,5,0,0:0:0:0:
256,192,46081,1,0,0:0:0:0:
256,192,46159,1,8,0:0:0:0:
256,192,46238,1,8,0:0:0:0:
256,192,46317,1,0,0:0:0:0:
256,192,46475,1,8,0:0:0:0:
256,192,46554,1,8,0:0:0:0:
256,192,46633,1,0,0:0:0:0:
256,192,46791,1,0,0:0:0:0:
256,192,46949,1,8,0:0:0:0:
256,192,47028,1,8,0:0:0:0:
256,192,47107,1,0,0:0:0:0:
256,192,47186,1,0,0:0:0:0:
256,192,47265,1,8,0:0:0:0:
256,192,47423,1,0,0:0:0:0:
256,192,47502,1,0,0:0:0:0:
256,192,47581,1,8,0:0:0:0:
256,192,47738,1,8,0:0:0:0:
256,192,47896,1,0,0:0:0:0:
256,192,47975,1,8,0:0:0:0:
256,192,48054,1,8,0:0:0:0:
256,192,48133,1,0,0:0:0:0:
256,192,48212,1,8,0:0:0:0:
256,192,48370,1,8,0:0:0:0:
256,192,48449,1,0,0:0:0:0:
256,192,48528,1,8,0:0:0:0:
256,192,48686,1,8,0:0:0:0:
256,192,48844,1,0,0:0:0:0:
256,192,49002,1,8,0:0:0:0:
256,192,49081,1,0,0:0:0:0:
256,192,49159,1,0,0:0:0:0:
256,192,49317,1,8,0:0:0:0:
256,192,49475,1,8,0:0:0:0:
256,192,49554,1,8,0:0:0:0:
256,192,49633,1,8,0:0:0:0:
256,192,49791,1,0,0:0:0:0:
256,192,49870,1,0,0:0:0:0:
256,192,49949,1,8,0:0:0:0:
256,192,50028,1,8,0:0:0:0:
256,192,50107,1,0,0:0:0:0:
256,192,50265,1,8,0:0:0:0:
256,192,50344,1,8,0:0:0:0:
256,192,50423,1,0,0:0:0:0:
256,192,50581,1,0,0:0:0:0:
256,192,50738,1,8,0:0:0:0:
256,192,50817,1,8,0:0:0:0:
256,192,50896,1,8,0:0:0:0:
256,192,50975,1,8,0:0:0:0:
256,192,51054,1,0,0:0:0:0:
256,192,51133,1,0,0:0:0:0:
256,192,51212,1,0,0:0:0:0:
256,192,51291,1,0,0:0:0:0:
256,192,51370,1,8,0:0:0:0:
256,192,51528,1,0,0:0:0:0:
256,192,51686,1,8,0:0:0:0:
256,192,51765,1,0,0:0:0:0:
256,192,51844,1,0,0:0:0:0:
256,192,51923,1,0,0:0:0:0:
256,192,52002,1,8,0:0:0:0:
256,192,52081,1,0,0:0:0:0:
256,192,52159,1,0,0:0:0:0:
256,192,52238,1,0,0:0:0:0:
256,192,52317,1,8,0:0:0:0:
256,192,52396,1,0,0:0:0:0:
256,192,52475,1,0,0:0:0:0:
256,192,52554,1,0,0:0:0:0:
256,192,52633,1,8,0:0:0:0:
256,192,52791,1,8,0:0:0:0:
256,192,52949,1,0,0:0:0:0:
256,192,53028,1,8,0:0:0:0:
256,192,53107,1,0,0:0:0:0:
256,192,53186,1,0,0:0:0:0:
256,192,53265,1,8,0:0:0:0:
256,192,53423,1,0,0:0:0:0:
256,192,53581,1,8,0:0:0:0:
256,192,53659,1,0,0:0:0:0:
256,192,53738,1,8,0:0:0:0:
256,192,53817,1,8,0:0:0:0:
256,192,53896,1,0,0:0:0:0:
256,192,54054,1,0,0:0:0:0:
256,192,54133,1,0,0:0:0:0:
256,192,54212,1,8,0:0:0:0:
256,192,54370,1,0,0:0:0:0:
256,192,54528,1,0,0:0:0:0:
256,192,54607,1,8,0:0:0:0:
256,192,54686,1,0,0:0:0:0:
256,192,54765,1,0,0:0:0:0:
256,192,54844,1,8,0:0:0:0:
256,192,55002,1,8,0:0:0:0:
256,192,55081,1,8,0:0:0:0:
256,192,55159,1,0,0:0:0:0:
256,192,55317,1,8,0:0:0:0:
256,192,55475,1,0,0:0:0:0:
256,192,55554,1,8,0:0:0:0:
256,192,55633,1,8,0:0:0:0:
256,192,55712,1,0,0:0:0:0:
256,192,55791,1,8,0:0:0:0:
256,192,55949,1,8,0:0:0:0:
256,192,56028,1,0,0:0:0:0:
256,192,56107,1,8,0:0:0:0:
256,192,56265,1,8,0:0:0:0:
256,192,56423,1,0,0:0:0:0:
256,192,56581,1,8,0:0:0:0:
256,192,56738,1,0,0:0:0:0:
256,192,56817,1,0,0:0:0:0:
256,192,56896,1,8,0:0:0:0:
256,192,56975,1,0,0:0:0:0:
256,192,57054,1,8,0:0:0:0:
256,192,57212,1,8,0:0:0:0:
256,192,57370,1,0,0:0:0:0:
256,192,57528,1,0,0:0:0:0:
256,192,57686,1,0,0:0:0:0:
256,192,57844,1,0,0:0:0:0:
256,192,58002,1,8,0:0:0:0:
256,192,58159,1,0,0:0:0:0:
256,192,58317,1,8,0:0:0:0:
256,192,58475,1,8,0:0:0:0:
256,192,58633,1,8,0:0:0:0:
256,192,58791,1,0,0:0:0:0:
256,192,58870,1,0,0:0:0:0:
256,192,58949,1,8,0:0:0:0:
256,192,59107,1,0,0:0:0:0:
256,192,59265,2,0,L|368:192,11,77.0000023498536
256,192,61159,1,8,0:0:0:0:
256,192,61317,1,0,0:0:0:0:
256,192,61633,1,12,0:0:0:0:
256,192,61791,1,0,0:0:0:0:
256,192,62107,1,12,0:0:0:0:
256,192,62423,1,12,0:0:0:0:
256,192,62738,1,0,0:0:0:0:
256,192,62896,1,0,0:0:0:0:
256,192,63054,1,12,0:0:0:0:
256,192,63212,1,0,0:0:0:0:
256,192,63528,1,12,0:0:0:0:
256,192,63686,1,0,0:0:0:0:
256,192,64002,1,12,0:0:0:0:
256,192,64317,1,4,0:0:0:0:
256,192,64633,1,0,0:0:0:0:
256,192,64791,1,0,0:0:0:0:
256,192,64949,1,0,0:0:0:0:
256,192,65028,1,8,0:0:0:0:
256,192,65107,1,0,0:0:0:0:
256,192,65186,1,0,0:0:0:0:
256,192,65265,1,8,0:0:0:0:
256,192,65344,1,8,0:0:0:0:
256,192,65423,1,0,0:0:0:0:
256,192,65502,1,0,0:0:0:0:
256,192,65581,1,8,0:0:0:0:
256,192,65738,1,8,0:0:0:0:
256,192,65896,1,0,0:0:0:0:
256,192,65975,1,0,0:0:0:0:
256,192,66054,1,8,0:0:0:0:
256,192,66133,1,0,0:0:0:0:
256,192,66212,1,8,0:0:0:0:
256,192,66291,1,8,0:0:0:0:
256,192,66370,1,0,0:0:0:0:
256,192,66449,1,0,0:0:0:0:
256,192,66528,1,8,0:0:0:0:
256,192,66686,1,8,0:0:0:0:
256,192,66844,1,0,0:0:0:0:
256,192,67002,1,0,0:0:0:0:
256,192,67081,1,0,0:0:0:0:
256,192,67159,1,8,0:0:0:0:
256,192,67317,1,0,0:0:0:0:
256,192,67475,1,8,0:0:0:0:
256,192,67633,1,8,0:0:0:0:
256,192,67712,1,8,0:0:0:0:
256,192,67791,1,0,0:0:0:0:
256,192,67870,1,8,0:0:0:0:
256,192,67949,1,8,0:0:0:0:
256,192,68028,1,8,0:0:0:0:
256,192,68107,1,0,0:0:0:0:
256,192,68186,1,8,0:0:0:0:
256,192,68265,1,8,0:0:0:0:
256,192,68344,1,0,0:0:0:0:
256,192,68423,1,0,0:0:0:0:
256,192,68581,1,0,0:0:0:0:
256,192,68659,1,0,0:0:0:0:
256,192,68738,1,8,0:0:0:0:
256,192,68896,1,0,0:0:0:0:
256,192,69212,1,12,0:0:0:0:
256,192,69370,1,0,0:0:0:0:
256,192,69686,1,12,0:0:0:0:
256,192,70002,1,4,0:0:0:0:
256,192,70317,1,0,0:0:0:0:
256,192,70475,1,0,0:0:0:0:
256,192,70633,1,12,0:0:0:0:
256,192,70791,1,0,0:0:0:0:
256,192,70949,1,0,0:0:0:0:
256,192,71107,1,12,0:0:0:0:
256,192,71265,1,0,0:0:0:0:
256,192,71423,1,0,0:0:0:0:
256,192,71581,1,12,0:0:0:0:
256,192,71896,1,12,0:0:0:0:
256,192,72212,1,0,0:0:0:0:
256,192,72370,1,0,0:0:0:0:
256,192,72528,1,12,0:0:0:0:
256,192,72844,1,12,0:0:0:0:
256,192,73002,1,0,0:0:0:0:
256,192,73159,1,12,0:0:0:0:
256,192,73475,1,12,0:0:0:0:
256,192,73791,1,4,0:0:0:0:
256,192,74107,1,4,0:0:0:0:
256,192,74423,1,12,0:0:0:0:
256,192,74738,1,0,0:0:0:0:
256,192,74896,1,0,0:0:0:0:
256,192,75054,1,8,0:0:0:0:
256,192,75212,1,0,0:0:0:0:
256,192,75370,1,0,0:0:0:0:
256,192,75449,1,0,0:0:0:0:
256,192,75528,1,0,0:0:0:0:
256,192,75607,1,0,0:0:0:0:
256,192,75686,1,0,0:0:0:0:
256,192,75765,1,0,0:0:0:0:
256,192,75844,1,0,0:0:0:0:
256,192,75923,1,0,0:0:0:0:
256,192,76002,1,8,0:0:0:0:
256,192,76081,1,8,0:0:0:0:
256,192,76159,1,8,0:0:0:0:
256,192,76238,1,8,0:0:0:0:
256,192,76317,1,0,0:0:0:0:
256,192,76475,1,8,0:0:0:0:
256,192,76633,1,0,0:0:0:0:
256,192,76712,1,0,0:0:0:0:
256,192,76791,1,8,0:0:0:0:
256,192,76949,1,0,0:0:0:0:
256,192,77028,1,0,0:0:0:0:
256,192,77107,1,0,0:0:0:0:
256,192,77186,1,0,0:0:0:0:
256,192,77265,1,8,0:0:0:0:
256,192,77423,1,0,0:0:0:0:
256,192,77502,1,0,0:0:0:0:
256,192,77581,1,8,0:0:0:0:
256,192,77738,1,0,0:0:0:0:
256,192,77896,1,8,0:0:0:0:
256,192,77975,1,8,0:0:0:0:
256,192,78054,1,8,0:0:0:0:
256,192,78212,1,0,0:0:0:0:
256,192,78370,1,8,0:0:0:0:
256,192,78528,1,0,0:0:0:0:
256,192,78607,1,0,0:0:0:0:
256,192,78686,1,8,0:0:0:0:
256,192,78844,1,0,0:0:0:0:
256,192,78923,1,0,0:0:0:0:
256,192,79002,1,0,0:0:0:0:
256,192,79081,1,0,0:0:0:0:
256,192,79159,1,8,0:0:0:0:
256,192,79317,1,0,0:0:0:0:
256,192,79396,1,0,0:0:0:0:
256,192,79475,1,8,0:0:0:0:
256,192,79633,1,0,0:0:0:0:
256,192,79791,1,0,0:0:0:0:
256,192,79870,1,0,0:0:0:0:
256,192,79949,1,0,0:0:0:0:
256,192,80107,1,8,0:0:0:0:
256,192,80265,1,8,0:0:0:0:
256,192,80344,1,8,0:0:0:0:
256,192,80423,1,0,0:0:0:0:
256,192,80581,1,8,0:0:0:0:
256,192,80738,1,0,0:0:0:0:
256,192,80817,1,0,0:0:0:0:
256,192,80896,1,0,0:0:0:0:
256,192,81054,1,8,0:0:0:0:
256,192,81133,1,8,0:0:0:0:
256,192,81212,1,8,0:0:0:0:
256,192,81291,1,8,0:0:0:0:
256,192,81370,1,0,0:0:0:0:
256,192,81528,1,8,0:0:0:0:
256,192,81686,1,0,0:0:0:0:
256,192,81765,1,0,0:0:0:0:
256,192,81844,1,8,0:0:0:0:
256,192,81923,1,8,0:0:0:0:
256,192,82002,1,0,0:0:0:0:
256,192,82159,1,0,0:0:0:0:
256,192,82317,1,8,0:0:0:0:
256,192,82475,1,0,0:0:0:0:
256,192,82554,1,0,0:0:0:0:
256,192,82633,1,8,0:0:0:0:
256,192,82791,1,0,0:0:0:0:
256,192,82870,1,0,0:0:0:0:
256,192,82949,1,0,0:0:0:0:
256,192,83107,1,0,0:0:0:0:
256,192,83265,1,8,0:0:0:0:
256,192,83423,1,0,0:0:0:0:
256,192,83502,1,0,0:0:0:0:
256,192,83581,1,8,0:0:0:0:
256,192,83738,1,0,0:0:0:0:
256,192,83896,1,4,0:0:0:0:
256,192,84054,1,8,0:0:0:0:
256,192,84212,1,0,0:0:0:0:
256,192,84291,1,0,0:0:0:0:
256,192,84370,1,8,0:0:0:0:
256,192,84528,1,0,0:0:0:0:
256,192,84607,1,0,0:0:0:0:
256,192,84686,1,0,0:0:0:0:
256,192,84765,1,0,0:0:0:0:
256,192,84844,1,8,0:0:0:0:
256,192,85002,1,0,0:0:0:0:
256,192,85081,1,0,0:0:0:0:
256,192,85159,1,8,0:0:0:0:
256,192,85317,1,0,0:0:0:0:
256,192,85475,1,8,0:0:0:0:
256,192,85554,1,8,0:0:0:0:
256,192,85633,1,8,0:0:0:0:
256,192,85791,1,0,0:0:0:0:
256,192,85949,1,8,0:0:0:0:
256,192,86107,1,0,0:0:0:0:
256,192,86186,1,0,0:0:0:0:
256,192,86265,1,8,0:0:0:0:
256,192,86423,1,0,0:0:0:0:
256,192,86502,1,0,0:0:0:0:
256,192,86581,1,0,0:0:0:0:
256,192,86659,1,0,0:0:0:0:
256,192,86738,1,8,0:0:0:0:
256,192,86896,1,0,0:0:0:0:
256,192,86975,1,0,0:0:0:0:
256,192,87054,1,8,0:0:0:0:
256,192,87212,1,0,0:0:0:0:
256,192,87370,1,8,0:0:0:0:
256,192,87449,1,8,0:0:0:0:
256,192,87528,1,0,0:0:0:0:
256,192,87686,1,12,0:0:0:0:
256,192,88002,1,0,0:0:0:0:
256,192,88159,1,8,0:0:0:0:
256,192,88238,1,8,0:0:0:0:
256,192,88317,1,0,0:0:0:0:
256,192,88475,1,8,0:0:0:0:
256,192,88633,1,4,0:0:0:0:
256,192,88949,1,0,0:0:0:0:
256,192,89107,1,8,0:0:0:0:
256,192,89186,1,8,0:0:0:0:
256,192,89265,1,0,0:0:0:0:
256,192,89423,1,8,0:0:0:0:
256,192,89581,2,0,L|344:192,9,70
256,192,91159,1,8,0:0:0:0:
256,192,91212,1,8,0:0:0:0:
256,192,91265,1,8,0:0:0:0:
256,192,91317,1,8,0:0:0:0:
256,192,91370,1,8,0:0:0:0:
256,192,91423,1,8,0:0:0:0:
256,192,91475,1,0,0:0:0:0:
256,192,93054,1,0,0:0:0:0:
256,192,93212,1,0,0:0:0:0:
256,192,93370,1,0,0:0:0:0:
256,192,94317,1,0,0:0:0:0:
256,192,94949,1,0,0:0:0:0:
256,192,95107,1,0,0:0:0:0:
256,192,95265,1,8,0:0:0:0:
256,192,95738,1,0,0:0:0:0:
256,192,95896,1,0,0:0:0:0:
256,192,96212,1,8,0:0:0:0:
256,192,96686,1,0,0:0:0:0:
256,192,96844,1,0,0:0:0:0:
256,192,97159,1,8,0:0:0:0:
256,192,97633,1,0,0:0:0:0:
256,192,97791,1,0,0:0:0:0:
256,192,98107,1,8,0:0:0:0:
256,192,98423,1,0,0:0:0:0:
256,192,98738,1,8,0:0:0:0:
256,192,98896,1,8,0:0:0:0:
256,192,99054,1,0,0:0:0:0:
256,192,99133,1,8,0:0:0:0:
256,192,99212,1,0,0:0:0:0:
256,192,99291,1,0,0:0:0:0:
256,192,99370,1,8,0:0:0:0:
256,192,99449,1,0,0:0:0:0:
256,192,99528,1,8,0:0:0:0:
256,192,99607,1,8,0:0:0:0:
256,192,99686,1,0,0:0:0:0:
256,192,99765,1,8,0:0:0:0:
256,192,99844,1,0,0:0:0:0:
256,192,99923,1,0,0:0:0:0:
256,192,100002,1,8,0:0:0:0:
256,192,100159,1,0,0:0:0:0:
256,192,100317,1,8,0:0:0:0:
256,192,100633,1,0,0:0:0:0:
256,192,100791,1,0,0:0:0:0:
256,192,100949,1,8,0:0:0:0:
256,192,101028,1,0,0:0:0:0:
256,192,101107,1,8,0:0:0:0:
256,192,101186,1,8,0:0:0:0:
256,192,101265,1,0,0:0:0:0:
256,192,101344,1,8,0:0:0:0:
256,192,101423,1,0,0:0:0:0:
256,192,101502,1,0,0:0:0:0:
256,192,101581,1,8,0:0:0:0:
256,192,101659,1,0,0:0:0:0:
256,192,101738,1,8,0:0:0:0:
256,192,101817,1,8,0:0:0:0:
256,192,101896,1,0,0:0:0:0:
256,192,102054,1,8,0:0:0:0:
256,192,102212,1,0,0:0:0:0:
256,192,102528,1,0,0:0:0:0:
256,192,102607,1,0,0:0:0:0:
256,192,102686,1,8,0:0:0:0:
256,192,102765,1,0,0:0:0:0:
256,192,102844,1,8,0:0:0:0:
256,192,103159,1,0,0:0:0:0:
256,192,103475,1,0,0:0:0:0:
256,192,103791,1,12,0:0:0:0:
256,192,104107,1,0,0:0:0:0:
256,192,104423,1,8,0:0:0:0:
256,192,104738,1,4,0:0:0:0:
256,192,105054,1,0,0:0:0:0:
256,192,105370,1,0,0:0:0:0:
256,192,105686,1,12,0:0:0:0:
256,192,106002,1,8,0:0:0:0:
256,192,106317,1,8,0:0:0:0:
256,192,106475,1,0,0:0:0:0:
256,192,106633,1,12,0:0:0:0:
256,192,106791,1,0,0:0:0:0:
256,192,106870,1,0,0:0:0:0:
256,192,106949,1,8,0:0:0:0:
256,192,107107,1,8,0:0:0:0:
256,192,107186,1,8,0:0:0:0:
256,192,107265,1,0,0:0:0:0:
256,192,107423,1,0,0:0:0:0:
256,192,107581,1,12,0:0:0:0:
256,192,107738,1,8,0:0:0:0:
256,192,107817,1,8,0:0:0:0:
256,192,107896,1,0,0:0:0:0:
256,192,108054,1,8,0:0:0:0:
256,192,108133,1,8,0:0:0:0:
256,192,108212,1,0,0:0:0:0:
256,192,108370,1,0,0:0:0:0:
256,192,108528,1,12,0:0:0:0:
256,192,108686,1,0,0:0:0:0:
256,192,108765,1,0,0:0:0:0:
256,192,108844,1,8,0:0:0:0:
256,192,109002,1,0,0:0:0:0:
256,192,109081,1,0,0:0:0:0:
256,192,109160,1,8,0:0:0:0:
256,192,109317,1,8,0:0:0:0:
256,192,109475,1,4,0:0:0:0:
256,192,109633,1,8,0:0:0:0:
256,192,109712,1,8,0:0:0:0:
256,192,109791,1,0,0:0:0:0:
256,192,109949,1,8,0:0:0:0:
256,192,110028,1,8,0:0:0:0:
256,192,110107,1,0,0:0:0:0:
256,192,110265,1,0,0:0:0:0:
256,192,110423,1,8,0:0:0:0:
256,192,110502,1,8,0:0:0:0:
256,192,110581,1,8,0:0:0:0:
256,192,110659,1,8,0:0:0:0:
256,192,110738,1,8,0:0:0:0:
256,192,110817,1,8,0:0:0:0:
256,192,110896,1,8,0:0:0:0:
256,192,110975,1,8,0:0:0:0:
256,192,111054,1,8,0:0:0:0:
256,192,111133,1,8,0:0:0:0:
256,192,111212,1,8,0:0:0:0:
256,192,111291,1,8,0:0:0:0:
256,192,111370,1,4,0:0:0:0:
256,192,112002,1,8,0:0:0:0:
256,192,112317,1,4,0:0:0:0:
256,192,112475,1,0,0:0:0:0:
256,192,112554,1,0,0:0:0:0:
256,192,112633,1,0,0:0:0:0:
256,192,112791,1,8,0:0:0:0:
256,192,112870,1,8,0:0:0:0:
256,192,112949,1,0,0:0:0:0:
256,192,113107,1,0,0:0:0:0:
256,192,113265,1,8,0:0:0:0:
256,192,113422,1,0,0:0:0:0:
256,192,113501,1,0,0:0:0:0:
256,192,113580,1,8,0:0:0:0:
256,192,113738,1,8,0:0:0:0:
256,192,113817,1,8,0:0:0:0:
256,192,113896,1,0,0:0:0:0:
256,192,113975,1,0,0:0:0:0:
256,192,114054,1,8,0:0:0:0:
256,192,114133,1,0,0:0:0:0:
256,192,114212,1,8,0:0:0:0:
256,192,114370,1,0,0:0:0:0:
256,192,114449,1,0,0:0:0:0:
256,192,114528,1,0,0:0:0:0:
256,192,114686,1,8,0:0:0:0:
256,192,114765,1,0,0:0:0:0:
256,192,114844,1,8,0:0:0:0:
256,192,115001,1,0,0:0:0:0:
256,192,115159,1,8,0:0:0:0:
256,192,115317,1,0,0:0:0:0:
256,192,115396,1,0,0:0:0:0:
256,192,115475,1,8,0:0:0:0:
256,192,115633,1,8,0:0:0:0:
256,192,115712,1,8,0:0:0:0:
256,192,115791,1,0,0:0:0:0:
256,192,115870,1,0,0:0:0:0:
256,192,115949,1,8,0:0:0:0:
256,192,116028,1,0,0:0:0:0:
256,192,116107,1,8,0:0:0:0:
256,192,116265,1,0,0:0:0:0:
256,192,116344,1,0,0:0:0:0:
256,192,116423,1,8,0:0:0:0:
256,192,116581,1,0,0:0:0:0:
256,192,116659,1,0,0:0:0:0:
256,192,116738,1,8,0:0:0:0:
256,192,116817,1,0,0:0:0:0:
256,192,116896,1,8,0:0:0:0:
256,192,116975,1,8,0:0:0:0:
256,192,117054,1,0,0:0:0:0:
256,192,117212,1,8,0:0:0:0:
256,192,117291,1,8,0:0:0:0:
256,192,117370,1,0,0:0:0:0:
256,192,117528,1,0,0:0:0:0:
256,192,117686,1,8,0:0:0:0:
256,192,117765,1,0,0:0:0:0:
256,192,117844,1,8,0:0:0:0:
256,192,117923,1,8,0:0:0:0:
256,192,118002,1,0,0:0:0:0:
256,192,118159,1,8,0:0:0:0:
256,192,118238,1,8,0:0:0:0:
256,192,118317,1,0,0:0:0:0:
256,192,118475,1,0,0:0:0:0:
256,192,118633,1,8,0:0:0:0:
256,192,118949,1,12,0:0:0:0:
256,192,119265,1,12,0:0:0:0:
256,192,119581,1,4,0:0:0:0:
256,192,119896,1,4,0:0:0:0:
256,192,120054,1,8,0:0:0:0:
256,192,120133,1,8,0:0:0:0:
256,192,120212,1,0,0:0:0:0:
256,192,120291,1,0,0:0:0:0:
256,192,120370,1,8,0:0:0:0:
256,192,120449,1,8,0:0:0:0:
256,192,120528,1,0,0:0:0:0:
256,192,120686,1,0,0:0:0:0:
256,192,120844,1,12,0:0:0:0:
256,192,121002,1,8,0:0:0:0:
256,192,121081,1,8,0:0:0:0:
256,192,121159,1,0,0:0:0:0:
256,192,121238,1,8,0:0:0:0:
256,192,121317,1,0,0:0:0:0:
256,192,121396,1,0,0:0:0:0:
256,192,121475,1,8,0:0:0:0:
256,192,121633,1,0,0:0:0:0:
256,192,121791,1,8,0:0:0:0:
256,192,121870,1,0,0:0:0:0:
256,192,121949,1,8,0:0:0:0:
256,192,122028,1,8,0:0:0:0:
256,192,122107,1,0,0:0:0:0:
256,192,122265,1,0,0:0:0:0:
256,192,122344,1,8,0:0:0:0:
256,192,122423,1,0,0:0:0:0:
256,192,122581,1,0,0:0:0:0:
256,192,122738,1,12,0:0:0:0:
256,192,123054,1,4,0:0:0:0:
256,192,123370,1,0,0:0:0:0:
256,192,123528,1,0,0:0:0:0:
256,192,123686,1,8,0:0:0:0:
256,192,123844,1,0,0:0:0:0:
256,192,123923,1,0,0:0:0:0:
256,192,124002,1,8,0:0:0:0:
256,192,124081,1,0,0:0:0:0:
256,192,124159,1,8,0:0:0:0:
256,192,124238,1,8,0:0:0:0:
256,192,124317,1,0,0:0:0:0:
256,192,124475,1,8,0:0:0:0:
256,192,124633,1,0,0:0:0:0:
256,192,124791,1,8,0:0:0:0:
256,192,124870,1,8,0:0:0:0:
256,192,124949,1,0,0:0:0:0:
256,192,125028,1,8,0:0:0:0:
256,192,125107,1,0,0:0:0:0:
256,192,125186,1,0,0:0:0:0:
256,192,125265,1,8,0:0:0:0:
256,192,125423,1,0,0:0:0:0:
256,192,125581,1,12,0:0:0:0:
256,192,125738,1,0,0:0:0:0:
256,192,125817,1,0,0:0:0:0:
256,192,125896,1,8,0:0:0:0:
256,192,126212,1,4,0:0:0:0:
256,192,126370,1,8,0:0:0:0:
256,192,126449,1,8,0:0:0:0:
256,192,126528,1,0,0:0:0:0:
256,192,126686,1,8,0:0:0:0:
256,192,126844,1,4,0:0:0:0:
256,192,127159,1,12,0:0:0:0:
256,192,127475,2,4,L|336:192,9,77.0000023498536
256,192,129054,1,8,0:0:0:0:
256,192,129212,1,8,0:0:0:0:
256,192,129370,12,0,131265,0:0:0:0:
256,192,131896,5,0,0:0:0:0:
256,192,132054,1,0,0:0:0:0:
256,192,132212,1,8,0:0:0:0:
256,192,132541,1,8,0:0:0:0:
256,192,132706,1,0,0:0:0:0:
256,192,132871,1,8,0:0:0:0:
256,192,133203,1,0,0:0:0:0:
256,192,133562,1,0,0:0:0:0:
256,192,133921,1,8,0:0:0:0:
256,192,134288,1,0,0:0:0:0:
256,192,134682,1,0,0:0:0:0:
256,192,135077,1,0,0:0:0:0:
256,192,135495,1,8,0:0:0:0:
256,192,135932,1,0,0:0:0:0:
256,192,136387,1,8,0:0:0:0:
256,192,136609,1,8,0:0:0:0:
256,192,136864,1,0,0:0:0:0:
256,192,137000,1,0,0:0:0:0:
256,192,137068,1,0,0:0:0:0:
256,192,137136,1,8,0:0:0:0:
