osu file format v14

[General]
AudioFilename: audio.mp3
AudioLeadIn: 0
PreviewTime: -1
Countdown: 1
SampleSet: Normal
StackLeniency: 0.7
Mode: 1
LetterboxInBreaks: 0
WidescreenStoryboard: 1

[Editor]
DistanceSpacing: 0.6
BeatDivisor: 4
GridSize: 32
TimelineZoom: 2

[Metadata]
Title:Tyouseisyounen no tame no Tyoutasai na Tyoukotennteki Tyoubukyoku
TitleUnicode:超青少年ノ為ノ超多幸ナ超古典的超舞曲
Artist:Project B-
ArtistUnicode:Project B-
Creator:Lno
Version:Ura Oni
Source:
Tags:
BeatmapID:1701242
BeatmapSetID:810930

[Difficulty]
HPDrainRate:6
CircleSize:5
OverallDifficulty:7
ApproachRate:5
SliderMultiplier:1.4
SliderTickRate:1

[Events]
//Background and Video events
0,0,"bg.jpg",0,0
//Break Periods
//Storyboard Layer 0 (Background)
//Storyboard Layer 1 (Fail)
//Storyboard Layer 2 (Pass)
//Storyboard Layer 3 (Foreground)
//Storyboard Sound Samples

[TimingPoints]
625,400,4,1,0,70,1,0
625,-111.111111111111,4,1,0,70,0,0
13425,-111.111111111111,4,1,0,60,0,0
25325,-100,4,1,0,60,0,0
25625,-90.9090909090909,4,1,0,60,0,0
25925,-83.3333333333333,4,1,0,60,0,0
26225,-76.9230769230769,4,1,0,70,0,0
26425,-111.111111111111,4,1,0,70,0,0
51025,-100,4,1,0,70,0,0
51225,-90.9090909090909,4,1,0,70,0,0
51425,-83.3333333333333,4,1,0,70,0,0
51825,-111.111111111111,4,1,0,80,0,1
63225,-100,4,1,0,80,0,1
63525,-90.9090909090909,4,1,0,80,0,1
63825,-83.3333333333333,4,1,0,80,0,1
64125,-76.9230769230769,4,1,0,80,0,1
64425,-71.4285714285714,4,1,0,80,0,1
64625,-111.111111111111,4,1,0,80,0,1
76025,-100,4,1,0,80,0,1
76325,-90.9090909090909,4,1,0,80,0,1
76625,-83.3333333333333,4,1,0,80,0,1
76925,-76.9230769230769,4,1,0,80,0,1
77225,-71.4285714285714,4,1,0,80,0,1
77525,-66.6666666666667,4,1,0,80,0,1
77825,-62.5,4,1,0,80,0,1
78125,-58.8235294117647,4,1,0,80,0,1
78425,-55.5555555555556,4,1,0,80,0,1
78625,-52.6315789473684,4,1,0,80,0,1
79025,-111.111111111111,4,1,0,50,0,0
85425,-111.111111111111,4,1,0,60,0,0
93425,-111.111111111111,4,1,0,70,0,0
105425,-100,4,1,0,70,0,0
105625,-90.9090909090909,4,1,0,70,0,0
105825,-83.3333333333333,4,1,0,70,0,0
106225,-105.263157894737,4,1,0,80,0,1
118225,-95.2380952380952,4,1,0,80,0,1
118425,-86.9565217391304,4,1,0,80,0,1
118625,-80,4,1,0,80,0,0

[HitObjects]
288,224,625,5,8,0:0:0:0:
224,224,825,1,0,0:0:0:0:
224,224,1025,1,0,0:0:0:0:
224,224,1225,1,0,0:0:0:0:
288,224,1425,1,8,0:0:0:0:
288,224,1625,1,8,0:0:0:0:
224,224,1825,1,0,0:0:0:0:
224,224,2025,1,0,0:0:0:0:
288,224,2225,1,8,0:0:0:0:
224,224,2425,1,0,0:0:0:0:
288,224,2625,1,8,0:0:0:0:
224,224,2825,1,0,0:0:0:0:
288,224,3025,1,8,0:0:0:0:
224,224,3225,1,0,0:0:0:0:
224,224,3425,1,0,0:0:0:0:
224,224,3525,1,0,0:0:0:0:
288,224,3625,1,8,0:0:0:0:
288,224,3725,1,8,0:0:0:0:
224,224,3825,1,0,0:0:0:0:
224,224,4025,1,0,0:0:0:0:
288,224,4225,1,8,0:0:0:0:
224,224,4425,1,0,0:0:0:0:
288,224,4625,1,8,0:0:0:0:
288,224,4825,1,8,0:0:0:0:
224,224,5025,1,0,0:0:0:0:
224,224,5225,1,0,0:0:0:0:
288,224,5425,1,8,0:0:0:0:
224,224,5525,1,0,0:0:0:0:
224,224,5625,1,0,0:0:0:0:
224,224,5725,1,0,0:0:0:0:
288,224,5825,1,8,0:0:0:0:
224,224,5925,1,0,0:0:0:0:
224,224,6025,1,0,0:0:0:0:
224,224,6125,1,0,0:0:0:0:
288,224,6225,1,8,0:0:0:0:
224,224,6325,1,0,0:0:0:0:
224,224,6425,1,0,0:0:0:0:
224,224,6525,1,0,0:0:0:0:
288,224,6625,1,8,0:0:0:0:
224,224,6725,1,0,0:0:0:0:
224,224,6825,1,0,0:0:0:0:
224,224,6925,1,0,0:0:0:0:
288,160,7025,1,12,0:0:0:0:
288,224,7225,1,8,0:0:0:0:
224,224,7425,1,0,0:0:0:0:
224,224,7625,1,0,0:0:0:0:
288,224,7825,1,8,0:0:0:0:
288,224,8025,1,8,0:0:0:0:
224,224,8225,1,0,0:0:0:0:
224,224,8425,1,0,0:0:0:0:
288,224,8625,1,8,0:0:0:0:
224,224,8825,1,0,0:0:0:0:
288,224,9025,1,8,0:0:0:0:
224,224,9225,1,0,0:0:0:0:
288,224,9425,1,8,0:0:0:0:
224,224,9625,1,0,0:0:0:0:
224,224,9725,1,0,0:0:0:0:
288,224,9825,1,8,0:0:0:0:
288,224,9925,1,8,0:0:0:0:
288,224,10025,1,8,0:0:0:0:
224,224,10125,1,0,0:0:0:0:
288,224,10225,1,8,0:0:0:0:
288,224,10425,1,8,0:0:0:0:
224,224,10625,1,0,0:0:0:0:
224,224,10825,1,0,0:0:0:0:
288,224,11025,1,8,0:0:0:0:
224,224,11225,1,0,0:0:0:0:
288,224,11425,1,8,0:0:0:0:
224,224,11625,1,0,0:0:0:0:
288,224,11825,1,8,0:0:0:0:
224,224,11925,1,0,0:0:0:0:
224,224,12025,1,0,0:0:0:0:
224,224,12125,1,0,0:0:0:0:
288,224,12225,1,8,0:0:0:0:
224,224,12325,1,0,0:0:0:0:
288,224,12425,1,8,0:0:0:0:
224,224,12525,1,0,0:0:0:0:
288,224,12625,1,8,0:0:0:0:
288,224,12725,1,8,0:0:0:0:
224,224,12825,1,0,0:0:0:0:
224,224,12925,1,0,0:0:0:0:
288,160,13025,1,12,0:0:0:0:
288,224,13425,1,8,0:0:0:0:
224,224,13525,1,0,0:0:0:0:
224,224,13625,1,0,0:0:0:0:
288,224,13725,1,8,0:0:0:0:
224,224,13825,1,0,0:0:0:0:
288,224,13925,1,8,0:0:0:0:
288,224,14025,1,8,0:0:0:0:
224,224,14125,1,0,0:0:0:0:
288,224,14225,1,8,0:0:0:0:
288,224,14325,1,8,0:0:0:0:
288,224,14425,1,8,0:0:0:0:
224,224,14525,1,0,0:0:0:0:
288,224,14625,1,8,0:0:0:0:
288,224,14725,1,8,0:0:0:0:
224,224,14825,1,0,0:0:0:0:
224,224,14925,1,0,0:0:0:0:
288,224,15025,1,8,0:0:0:0:
224,224,15125,1,0,0:0:0:0:
224,224,15225,1,0,0:0:0:0:
288,224,15325,1,8,0:0:0:0:
224,224,15425,1,0,0:0:0:0:
288,224,15525,1,8,0:0:0:0:
288,224,15625,1,8,0:0:0:0:
224,224,15725,1,0,0:0:0:0:
288,224,15825,1,8,0:0:0:0:
288,224,15925,1,8,0:0:0:0:
224,224,16025,1,0,0:0:0:0:
224,224,16125,1,0,0:0:0:0:
288,224,16225,1,8,0:0:0:0:
288,224,16325,1,8,0:0:0:0:
224,224,16425,1,0,0:0:0:0:
224,224,16525,1,0,0:0:0:0:
288,224,16625,1,8,0:0:0:0:
224,224,16725,1,0,0:0:0:0:
224,224,16825,1,0,0:0:0:0:
288,224,16925,1,8,0:0:0:0:
224,224,17025,1,0,0:0:0:0:
288,224,17125,1,8,0:0:0:0:
288,224,17225,1,8,0:0:0:0:
288,224,17325,1,8,0:0:0:0:
224,224,17425,1,0,0:0:0:0:
288,224,17525,1,8,0:0:0:0:
224,224,17625,1,0,0:0:0:0:
224,224,17725,1,0,0:0:0:0:
288,224,17825,1,8,0:0:0:0:
288,224,17925,1,8,0:0:0:0:
288,224,18025,1,8,0:0:0:0:
224,224,18125,1,0,0:0:0:0:
288,224,18225,1,8,0:0:0:0:
224,224,18325,1,0,0:0:0:0:
224,224,18425,1,0,0:0:0:0:
288,224,18525,1,8,0:0:0:0:
288,224,18625,1,8,0:0:0:0:
224,224,18725,1,0,0:0:0:0:
224,224,18825,1,0,0:0:0:0:
288,224,18925,1,8,0:0:0:0:
224,224,19025,1,0,0:0:0:0:
224,224,19125,1,0,0:0:0:0:
288,224,19225,1,8,0:0:0:0:
224,224,19325,1,0,0:0:0:0:
224,224,19425,1,0,0:0:0:0:
288,224,19525,1,8,0:0:0:0:
288,224,19625,1,8,0:0:0:0:
224,224,19725,1,0,0:0:0:0:
288,160,19825,1,12,0:0:0:0:
224,224,19925,1,0,0:0:0:0:
224,224,20025,1,0,0:0:0:0:
288,224,20125,1,8,0:0:0:0:
224,224,20225,1,0,0:0:0:0:
288,224,20325,1,8,0:0:0:0:
288,224,20425,1,8,0:0:0:0:
224,224,20525,1,0,0:0:0:0:
288,224,20625,1,8,0:0:0:0:
288,224,20725,1,8,0:0:0:0:
288,224,20825,1,8,0:0:0:0:
224,224,20925,1,0,0:0:0:0:
288,224,21025,1,8,0:0:0:0:
288,224,21125,1,8,0:0:0:0:
288,224,21225,1,8,0:0:0:0:
224,224,21325,1,0,0:0:0:0:
288,224,21425,1,8,0:0:0:0:
224,224,21525,1,0,0:0:0:0:
224,224,21625,1,0,0:0:0:0:
288,224,21725,1,8,0:0:0:0:
224,224,21825,1,0,0:0:0:0:
288,224,21925,1,8,0:0:0:0:
288,224,22025,1,8,0:0:0:0:
224,224,22125,1,0,0:0:0:0:
288,224,22225,1,8,0:0:0:0:
288,224,22325,1,8,0:0:0:0:
224,224,22425,1,0,0:0:0:0:
224,224,22525,1,0,0:0:0:0:
288,224,22625,1,8,0:0:0:0:
288,224,22725,1,8,0:0:0:0:
224,224,22825,1,0,0:0:0:0:
224,224,22925,1,0,0:0:0:0:
288,224,23025,1,8,0:0:0:0:
224,224,23125,1,0,0:0:0:0:
224,224,23225,1,0,0:0:0:0:
288,224,23325,1,8,0:0:0:0:
224,224,23425,1,0,0:0:0:0:
288,224,23525,1,8,0:0:0:0:
288,224,23625,1,8,0:0:0:0:
224,224,23725,1,0,0:0:0:0:
288,224,23825,1,8,0:0:0:0:
288,224,23925,1,8,0:0:0:0:
288,224,24025,1,8,0:0:0:0:
224,224,24125,1,0,0:0:0:0:
288,224,24225,1,8,0:0:0:0:
288,224,24325,1,8,0:0:0:0:
288,224,24425,1,8,0:0:0:0:
224,224,24525,1,0,0:0:0:0:
288,224,24625,1,8,0:0:0:0:
224,224,24725,1,0,0:0:0:0:
224,224,24825,1,0,0:0:0:0:
224,224,24925,1,0,0:0:0:0:
288,160,25025,1,12,0:0:0:0:
288,224,25325,1,12,0:0:0:0:
224,224,25625,1,4,0:0:0:0:
288,224,25925,1,12,0:0:0:0:
224,224,26225,1,4,0:0:0:0:
224,224,26425,1,0,0:0:0:0:
224,224,26525,1,0,0:0:0:0:
288,224,26625,1,8,0:0:0:0:
224,224,26725,1,0,0:0:0:0:
224,224,26825,1,0,0:0:0:0:
224,224,26925,1,0,0:0:0:0:
288,224,27025,1,8,0:0:0:0:
288,224,27125,1,8,0:0:0:0:
224,224,27225,1,0,0:0:0:0:
224,224,27325,1,0,0:0:0:0:
288,224,27425,1,8,0:0:0:0:
288,224,27525,1,8,0:0:0:0:
288,224,27625,1,8,0:0:0:0:
224,224,27725,1,0,0:0:0:0:
288,224,27825,1,8,0:0:0:0:
288,224,27925,1,8,0:0:0:0:
288,224,28025,1,8,0:0:0:0:
224,224,28125,1,0,0:0:0:0:
288,224,28225,1,8,0:0:0:0:
288,224,28325,1,8,0:0:0:0:
288,224,28425,1,8,0:0:0:0:
224,224,28525,1,0,0:0:0:0:
288,224,28625,1,8,0:0:0:0:
288,224,28725,1,8,0:0:0:0:
288,224,28825,1,8,0:0:0:0:
224,224,28925,1,0,0:0:0:0:
288,224,29025,1,8,0:0:0:0:
288,224,29125,1,8,0:0:0:0:
224,224,29225,1,0,0:0:0:0:
224,224,29325,1,0,0:0:0:0:
288,224,29425,1,8,0:0:0:0:
224,224,29625,1,0,0:0:0:0:
224,224,29725,1,0,0:0:0:0:
288,224,29825,1,8,0:0:0:0:
224,224,29925,1,0,0:0:0:0:
224,224,30025,1,0,0:0:0:0:
288,224,30125,1,8,0:0:0:0:
288,224,30225,1,8,0:0:0:0:
224,224,30325,1,0,0:0:0:0:
224,224,30425,1,0,0:0:0:0:
288,224,30525,1,8,0:0:0:0:
288,224,30625,1,8,0:0:0:0:
288,224,30725,1,8,0:0:0:0:
224,224,30825,1,0,0:0:0:0:
224,224,30925,1,0,0:0:0:0:
288,224,31025,1,8,0:0:0:0:
224,224,31125,1,0,0:0:0:0:
288,224,31225,1,8,0:0:0:0:
224,224,31325,1,0,0:0:0:0:
288,224,31425,1,8,0:0:0:0:
224,224,31525,1,0,0:0:0:0:
224,224,31625,1,0,0:0:0:0:
288,224,31725,1,8,0:0:0:0:
288,224,31825,1,8,0:0:0:0:
224,224,31925,1,0,0:0:0:0:
288,224,32025,1,8,0:0:0:0:
288,224,32125,1,8,0:0:0:0:
224,224,32225,1,0,0:0:0:0:
288,224,32325,1,8,0:0:0:0:
224,224,32425,1,0,0:0:0:0:
224,224,32525,1,0,0:0:0:0:
288,224,32625,1,8,0:0:0:0:
224,224,32825,1,0,0:0:0:0:
224,224,32925,1,0,0:0:0:0:
288,224,33025,1,8,0:0:0:0:
224,224,33125,1,0,0:0:0:0:
288,224,33225,1,8,0:0:0:0:
224,224,33325,1,0,0:0:0:0:
288,224,33425,1,8,0:0:0:0:
288,224,33525,1,8,0:0:0:0:
224,224,33625,1,0,0:0:0:0:
224,224,33725,1,0,0:0:0:0:
288,224,33825,1,8,0:0:0:0:
288,224,33925,1,8,0:0:0:0:
288,224,34025,1,8,0:0:0:0:
224,224,34125,1,0,0:0:0:0:
288,224,34225,1,8,0:0:0:0:
288,224,34325,1,8,0:0:0:0:
288,224,34425,1,8,0:0:0:0:
224,224,34525,1,0,0:0:0:0:
288,224,34625,1,8,0:0:0:0:
288,224,34725,1,8,0:0:0:0:
224,224,34825,1,0,0:0:0:0:
288,224,34925,1,8,0:0:0:0:
288,224,35025,1,8,0:0:0:0:
288,224,35125,1,8,0:0:0:0:
288,224,35225,1,8,0:0:0:0:
224,224,35325,1,0,0:0:0:0:
288,224,35425,1,8,0:0:0:0:
288,224,35525,1,8,0:0:0:0:
224,224,35625,1,0,0:0:0:0:
288,224,35725,1,8,0:0:0:0:
224,224,35825,1,0,0:0:0:0:
224,224,35925,1,0,0:0:0:0:
288,224,36025,1,8,0:0:0:0:
224,224,36125,1,0,0:0:0:0:
288,224,36225,1,8,0:0:0:0:
288,224,36325,1,8,0:0:0:0:
224,224,36425,1,0,0:0:0:0:
224,224,36525,1,0,0:0:0:0:
288,224,36625,1,8,0:0:0:0:
224,224,36725,1,0,0:0:0:0:
288,224,36825,1,8,0:0:0:0:
224,224,36925,1,0,0:0:0:0:
288,224,37025,1,8,0:0:0:0:
288,224,37125,1,8,0:0:0:0:
224,224,37225,1,0,0:0:0:0:
224,224,37325,1,0,0:0:0:0:
288,224,37425,1,8,0:0:0:0:
224,224,37525,1,0,0:0:0:0:
288,224,37625,1,8,0:0:0:0:
224,224,37725,1,0,0:0:0:0:
288,224,37825,1,8,0:0:0:0:
288,224,37925,1,8,0:0:0:0:
224,224,38025,1,0,0:0:0:0:
224,224,38125,1,0,0:0:0:0:
288,224,38225,1,8,0:0:0:0:
224,224,38325,1,0,0:0:0:0:
288,224,38425,1,8,0:0:0:0:
224,224,38525,1,0,0:0:0:0:
288,224,38625,1,8,0:0:0:0:
224,224,38725,1,0,0:0:0:0:
288,224,38825,1,8,0:0:0:0:
224,224,38925,1,0,0:0:0:0:
288,160,39025,1,12,0:0:0:0:
288,224,39225,1,8,0:0:0:0:
224,224,39325,1,0,0:0:0:0:
224,224,39425,1,0,0:0:0:0:
288,224,39525,1,8,0:0:0:0:
224,224,39625,1,0,0:0:0:0:
224,224,39725,1,0,0:0:0:0:
288,224,39825,1,8,0:0:0:0:
224,224,39925,1,0,0:0:0:0:
288,224,40025,1,8,0:0:0:0:
224,224,40125,1,0,0:0:0:0:
288,224,40225,1,8,0:0:0:0:
288,224,40325,1,8,0:0:0:0:
288,224,40425,1,8,0:0:0:0:
224,224,40525,1,0,0:0:0:0:
224,224,40625,1,0,0:0:0:0:
288,224,40725,1,8,0:0:0:0:
288,224,40825,1,8,0:0:0:0:
224,224,40925,1,0,0:0:0:0:
288,224,41025,1,8,0:0:0:0:
288,224,41125,1,8,0:0:0:0:
288,224,41225,1,8,0:0:0:0:
224,224,41325,1,0,0:0:0:0:
288,224,41425,1,8,0:0:0:0:
288,224,41525,1,8,0:0:0:0:
288,224,41625,1,8,0:0:0:0:
224,224,41725,1,0,0:0:0:0:
224,224,41825,1,0,0:0:0:0:
288,224,41925,1,8,0:0:0:0:
224,224,42025,1,0,0:0:0:0:
288,224,42125,1,8,0:0:0:0:
288,224,42225,1,8,0:0:0:0:
224,224,42425,1,0,0:0:0:0:
224,224,42525,1,0,0:0:0:0:
288,224,42625,1,8,0:0:0:0:
288,224,42725,1,8,0:0:0:0:
224,224,42825,1,0,0:0:0:0:
288,224,42925,1,8,0:0:0:0:
288,224,43025,1,8,0:0:0:0:
224,224,43125,1,0,0:0:0:0:
224,224,43225,1,0,0:0:0:0:
288,224,43325,1,8,0:0:0:0:
288,224,43425,1,8,0:0:0:0:
288,224,43525,1,8,0:0:0:0:
224,224,43625,1,0,0:0:0:0:
224,224,43725,1,0,0:0:0:0:
288,224,43825,1,8,0:0:0:0:
224,224,43925,1,0,0:0:0:0:
288,224,44025,1,8,0:0:0:0:
224,224,44125,1,0,0:0:0:0:
288,224,44225,1,8,0:0:0:0:
224,224,44325,1,0,0:0:0:0:
224,224,44425,1,0,0:0:0:0:
288,224,44525,1,8,0:0:0:0:
288,224,44625,1,8,0:0:0:0:
224,224,44725,1,0,0:0:0:0:
288,224,44825,1,8,0:0:0:0:
224,224,44925,1,0,0:0:0:0:
224,224,45025,1,0,0:0:0:0:
288,224,45125,1,8,0:0:0:0:
224,224,45225,1,0,0:0:0:0:
224,224,45325,1,0,0:0:0:0:
288,224,45425,1,8,0:0:0:0:
224,224,45625,1,0,0:0:0:0:
224,224,45725,1,0,0:0:0:0:
288,224,45825,1,8,0:0:0:0:
224,224,45925,1,0,0:0:0:0:
288,224,46025,1,8,0:0:0:0:
224,224,46125,1,0,0:0:0:0:
288,224,46225,1,8,0:0:0:0:
288,224,46325,1,8,0:0:0:0:
224,224,46425,1,0,0:0:0:0:
224,224,46525,1,0,0:0:0:0:
288,224,46625,1,8,0:0:0:0:
288,224,46725,1,8,0:0:0:0:
288,224,46825,1,8,0:0:0:0:
224,224,46925,1,0,0:0:0:0:
224,224,47025,1,0,0:0:0:0:
288,224,47125,1,8,0:0:0:0:
288,224,47225,1,8,0:0:0:0:
224,224,47325,1,0,0:0:0:0:
288,224,47425,1,8,0:0:0:0:
288,224,47525,1,8,0:0:0:0:
224,224,47625,1,0,0:0:0:0:
288,224,47725,1,8,0:0:0:0:
288,224,47825,1,8,0:0:0:0:
288,224,47925,1,8,0:0:0:0:
288,224,48025,1,8,0:0:0:0:
224,224,48125,1,0,0:0:0:0:
288,224,48225,1,8,0:0:0:0:
288,224,48325,1,8,0:0:0:0:
224,224,48425,1,0,0:0:0:0:
288,224,48525,1,8,0:0:0:0:
224,224,48625,1,0,0:0:0:0:
224,224,48825,1,0,0:0:0:0:
288,224,48925,1,8,0:0:0:0:
224,224,49025,1,0,0:0:0:0:
288,224,49225,1,8,0:0:0:0:
224,224,49325,1,0,0:0:0:0:
288,224,49425,1,8,0:0:0:0:
224,224,49625,1,0,0:0:0:0:
224,224,49725,1,0,0:0:0:0:
288,224,49825,1,8,0:0:0:0:
288,224,49925,1,8,0:0:0:0:
224,224,50025,1,0,0:0:0:0:
224,224,50091,1,0,0:0:0:0:
224,224,50158,1,0,0:0:0:0:
288,224,50225,1,8,0:0:0:0:
288,224,50325,1,8,0:0:0:0:
224,224,50425,1,0,0:0:0:0:
224,224,50491,1,0,0:0:0:0:
224,224,50558,1,0,0:0:0:0:
288,224,50625,1,8,0:0:0:0:
224,224,50725,1,0,0:0:0:0:
288,224,50825,1,8,0:0:0:0:
288,224,50925,1,8,0:0:0:0:
224,160,51025,1,4,0:0:0:0:
224,160,51225,1,4,0:0:0:0:
288,224,51425,1,12,0:0:0:0:
224,224,51825,1,0,0:0:0:0:
224,224,52025,1,0,0:0:0:0:
224,224,52125,1,0,0:0:0:0:
224,224,52225,1,0,0:0:0:0:
224,224,52425,1,0,0:0:0:0:
224,224,52525,1,0,0:0:0:0:
288,224,52625,1,8,0:0:0:0:
224,224,52825,1,0,0:0:0:0:
288,224,52925,1,8,0:0:0:0:
288,224,53025,1,8,0:0:0:0:
288,224,53225,1,8,0:0:0:0:
288,224,53325,1,8,0:0:0:0:
288,224,53425,1,8,0:0:0:0:
288,224,53625,1,8,0:0:0:0:
224,224,53725,1,0,0:0:0:0:
224,224,53825,1,0,0:0:0:0:
288,224,53925,1,8,0:0:0:0:
224,224,54025,1,0,0:0:0:0:
224,224,54125,1,0,0:0:0:0:
288,224,54225,1,8,0:0:0:0:
288,224,54325,1,8,0:0:0:0:
224,224,54425,1,0,0:0:0:0:
224,224,54525,1,0,0:0:0:0:
288,224,54625,1,8,0:0:0:0:
288,224,54725,1,8,0:0:0:0:
224,224,54825,1,0,0:0:0:0:
224,224,54925,1,0,0:0:0:0:
224,224,55225,1,0,0:0:0:0:
288,224,55325,1,8,0:0:0:0:
224,224,55425,1,0,0:0:0:0:
288,224,55625,1,8,0:0:0:0:
288,224,55725,1,8,0:0:0:0:
288,224,55825,1,8,0:0:0:0:
288,224,56025,1,8,0:0:0:0:
224,224,56125,1,0,0:0:0:0:
288,224,56225,1,8,0:0:0:0:
224,224,56425,1,0,0:0:0:0:
224,224,56525,1,0,0:0:0:0:
224,224,56625,1,0,0:0:0:0:
224,224,56825,1,0,0:0:0:0:
224,224,56925,1,0,0:0:0:0:
288,224,57025,1,8,0:0:0:0:
288,224,57125,1,8,0:0:0:0:
288,224,57225,1,8,0:0:0:0:
224,224,57325,1,0,0:0:0:0:
288,224,57425,1,8,0:0:0:0:
288,224,57525,1,8,0:0:0:0:
288,224,57625,1,8,0:0:0:0:
224,224,57725,1,0,0:0:0:0:
288,224,57825,1,8,0:0:0:0:
288,224,57925,1,8,0:0:0:0:
288,224,58025,1,8,0:0:0:0:
224,224,58125,1,0,0:0:0:0:
288,160,58225,1,12,0:0:0:0:
224,224,58425,1,0,0:0:0:0:
224,224,58525,1,0,0:0:0:0:
288,224,58625,1,8,0:0:0:0:
288,224,58825,1,8,0:0:0:0:
224,224,58925,1,0,0:0:0:0:
288,224,59025,1,8,0:0:0:0:
224,224,59225,1,0,0:0:0:0:
224,224,59325,1,0,0:0:0:0:
288,224,59425,1,8,0:0:0:0:
224,224,59625,1,0,0:0:0:0:
288,224,59725,1,8,0:0:0:0:
224,224,59825,1,0,0:0:0:0:
288,224,60025,1,8,0:0:0:0:
224,224,60125,1,0,0:0:0:0:
288,224,60225,1,8,0:0:0:0:
288,224,60325,1,8,0:0:0:0:
288,224,60425,1,8,0:0:0:0:
224,224,60525,1,0,0:0:0:0:
288,224,60625,1,8,0:0:0:0:
288,224,60725,1,8,0:0:0:0:
288,224,60825,1,8,0:0:0:0:
224,224,60925,1,0,0:0:0:0:
288,224,61025,1,8,0:0:0:0:
288,224,61125,1,8,0:0:0:0:
288,224,61225,1,8,0:0:0:0:
288,224,61325,1,8,0:0:0:0:
224,224,61425,1,0,0:0:0:0:
224,224,61525,1,0,0:0:0:0:
288,224,61625,1,8,0:0:0:0:
224,224,61725,1,0,0:0:0:0:
288,224,61825,1,8,0:0:0:0:
288,224,61925,1,8,0:0:0:0:
224,224,62025,1,0,0:0:0:0:
224,224,62125,1,0,0:0:0:0:
288,224,62225,1,8,0:0:0:0:
288,224,62325,1,8,0:0:0:0:
224,224,62425,1,0,0:0:0:0:
224,224,62525,1,0,0:0:0:0:
288,224,62625,1,8,0:0:0:0:
224,224,62725,1,0,0:0:0:0:
288,224,62825,1,8,0:0:0:0:
224,224,62925,1,0,0:0:0:0:
288,160,63225,1,12,0:0:0:0:
224,160,63525,1,4,0:0:0:0:
288,160,63825,1,12,0:0:0:0:
224,160,64125,1,4,0:0:0:0:
288,160,64425,1,12,0:0:0:0:
288,160,64625,1,8,0:0:0:0:
224,224,64825,1,0,0:0:0:0:
224,224,64925,1,0,0:0:0:0:
224,224,65025,1,0,0:0:0:0:
224,224,65225,1,0,0:0:0:0:
224,224,65325,1,0,0:0:0:0:
288,224,65425,1,8,0:0:0:0:
224,224,65625,1,0,0:0:0:0:
288,224,65725,1,8,0:0:0:0:
288,224,65825,1,8,0:0:0:0:
288,224,66025,1,8,0:0:0:0:
288,224,66125,1,8,0:0:0:0:
288,224,66225,1,8,0:0:0:0:
288,224,66425,1,8,0:0:0:0:
224,224,66525,1,0,0:0:0:0:
288,224,66625,1,8,0:0:0:0:
224,224,66725,1,0,0:0:0:0:
288,224,66825,1,8,0:0:0:0:
288,224,66925,1,8,0:0:0:0:
224,224,67025,1,0,0:0:0:0:
288,224,67125,1,8,0:0:0:0:
288,224,67225,1,8,0:0:0:0:
288,224,67325,1,8,0:0:0:0:
224,224,67425,1,0,0:0:0:0:
288,224,67525,1,8,0:0:0:0:
224,224,67625,1,0,0:0:0:0:
224,224,67725,1,0,0:0:0:0:
224,224,68025,1,0,0:0:0:0:
288,224,68125,1,8,0:0:0:0:
224,224,68225,1,0,0:0:0:0:
288,224,68425,1,8,0:0:0:0:
288,224,68525,1,8,0:0:0:0:
288,224,68625,1,8,0:0:0:0:
288,224,68825,1,8,0:0:0:0:
224,224,68925,1,0,0:0:0:0:
288,224,69025,1,8,0:0:0:0:
224,224,69225,1,0,0:0:0:0:
224,224,69325,1,0,0:0:0:0:
224,224,69425,1,0,0:0:0:0:
288,224,69625,1,8,0:0:0:0:
224,224,69725,1,0,0:0:0:0:
288,224,69825,1,8,0:0:0:0:
288,224,69925,1,8,0:0:0:0:
288,224,70025,1,8,0:0:0:0:
224,224,70125,1,0,0:0:0:0:
288,224,70225,1,8,0:0:0:0:
288,224,70325,1,8,0:0:0:0:
224,224,70425,1,0,0:0:0:0:
224,224,70525,1,0,0:0:0:0:
288,224,70625,1,8,0:0:0:0:
288,224,70725,1,8,0:0:0:0:
224,224,70825,1,0,0:0:0:0:
224,224,70925,1,0,0:0:0:0:
288,160,71025,1,12,0:0:0:0:
224,224,71225,1,0,0:0:0:0:
224,224,71325,1,0,0:0:0:0:
224,224,71425,1,0,0:0:0:0:
224,224,71625,1,0,0:0:0:0:
224,224,71725,1,0,0:0:0:0:
288,224,71825,1,8,0:0:0:0:
224,224,72025,1,0,0:0:0:0:
288,224,72125,1,8,0:0:0:0:
288,224,72225,1,8,0:0:0:0:
288,224,72425,1,8,0:0:0:0:
288,224,72525,1,8,0:0:0:0:
288,224,72625,1,8,0:0:0:0:
288,224,72825,1,8,0:0:0:0:
224,224,72925,1,0,0:0:0:0:
288,224,73025,1,8,0:0:0:0:
288,224,73125,1,8,0:0:0:0:
224,224,73225,1,0,0:0:0:0:
224,224,73325,1,0,0:0:0:0:
288,224,73425,1,8,0:0:0:0:
224,224,73525,1,0,0:0:0:0:
224,224,73625,1,0,0:0:0:0:
224,224,73725,1,0,0:0:0:0:
288,224,73825,1,8,0:0:0:0:
288,224,73925,1,8,0:0:0:0:
224,224,74025,1,0,0:0:0:0:
224,224,74125,1,0,0:0:0:0:
288,224,74225,1,8,0:0:0:0:
224,224,74325,1,0,0:0:0:0:
224,224,74425,1,0,0:0:0:0:
224,224,74525,1,0,0:0:0:0:
288,224,74625,1,8,0:0:0:0:
224,224,74725,1,0,0:0:0:0:
288,224,74825,1,8,0:0:0:0:
224,224,74925,1,0,0:0:0:0:
224,224,75025,1,0,0:0:0:0:
288,224,75125,1,8,0:0:0:0:
288,224,75225,1,8,0:0:0:0:
224,224,75325,1,0,0:0:0:0:
288,224,75425,1,8,0:0:0:0:
224,224,75525,1,0,0:0:0:0:
288,224,75625,1,8,0:0:0:0:
224,160,75725,1,4,0:0:0:0:
288,160,76025,1,12,0:0:0:0:
224,160,76325,1,4,0:0:0:0:
288,160,76625,1,12,0:0:0:0:
224,160,76925,1,4,0:0:0:0:
288,160,77225,1,12,0:0:0:0:
224,160,77525,1,4,0:0:0:0:
288,160,77825,1,12,0:0:0:0:
224,160,78125,1,4,0:0:0:0:
288,160,78425,1,12,0:0:0:0:
288,160,78625,1,12,0:0:0:0:
288,224,79025,1,8,0:0:0:0:
288,224,79125,1,8,0:0:0:0:
224,224,79225,1,0,0:0:0:0:
224,224,79325,1,0,0:0:0:0:
288,224,79425,1,8,0:0:0:0:
224,224,79525,1,0,0:0:0:0:
288,224,79625,1,8,0:0:0:0:
224,224,79725,1,0,0:0:0:0:
224,224,79825,1,0,0:0:0:0:
288,224,79925,1,8,0:0:0:0:
288,224,80025,1,8,0:0:0:0:
288,224,80125,1,8,0:0:0:0:
224,224,80225,1,0,0:0:0:0:
288,224,80325,1,8,0:0:0:0:
288,224,80425,1,8,0:0:0:0:
224,224,80525,1,0,0:0:0:0:
224,224,80625,1,0,0:0:0:0:
224,224,80725,1,0,0:0:0:0:
288,224,80825,1,8,0:0:0:0:
224,224,80925,1,0,0:0:0:0:
288,224,81025,1,8,0:0:0:0:
288,224,81125,1,8,0:0:0:0:
224,224,81225,1,0,0:0:0:0:
224,224,81325,1,0,0:0:0:0:
224,224,81425,1,0,0:0:0:0:
288,224,81525,1,8,0:0:0:0:
288,224,81625,1,8,0:0:0:0:
288,224,81725,1,8,0:0:0:0:
224,224,81825,1,0,0:0:0:0:
288,224,81925,1,8,0:0:0:0:
288,224,82025,1,8,0:0:0:0:
224,224,82125,1,0,0:0:0:0:
288,224,82225,1,8,0:0:0:0:
288,224,82325,1,8,0:0:0:0:
224,224,82425,1,0,0:0:0:0:
224,224,82525,1,0,0:0:0:0:
288,224,82625,1,8,0:0:0:0:
224,224,82725,1,0,0:0:0:0:
288,224,82825,1,8,0:0:0:0:
224,224,82925,1,0,0:0:0:0:
224,224,83025,1,0,0:0:0:0:
288,224,83125,1,8,0:0:0:0:
288,224,83225,1,8,0:0:0:0:
288,224,83325,1,8,0:0:0:0:
224,224,83425,1,0,0:0:0:0:
288,224,83525,1,8,0:0:0:0:
288,224,83625,1,8,0:0:0:0:
224,224,83725,1,0,0:0:0:0:
224,224,83825,1,0,0:0:0:0:
224,224,83925,1,0,0:0:0:0:
288,224,84025,1,8,0:0:0:0:
224,224,84125,1,0,0:0:0:0:
288,224,84225,1,8,0:0:0:0:
288,224,84325,1,8,0:0:0:0:
224,224,84425,1,0,0:0:0:0:
288,224,84525,1,8,0:0:0:0:
288,224,84625,1,8,0:0:0:0:
288,224,84725,1,8,0:0:0:0:
224,224,84825,1,0,0:0:0:0:
224,224,84925,1,0,0:0:0:0:
288,224,85025,1,8,0:0:0:0:
288,224,85125,1,8,0:0:0:0:
224,224,85225,1,0,0:0:0:0:
224,224,85325,1,0,0:0:0:0:
288,224,85425,1,8,0:0:0:0:
288,224,85525,1,8,0:0:0:0:
288,224,85625,1,8,0:0:0:0:
224,224,85725,1,0,0:0:0:0:
224,224,85825,1,0,0:0:0:0:
224,224,85925,1,0,0:0:0:0:
288,224,86025,1,8,0:0:0:0:
224,224,86125,1,0,0:0:0:0:
288,224,86225,1,8,0:0:0:0:
224,224,86325,1,0,0:0:0:0:
224,224,86425,1,0,0:0:0:0:
224,224,86525,1,0,0:0:0:0:
288,224,86625,1,8,0:0:0:0:
288,224,86725,1,8,0:0:0:0:
288,224,86825,1,8,0:0:0:0:
224,224,86925,1,0,0:0:0:0:
288,224,87025,1,8,0:0:0:0:
224,224,87125,1,0,0:0:0:0:
288,224,87225,1,8,0:0:0:0:
288,224,87325,1,8,0:0:0:0:
224,224,87425,1,0,0:0:0:0:
288,224,87525,1,8,0:0:0:0:
288,224,87625,1,8,0:0:0:0:
224,224,87725,1,0,0:0:0:0:
224,224,87825,1,0,0:0:0:0:
288,224,87925,1,8,0:0:0:0:
288,224,88025,1,8,0:0:0:0:
288,224,88125,1,8,0:0:0:0:
224,224,88225,1,0,0:0:0:0:
224,224,88325,1,0,0:0:0:0:
288,224,88425,1,8,0:0:0:0:
224,224,88525,1,0,0:0:0:0:
288,224,88625,1,8,0:0:0:0:
288,224,88725,1,8,0:0:0:0:
288,224,88825,1,8,0:0:0:0:
224,224,88925,1,0,0:0:0:0:
224,224,89025,1,0,0:0:0:0:
224,224,89125,1,0,0:0:0:0:
288,224,89225,1,8,0:0:0:0:
224,224,89325,1,0,0:0:0:0:
288,224,89425,1,8,0:0:0:0:
288,224,89525,1,8,0:0:0:0:
288,224,89625,1,8,0:0:0:0:
224,224,89725,1,0,0:0:0:0:
224,224,89825,1,0,0:0:0:0:
224,224,89925,1,0,0:0:0:0:
288,224,90025,1,8,0:0:0:0:
224,224,90125,1,0,0:0:0:0:
224,224,90225,1,0,0:0:0:0:
224,224,90325,1,0,0:0:0:0:
288,224,90425,1,8,0:0:0:0:
224,224,90525,1,0,0:0:0:0:
288,224,90625,1,8,0:0:0:0:
224,224,90725,1,0,0:0:0:0:
224,224,90825,1,0,0:0:0:0:
224,224,90925,1,0,0:0:0:0:
288,224,91025,1,8,0:0:0:0:
288,224,91125,1,8,0:0:0:0:
288,224,91225,1,8,0:0:0:0:
224,224,91325,1,0,0:0:0:0:
288,224,91425,1,8,0:0:0:0:
224,224,91525,1,0,0:0:0:0:
288,224,91625,1,8,0:0:0:0:
224,224,91725,1,0,0:0:0:0:
288,160,91825,1,12,0:0:0:0:
224,224,92825,1,0,0:0:0:0:
224,224,92891,1,0,0:0:0:0:
224,224,92958,1,0,0:0:0:0:
288,224,93025,1,8,0:0:0:0:
288,224,93425,1,8,0:0:0:0:
288,224,93525,1,8,0:0:0:0:
288,224,93625,1,8,0:0:0:0:
224,224,93725,1,0,0:0:0:0:
224,224,93825,1,0,0:0:0:0:
288,224,93925,1,8,0:0:0:0:
224,224,94025,1,0,0:0:0:0:
224,224,94125,1,0,0:0:0:0:
288,224,94225,1,8,0:0:0:0:
288,224,94325,1,8,0:0:0:0:
224,224,94425,1,0,0:0:0:0:
224,224,94525,1,0,0:0:0:0:
288,224,94625,1,8,0:0:0:0:
288,224,94725,1,8,0:0:0:0:
224,224,94825,1,0,0:0:0:0:
224,224,94925,1,0,0:0:0:0:
288,224,95025,1,8,0:0:0:0:
224,224,95125,1,0,0:0:0:0:
288,224,95225,1,8,0:0:0:0:
224,224,95325,1,0,0:0:0:0:
224,224,95425,1,0,0:0:0:0:
288,224,95525,1,8,0:0:0:0:
288,224,95625,1,8,0:0:0:0:
224,224,95725,1,0,0:0:0:0:
288,224,95825,1,8,0:0:0:0:
288,224,95925,1,8,0:0:0:0:
224,224,96025,1,0,0:0:0:0:
224,224,96125,1,0,0:0:0:0:
288,224,96225,1,8,0:0:0:0:
288,224,96325,1,8,0:0:0:0:
224,224,96425,1,0,0:0:0:0:
224,224,96525,1,0,0:0:0:0:
288,224,96625,1,8,0:0:0:0:
288,224,96725,1,8,0:0:0:0:
288,224,96825,1,8,0:0:0:0:
224,224,96925,1,0,0:0:0:0:
288,224,97025,1,8,0:0:0:0:
288,224,97125,1,8,0:0:0:0:
224,224,97225,1,0,0:0:0:0:
224,224,97325,1,0,0:0:0:0:
288,224,97425,1,8,0:0:0:0:
288,224,97525,1,8,0:0:0:0:
224,224,97625,1,0,0:0:0:0:
288,224,97725,1,8,0:0:0:0:
224,224,97825,1,0,0:0:0:0:
224,224,97925,1,0,0:0:0:0:
288,224,98025,1,8,0:0:0:0:
288,224,98125,1,8,0:0:0:0:
224,224,98225,1,0,0:0:0:0:
224,224,98325,1,0,0:0:0:0:
288,224,98425,1,8,0:0:0:0:
288,224,98525,1,8,0:0:0:0:
224,224,98625,1,0,0:0:0:0:
288,224,98725,1,8,0:0:0:0:
288,224,98825,1,8,0:0:0:0:
224,224,98925,1,0,0:0:0:0:
288,224,99025,1,8,0:0:0:0:
288,224,99125,1,8,0:0:0:0:
224,224,99225,1,0,0:0:0:0:
224,224,99325,1,0,0:0:0:0:
288,224,99425,1,8,0:0:0:0:
288,224,99525,1,8,0:0:0:0:
224,224,99625,1,0,0:0:0:0:
224,224,99725,1,0,0:0:0:0:
288,160,99825,1,12,0:0:0:0:
224,224,99925,1,0,0:0:0:0:
224,224,100025,1,0,0:0:0:0:
288,224,100125,1,8,0:0:0:0:
224,224,100225,1,0,0:0:0:0:
288,224,100325,1,8,0:0:0:0:
288,224,100425,1,8,0:0:0:0:
224,224,100525,1,0,0:0:0:0:
224,224,100625,1,0,0:0:0:0:
288,224,100725,1,8,0:0:0:0:
288,224,100825,1,8,0:0:0:0:
224,224,100925,1,0,0:0:0:0:
224,224,101025,1,0,0:0:0:0:
288,224,101125,1,8,0:0:0:0:
288,224,101225,1,8,0:0:0:0:
224,224,101325,1,0,0:0:0:0:
288,224,101425,1,8,0:0:0:0:
288,224,101525,1,8,0:0:0:0:
288,224,101625,1,8,0:0:0:0:
224,224,101725,1,0,0:0:0:0:
224,224,101825,1,0,0:0:0:0:
224,224,101925,1,0,0:0:0:0:
288,224,102025,1,8,0:0:0:0:
224,224,102125,1,0,0:0:0:0:
288,224,102225,1,8,0:0:0:0:
288,224,102325,1,8,0:0:0:0:
224,224,102425,1,0,0:0:0:0:
224,224,102525,1,0,0:0:0:0:
288,224,102625,1,8,0:0:0:0:
288,224,102725,1,8,0:0:0:0:
224,224,102825,1,0,0:0:0:0:
224,224,102925,1,0,0:0:0:0:
288,224,103025,1,8,0:0:0:0:
288,224,103125,1,8,0:0:0:0:
288,224,103225,1,8,0:0:0:0:
224,224,103325,1,0,0:0:0:0:
288,224,103425,1,8,0:0:0:0:
224,224,103525,1,0,0:0:0:0:
224,224,103625,1,0,0:0:0:0:
224,224,103725,1,0,0:0:0:0:
288,224,103825,1,8,0:0:0:0:
288,224,103925,1,8,0:0:0:0:
224,224,104025,1,0,0:0:0:0:
224,224,104125,1,0,0:0:0:0:
288,224,104225,1,8,0:0:0:0:
288,224,104325,1,8,0:0:0:0:
224,224,104425,1,0,0:0:0:0:
224,224,104525,1,0,0:0:0:0:
288,224,104625,1,8,0:0:0:0:
288,224,104725,1,8,0:0:0:0:
224,224,104825,1,0,0:0:0:0:
224,224,104891,1,0,0:0:0:0:
224,224,104958,1,0,0:0:0:0:
288,224,105025,1,8,0:0:0:0:
288,224,105125,1,8,0:0:0:0:
224,224,105225,1,0,0:0:0:0:
288,224,105325,1,8,0:0:0:0:
224,160,105425,1,4,0:0:0:0:
288,160,105625,1,12,0:0:0:0:
224,160,105825,1,4,0:0:0:0:
288,224,106225,1,8,0:0:0:0:
288,224,106325,1,8,0:0:0:0:
224,224,106425,1,0,0:0:0:0:
288,224,106525,1,8,0:0:0:0:
288,224,106625,1,8,0:0:0:0:
224,224,106725,1,0,0:0:0:0:
288,224,106825,1,8,0:0:0:0:
288,224,106925,1,8,0:0:0:0:
224,224,107025,1,0,0:0:0:0:
288,224,107125,1,8,0:0:0:0:
224,224,107225,1,0,0:0:0:0:
224,224,107325,1,0,0:0:0:0:
288,224,107425,1,8,0:0:0:0:
224,224,107525,1,0,0:0:0:0:
224,224,107625,1,0,0:0:0:0:
288,224,107725,1,8,0:0:0:0:
288,224,107825,1,8,0:0:0:0:
224,224,107925,1,0,0:0:0:0:
288,224,108025,1,8,0:0:0:0:
288,224,108125,1,8,0:0:0:0:
224,224,108225,1,0,0:0:0:0:
288,224,108325,1,8,0:0:0:0:
288,224,108425,1,8,0:0:0:0:
288,224,108525,1,8,0:0:0:0:
224,224,108625,1,0,0:0:0:0:
288,224,108725,1,8,0:0:0:0:
224,224,108825,1,0,0:0:0:0:
224,224,108925,1,0,0:0:0:0:
288,224,109025,1,8,0:0:0:0:
224,224,109125,1,0,0:0:0:0:
288,224,109225,1,8,0:0:0:0:
288,224,109325,1,8,0:0:0:0:
288,224,109425,1,8,0:0:0:0:
224,224,109525,1,0,0:0:0:0:
288,224,109625,1,8,0:0:0:0:
288,224,109725,1,8,0:0:0:0:
224,224,109825,1,0,0:0:0:0:
288,224,109925,1,8,0:0:0:0:
224,224,110025,1,0,0:0:0:0:
288,224,110125,1,8,0:0:0:0:
224,224,110225,1,0,0:0:0:0:
288,224,110325,1,8,0:0:0:0:
224,224,110425,1,0,0:0:0:0:
288,224,110525,1,8,0:0:0:0:
224,224,110625,1,0,0:0:0:0:
224,224,110725,1,0,0:0:0:0:
288,224,110825,1,8,0:0:0:0:
288,224,110925,1,8,0:0:0:0:
224,224,111025,1,0,0:0:0:0:
288,224,111125,1,8,0:0:0:0:
288,224,111225,1,8,0:0:0:0:
224,224,111325,1,0,0:0:0:0:
288,224,111425,1,8,0:0:0:0:
288,224,111525,1,8,0:0:0:0:
224,224,111625,1,0,0:0:0:0:
288,224,111725,1,8,0:0:0:0:
288,224,111825,1,8,0:0:0:0:
224,224,111925,1,0,0:0:0:0:
288,224,112025,1,8,0:0:0:0:
224,224,112125,1,0,0:0:0:0:
288,224,112225,1,8,0:0:0:0:
224,224,112325,1,0,0:0:0:0:
288,224,112425,1,8,0:0:0:0:
224,224,112525,1,0,0:0:0:0:
288,160,112625,1,12,0:0:0:0:
224,224,112725,1,0,0:0:0:0:
288,224,112825,1,8,0:0:0:0:
288,224,112925,1,8,0:0:0:0:
224,224,113025,1,0,0:0:0:0:
288,224,113125,1,8,0:0:0:0:
288,224,113225,1,8,0:0:0:0:
224,224,113325,1,0,0:0:0:0:
224,224,113425,1,0,0:0:0:0:
288,224,113525,1,8,0:0:0:0:
288,224,113625,1,8,0:0:0:0:
224,224,113725,1,0,0:0:0:0:
288,224,113825,1,8,0:0:0:0:
224,224,113925,1,0,0:0:0:0:
288,224,114025,1,8,0:0:0:0:
288,224,114125,1,8,0:0:0:0:
224,224,114225,1,0,0:0:0:0:
288,224,114325,1,8,0:0:0:0:
224,224,114425,1,0,0:0:0:0:
224,224,114525,1,0,0:0:0:0:
288,224,114625,1,8,0:0:0:0:
224,224,114725,1,0,0:0:0:0:
288,224,114825,1,8,0:0:0:0:
288,224,114925,1,8,0:0:0:0:
224,224,115025,1,0,0:0:0:0:
288,224,115125,1,8,0:0:0:0:
288,224,115225,1,8,0:0:0:0:
224,224,115325,1,0,0:0:0:0:
288,224,115425,1,8,0:0:0:0:
288,224,115525,1,8,0:0:0:0:
288,224,115625,1,8,0:0:0:0:
224,224,115725,1,0,0:0:0:0:
288,160,115825,1,12,0:0:0:0:
224,224,115925,1,0,0:0:0:0:
224,224,116025,1,0,0:0:0:0:
288,224,116125,1,8,0:0:0:0:
224,224,116225,1,0,0:0:0:0:
224,224,116325,1,0,0:0:0:0:
288,224,116425,1,8,0:0:0:0:
224,224,116525,1,0,0:0:0:0:
288,160,116625,1,12,0:0:0:0:
224,224,116725,1,0,0:0:0:0:
288,224,116825,1,8,0:0:0:0:
224,224,116925,1,0,0:0:0:0:
288,224,117025,1,8,0:0:0:0:
224,224,117125,1,0,0:0:0:0:
224,224,117225,1,0,0:0:0:0:
224,224,117291,1,0,0:0:0:0:
224,224,117358,1,0,0:0:0:0:
288,160,117425,1,12,0:0:0:0:
288,224,117525,1,8,0:0:0:0:
224,224,117625,1,0,0:0:0:0:
224,224,117691,1,0,0:0:0:0:
224,224,117758,1,0,0:0:0:0:
288,224,117825,1,8,0:0:0:0:
288,224,117925,1,8,0:0:0:0:
224,224,118025,1,0,0:0:0:0:
224,224,118091,1,0,0:0:0:0:
224,224,118158,1,0,0:0:0:0:
288,160,118225,1,12,0:0:0:0:
288,160,118425,1,12,0:0:0:0:
224,160,118625,1,4,0:0:0:0:
