osu file format v14

[General]
AudioFilename: audio.mp3
AudioLeadIn: 0
PreviewTime: 75429
Countdown: 0
SampleSet: Normal
StackLeniency: 0.7
Mode: 1
LetterboxInBreaks: 0
WidescreenStoryboard: 1

[Editor]
DistanceSpacing: 1.1
BeatDivisor: 4
GridSize: 32
TimelineZoom: 1.4

[Metadata]
Title:Sarutobi Champion is Sessha
TitleUnicode:Sarutobi Champion is 拙者
Artist:Project B-
ArtistUnicode:Project B-
Creator:Charlotte
Version:Kantan
Source:beatmania IIDX 24 SINOBUZ
Tags:Midnaait qoot8123 ost original soundtrack
BeatmapID:1739590
BeatmapSetID:821700

[Difficulty]
HPDrainRate:8
CircleSize:5
OverallDifficulty:3
ApproachRate:5
SliderMultiplier:1.4
SliderTickRate:1

[Events]
//Background and Video events
0,0,"BG.jpg",0,90
//Break Periods
//Storyboard Layer 0 (Background)
//Storyboard Layer 1 (Fail)
//Storyboard Layer 2 (Pass)
//Storyboard Layer 3 (Foreground)
//Storyboard Sound Samples

[TimingPoints]
969,461.538461538462,4,1,0,75,1,0
969,-83.3333333333333,4,1,0,75,0,0
72969,307.692307692308,4,1,0,75,1,0
72969,-111.111111111111,4,1,0,75,0,0
74199,-105.263157894737,4,1,0,75,0,0
75430,-100,4,1,0,75,0,1
100045,-100,4,1,0,75,0,0

[Colours]
Combo1 : 255,240,255
Combo2 : 240,255,255

[HitObjects]
256,192,969,5,0,0:0:0:0:
256,192,1892,1,8,0:0:0:0:
256,192,2815,1,8,0:0:0:0:
256,192,3276,1,0,0:0:0:0:
256,192,3738,1,8,0:0:0:0:
256,192,4661,1,0,0:0:0:0:
256,192,5584,1,8,0:0:0:0:
256,192,6507,1,0,0:0:0:0:
256,192,6969,1,8,0:0:0:0:
256,192,7430,1,0,0:0:0:0:
256,192,8353,1,4,0:0:0:0:
256,192,9276,1,0,0:0:0:0:
256,192,10199,1,0,0:0:0:0:
256,192,11122,1,8,0:0:0:0:
256,192,12045,1,4,0:0:0:0:
256,192,12969,1,0,0:0:0:0:
256,192,13892,1,0,0:0:0:0:
256,192,14815,1,8,0:0:0:0:
256,192,15738,1,4,0:0:0:0:
256,192,16661,1,8,0:0:0:0:
256,192,17122,1,8,0:0:0:0:
256,192,17584,1,0,0:0:0:0:
256,192,18507,1,0,0:0:0:0:
256,192,18969,1,8,0:0:0:0:
256,192,19430,1,4,0:0:0:0:
256,192,20353,1,4,0:0:0:0:
256,192,21276,1,12,0:0:0:0:
256,192,23122,1,4,0:0:0:0:
256,192,24045,1,0,0:0:0:0:
256,192,24507,1,8,0:0:0:0:
256,192,25430,1,0,0:0:0:0:
256,192,26353,1,8,0:0:0:0:
256,192,26815,1,0,0:0:0:0:
256,192,27738,1,0,0:0:0:0:
256,192,28661,1,8,0:0:0:0:
256,192,29122,1,8,0:0:0:0:
256,192,29584,1,8,0:0:0:0:
256,192,30507,1,4,0:0:0:0:
256,192,31430,1,0,0:0:0:0:
256,192,31892,1,8,0:0:0:0:
256,192,32815,1,0,0:0:0:0:
256,192,33738,1,8,0:0:0:0:
256,192,34199,1,0,0:0:0:0:
256,192,35122,1,8,0:0:0:0:
256,192,36045,1,0,0:0:0:0:
256,192,36507,1,8,0:0:0:0:
256,192,36969,1,0,0:0:0:0:
256,192,37430,1,8,0:0:0:0:
256,192,37892,1,4,0:0:0:0:
256,192,39276,1,8,0:0:0:0:
256,192,39738,1,0,0:0:0:0:
256,192,41122,1,8,0:0:0:0:
256,192,41584,1,0,0:0:0:0:
256,192,42507,1,8,0:0:0:0:
288,64,43430,2,0,L|384:128,4,83.9999974365235
256,192,45276,1,4,0:0:0:0:
256,192,46199,1,8,0:0:0:0:
256,192,47122,1,0,0:0:0:0:
256,192,48045,1,8,0:0:0:0:
256,192,48969,1,4,0:0:0:0:
256,192,49892,1,4,0:0:0:0:
260,194,50353,1,8,0:0:0:0:
256,192,50815,1,4,0:0:0:0:
256,192,51738,1,8,0:0:0:0:
256,192,52199,1,8,0:0:0:0:
256,192,52661,1,4,0:0:0:0:
256,192,54045,1,8,0:0:0:0:
256,192,54507,1,0,0:0:0:0:
256,192,55430,1,0,0:0:0:0:
256,192,55892,1,8,0:0:0:0:
256,192,56353,1,4,0:0:0:0:
256,192,57738,1,8,0:0:0:0:
256,192,58199,1,0,0:0:0:0:
256,192,59122,1,0,0:0:0:0:
256,192,59584,1,8,0:0:0:0:
256,192,60045,1,4,0:0:0:0:
256,192,60969,1,8,0:0:0:0:
256,192,61892,1,0,0:0:0:0:
256,192,62353,1,0,0:0:0:0:
256,192,62815,1,8,0:0:0:0:
256,192,63738,1,4,0:0:0:0:
256,192,64661,1,8,0:0:0:0:
256,192,65584,1,0,0:0:0:0:
256,192,66045,1,0,0:0:0:0:
256,192,66507,1,0,0:0:0:0:
256,192,67430,1,4,0:0:0:0:
256,192,68661,1,8,0:0:0:0:
256,192,68969,1,8,0:0:0:0:
256,192,69276,1,8,0:0:0:0:
256,192,69892,1,0,0:0:0:0:
256,192,70507,1,0,0:0:0:0:
256,192,71122,1,8,0:0:0:0:
256,192,71738,1,8,0:0:0:0:
256,192,72353,1,8,0:0:0:0:
256,192,72969,1,8,0:0:0:0:
256,192,73276,1,8,0:0:0:0:
256,192,73584,1,8,0:0:0:0:
373,124,74199,2,0,L|511:193,3,132.999996448517
256,192,75430,1,12,0:0:0:0:
256,192,76045,1,0,0:0:0:0:
256,192,76353,1,8,0:0:0:0:
256,192,76969,1,8,0:0:0:0:
256,192,77584,1,8,0:0:0:0:
256,192,77892,1,0,0:0:0:0:
256,192,78507,1,0,0:0:0:0:
256,192,78815,1,8,0:0:0:0:
224,96,79122,2,0,L|384:128,3,140
256,192,80353,1,12,0:0:0:0:
256,192,80969,1,8,0:0:0:0:
256,192,81584,1,0,0:0:0:0:
256,192,81892,1,0,0:0:0:0:
256,192,82199,1,8,0:0:0:0:
256,192,82815,1,0,0:0:0:0:
256,192,83430,1,8,0:0:0:0:
256,192,84045,1,0,0:0:0:0:
256,192,84353,1,0,0:0:0:0:
266,197,84661,1,8,0:0:0:0:
264,196,84969,1,8,0:0:0:0:
256,192,85276,1,4,0:0:0:0:
256,192,86507,1,8,0:0:0:0:
256,192,87122,1,8,0:0:0:0:
256,192,87738,1,0,0:0:0:0:
256,192,88353,1,8,0:0:0:0:
256,192,88969,1,0,0:0:0:0:
256,192,89276,1,8,0:0:0:0:
256,192,89584,1,0,0:0:0:0:
256,192,90199,1,4,0:0:0:0:
256,192,90815,1,8,0:0:0:0:
256,192,91430,1,0,0:0:0:0:
256,192,91738,1,0,0:0:0:0:
256,192,92045,1,8,0:0:0:0:
256,192,92661,1,0,0:0:0:0:
256,192,93584,1,0,0:0:0:0:
256,192,94507,1,8,0:0:0:0:
256,192,95122,1,4,0:0:0:0:
256,192,95738,1,12,0:0:0:0:
256,192,96353,1,4,0:0:0:0:
256,192,96969,1,12,0:0:0:0:
256,192,97584,1,4,0:0:0:0:
256,192,98199,1,4,0:0:0:0:
256,192,98815,1,0,0:0:0:0:
256,192,99122,1,0,0:0:0:0:
256,192,99430,1,0,0:0:0:0:
256,192,99738,1,0,0:0:0:0:
256,192,100045,1,12,0:0:0:0:
256,192,100507,1,0,0:0:0:0:
256,192,100969,1,8,0:0:0:0:
256,192,101430,1,0,0:0:0:0:
256,192,101892,1,12,0:0:0:0:
