osu file format v14

[General]
AudioFilename: audio.mp3
AudioLeadIn: 0
PreviewTime: 41400
Countdown: 0
SampleSet: Normal
StackLeniency: 0.3
Mode: 0
LetterboxInBreaks: 0
WidescreenStoryboard: 1

[Editor]
Bookmarks: 3000,22200,41400,60600,79800,99000
DistanceSpacing: 0.8
BeatDivisor: 8
GridSize: 4
TimelineZoom: 1.7

[Metadata]
Title:Weakness
TitleUnicode:Weakness
Artist:Prismo
ArtistUnicode:Prismo
Creator:FinnB
Version:Weakness
Source:
Tags:ncs
BeatmapID:1820745
BeatmapSetID:871417

[Difficulty]
HPDrainRate:5.6
CircleSize:3.6
OverallDifficulty:8.8
ApproachRate:10
SliderMultiplier:3.59999990463257
SliderTickRate:1

[Events]
//Background and Video events
0,0,"weakness.jpg",0,0
//Break Periods
//Storyboard Layer 0 (Background)
//Storyboard Layer 1 (Fail)
//Storyboard Layer 2 (Pass)
//Storyboard Layer 3 (Foreground)
//Storyboard Sound Samples

[TimingPoints]
600,600,4,1,1,5,1,0
3000,-1000,4,2,1,80,0,0
22200,-200,4,2,1,80,0,0
31800,-166.666666666667,4,2,1,85,0,0
34200,-142.857142857143,4,2,1,90,0,0
36600,-125,4,2,1,95,0,0
39000,-1000,4,2,1,60,0,0
40800,-66.6666666666667,4,1,1,100,0,0
41400,-100,4,1,1,100,0,0
51000,-500,4,1,1,80,0,0
51600,-100,4,1,1,100,0,0
60600,-250,4,1,1,90,0,0
61200,-66.6666666666667,4,1,1,100,0,1
70200,-250,4,1,1,90,0,0
70800,-66.6666666666667,4,1,1,100,0,1
79200,-100,4,1,1,90,0,0
79800,-125,4,1,1,80,0,0
80400,-125,4,1,1,5,0,0

[Colours]
Combo1 : 139,96,67
Combo2 : 150,150,150
Combo3 : 182,154,116
Combo4 : 88,88,88

[HitObjects]
121,33,3000,6,0,B|85:78|101:131|101:131|53:178|53:178|99:206|98:262,1,269.999992847443,2|0,0:0|0:0,0:0:0:0:
43,340,7800,6,0,B|90:374|153:354|176:329|176:329|218:337|218:337|257:315|298:324,1,269.999992847443,2|0,0:0|0:0,0:0:0:0:
392,356,12600,1,2,0:0:0:0:
413,232,13200,6,0,L|407:273,1,35.9999990463257
392,356,14400,1,0,0:0:0:0:
98,260,15000,1,2,0:0:0:0:
493,176,15600,1,0,0:0:0:0:
293,308,16200,2,0,L|290:284,2,17.9999995231628
279,208,17400,1,2,0:0:0:0:
396,197,18000,6,0,L|361:200,1,35.9999990463257
192,217,19200,1,0,0:0:0:0:
364,93,19800,1,2,0:0:0:0:
229,363,20400,1,0,0:0:0:0:
113,68,21000,2,0,L|94:67,2,17.9999995231628
148,72,21900,1,0,0:0:0:0:
152,239,22200,6,0,P|172:200|170:155,1,89.9999976158143,2|0,0:0|0:0,0:0:0:0:
148,72,22800,1,8,0:0:0:0:
0,188,23100,1,0,0:0:0:0:
0,188,23250,2,0,L|90:182,1,89.9999976158143
272,169,23700,1,8,0:0:0:0:
272,169,24000,1,8,0:0:0:0:
178,100,24300,1,0,0:0:0:0:
202,353,24600,6,0,B|186:284|186:284|223:226,1,134.999996423721,2|0,0:0|0:0,0:0:0:0:
272,169,25200,1,8,0:0:0:0:
466,163,25500,2,0,L|456:222,1,44.9999988079071
336,297,25800,2,0,L|346:238,1,44.9999988079071
371,96,26100,1,8,0:0:0:0:
371,96,26400,1,8,0:0:0:0:
433,352,26700,1,0,0:0:0:0:
309,378,27000,6,0,P|260:363|235:334,1,89.9999976158143,2|0,0:0|0:0,0:0:0:0:
199,262,27600,1,8,0:0:0:0:
401,249,27900,1,0,0:0:0:0:
401,249,28050,2,0,L|288:255,1,89.9999976158143
79,266,28500,1,8,0:0:0:0:
79,266,28800,1,8,0:0:0:0:
235,334,29100,1,0,0:0:0:0:
124,72,29400,6,0,B|153:137|153:137|118:208,1,134.999996423721,2|0,0:0|0:0,0:0:0:0:
79,266,30000,1,8,0:0:0:0:
239,346,30300,2,0,P|267:341|293:326,1,44.9999988079071
406,236,30600,2,0,P|378:241|352:256,1,44.9999988079071
387,343,30900,1,8,0:0:0:0:
427,135,31200,1,8,0:0:0:0:
119,226,31500,1,0,0:0:0:0:
211,259,31800,6,0,P|288:187|258:75,1,215.999987686158,2|8,0:0|0:0,0:0:0:0:
149,39,32700,1,0,0:0:0:0:
149,39,32850,2,0,L|206:31,1,53.9999969215394
286,188,33150,2,0,L|233:181,1,53.9999969215394,0|8,0:0|0:0,0:0:0:0:
65,157,33600,1,8,0:0:0:0:
233,246,33900,1,0,0:0:0:0:
36,324,34200,6,0,B|141:272|179:365|280:324,1,251.999985633851,2|8,0:0|0:0,0:0:0:0:
382,257,35100,1,0,0:0:0:0:
382,257,35250,2,0,P|429:241|457:248,1,62.9999964084627
495,356,35550,2,0,P|463:354|435:340,1,62.9999964084627,0|8,0:0|0:0,0:0:0:0:
332,171,36000,1,8,0:0:0:0:
217,258,36300,1,0,0:0:0:0:
342,340,36600,5,4,0:1:0:0:
104,309,36900,1,4,0:1:0:0:
455,212,37200,5,4,0:1:0:0:
206,231,37500,1,4,0:1:0:0:
79,166,37800,6,0,L|93:253,1,71.9999980926514,4|0,0:1|0:0,0:0:0:0:
184,373,38100,2,0,L|198:286,1,71.9999980926514,4|0,0:1|0:0,0:0:0:0:
300,76,38400,6,0,L|288:147,1,71.9999980926514,4|0,0:1|0:0,0:0:0:0:
482,357,38700,2,0,L|470:285,1,71.9999980926514,4|0,0:1|0:0,0:0:0:0:
256,320,39000,1,2,0:0:0:0:
256,320,40800,5,2,0:3:0:0:
390,211,40950,1,4,0:0:0:0:
108,182,41100,1,4,0:0:0:0:
380,336,41250,1,4,0:0:0:0:
485,214,41400,6,2,P|435:123|367:115,1,179.999995231629,4|0,0:3|0:0,0:0:0:0:
182,236,42000,2,0,B|136:272|72:265|72:265|127:275|164:313,1,179.999995231629,8|0,0:0|0:0,0:0:0:0:
212,345,42450,1,0,0:0:0:0:
409,169,42600,6,0,P|454:170|492:204,1,89.9999976158143,2|0,0:0|0:0,0:0:0:0:
321,205,42900,2,0,P|276:204|238:170,1,89.9999976158143,4|0,0:0|0:0,0:0:0:0:
337,31,43200,2,0,L|300:134,1,89.9999976158143,8|0,0:0|0:0,0:0:0:0:
377,307,43500,2,0,L|414:204,1,89.9999976158143
438,82,43800,2,0,B|416:139|416:139|436:212|436:212|420:259,1,179.999995231629,6|0,0:0|0:0,0:0:0:0:
423,253,44250,1,0,0:0:0:0:
497,302,44400,6,0,P|450:338|411:340,1,89.9999976158143,8|0,0:0|0:0,0:0:0:0:
427,167,44700,2,0,P|437:210|423:252,1,89.9999976158143
184,284,45000,2,0,P|216:253|260:244,1,89.9999976158143,2|0,0:0|0:0,0:0:0:0:
267,156,45300,2,0,P|309:168|338:202,1,89.9999976158143,4|0,0:0|0:0,0:0:0:0:
256,336,45600,2,0,P|148:367|97:301,1,179.999995231629,8|4,0:0|0:0,0:0:0:0:
184,284,46050,1,0,0:0:0:0:
240,48,46200,6,0,P|348:17|399:83,1,179.999995231629,6|0,0:0|0:0,0:0:0:0:
334,271,46800,2,0,B|293:214|293:214|311:96,1,179.999995231629,8|0,0:0|0:0,0:0:0:0:
311,99,47250,1,0,0:0:0:0:
460,273,47400,6,0,L|278:273,1,179.999995231629,2|0,0:0|0:0,0:0:0:0:
181,273,47850,1,0,0:0:0:0:
70,333,48000,6,0,P|49:241|101:158,1,179.999995231629,8|0,0:0|0:0,0:0:0:0:
164,115,48450,1,0,0:0:0:0:
292,206,48600,6,0,B|368:163|390:240|468:195,1,179.999995231629,6|0,0:0|0:0,0:0:0:0:
492,112,49050,1,0,0:0:0:0:
339,280,49200,6,0,B|289:324|289:324|235:308|168:320,1,179.999995231629,8|0,0:0|0:0,0:0:0:0:
92,271,49650,1,0,0:0:0:0:
386,212,49800,6,0,P|422:259|422:304,1,89.9999976158143,6|0,0:0|0:0,0:0:0:0:
292,206,50100,2,0,P|261:173|253:129,1,89.9999976158143,4|0,0:0|0:0,0:0:0:0:
89,338,50400,2,0,P|157:325|132:226,1,179.999995231629,8|4,0:0|0:0,0:0:0:0:
36,242,50850,1,0,0:0:0:0:
169,115,51000,6,0,P|194:111|211:105,1,35.9999990463257,4|0,0:0|0:0,0:0:0:0:
265,52,51600,2,0,P|245:165|265:243,1,179.999995231629,8|0,0:0|0:0,0:0:0:0:
267,234,52050,1,0,0:0:0:0:
330,302,52200,6,0,P|387:325|420:320,1,89.9999976158143,2|0,0:0|0:0,0:0:0:0:
365,155,52500,2,0,P|326:133|280:132,1,89.9999976158143,4|0,0:0|0:0,0:0:0:0:
390,237,52800,2,0,L|481:243,1,89.9999976158143,8|0,0:0|0:0,0:0:0:0:
301,213,53100,2,0,L|211:205,1,89.9999976158143
69,275,53400,2,0,B|132:215|132:215|244:221,1,179.999995231629,6|0,0:0|0:0,0:0:0:0:
165,299,53850,1,0,0:0:0:0:
236,349,54000,6,0,P|250:285|231:220,1,89.9999976158143,8|0,0:0|0:0,0:0:0:0:
190,86,54300,2,0,P|176:150|195:215,1,89.9999976158143
308,149,54600,2,0,P|244:135|179:154,1,89.9999976158143,2|0,0:0|0:0,0:0:0:0:
118,286,54900,2,0,P|182:300|247:281,1,89.9999976158143,4|0,0:0|0:0,0:0:0:0:
338,121,55200,2,0,P|298:197|326:287,1,179.999995231629,8|4,0:0|0:0,0:0:0:0:
403,344,55650,1,0,0:0:0:0:
412,206,55800,6,0,P|452:130|424:40,1,179.999995231629,6|0,0:0|0:0,0:0:0:0:
143,83,56400,2,0,B|218:56|218:56|264:82|264:82|312:64,1,179.999995231629,8|0,0:0|0:0,0:0:0:0:
319,61,56850,1,0,0:0:0:0:
277,174,57000,6,0,B|367:140|367:140|460:185,1,179.999995231629,6|0,0:0|0:0,0:0:0:0:
363,238,57450,1,0,0:0:0:0:
228,270,57600,6,0,P|177:235|178:123,1,179.999995231629,8|0,0:0|0:0,0:0:0:0:
241,66,58050,1,0,0:0:0:0:
63,41,58200,6,0,B|90:94|68:166|68:166|72:227,1,179.999995231629,6|0,0:0|0:0,0:0:0:0:
78,313,58650,1,0,0:0:0:0:
413,332,58800,6,0,B|354:303|299:336|299:336|243:308|195:349,1,179.999995231629,8|0,0:0|0:0,0:0:0:0:
152,345,59250,1,0,0:0:0:0:
72,213,59400,6,0,P|109:135|104:110,1,89.9999976158143,6|0,0:0|0:0,0:0:0:0:
214,218,59700,2,0,P|223:261|251:296,1,89.9999976158143,4|0,0:0|0:0,0:0:0:0:
349,99,60000,2,0,P|440:61|457:65,1,89.9999976158143,8|0,0:0|0:0,0:0:0:0:
398,175,60300,2,0,P|307:213|290:209,1,89.9999976158143,4|0,0:0|0:0,0:0:0:0:
292,35,60600,6,0,L|288:103,1,53.9999985694885,0|0,0:0|3:0,0:0:0:0:
275,340,60900,1,2,0:0:0:0:
148,270,61050,1,0,0:0:0:0:
286,327,61200,6,0,P|333:217|458:256,1,270.000003147125,12|0,0:3|0:0,0:0:0:0:
480,335,61650,1,0,0:0:0:0:
384,161,61800,6,0,L|370:304,1,135.000001573563,6|0,0:0|0:0,0:0:0:0:
232,190,62100,2,0,L|246:47,1,135.000001573563,0|4,0:0|0:0,0:0:0:0:
85,100,62400,1,8,0:0:0:0:
358,119,62550,1,0,0:0:0:0:
128,189,62700,1,0,0:0:0:0:
397,26,62850,1,0,0:0:0:0:
173,276,63000,6,0,P|64:277|142:193,1,270.000003147125,6|0,0:0|0:0,0:0:0:0:
216,365,63450,1,0,0:0:0:0:
347,219,63600,6,0,B|269:192|269:192|213:201,1,135.000001573563,8|0,0:0|0:0,0:0:0:0:
360,125,63900,2,0,B|438:152|438:152|494:143,1,135.000001573563
406,38,64200,2,0,B|354:29|354:29|276:56,1,135.000001573563,6|0,0:0|0:0,0:0:0:0:
66,115,64500,2,0,B|117:123|117:123|195:96,1,135.000001573563,0|4,0:0|0:0,0:0:0:0:
340,35,64800,1,8,0:0:0:0:
245,231,64950,1,0,0:0:0:0:
164,12,65100,1,0,0:0:0:0:
405,132,65250,1,0,0:0:0:0:
133,117,65400,6,0,P|116:179|119:254,1,135.000001573563,6|0,0:0|0:0,0:0:0:0:
401,347,65700,2,0,P|418:285|415:210,1,135.000001573563
318,145,66000,2,0,P|242:158|323:268,1,270.000003147125,8|0,0:0|0:0,0:0:0:0:
412,203,66450,1,0,0:0:0:0:
264,357,66600,6,0,P|174:316|149:141,1,270.000003147125,6|0,0:0|0:0,0:0:0:0:
169,81,67050,1,4,0:0:0:0:
34,272,67200,6,0,B|144:235|144:235|304:262,1,270.000003147125,8|0,0:0|0:0,0:0:0:0:
389,283,67650,1,0,0:0:0:0:
476,110,67800,6,0,P|414:197|390:72,1,270.000003147125,6|0,0:0|0:0,0:0:0:0:
434,32,68250,1,0,0:0:0:0:
266,93,68400,6,0,B|224:199|343:240|256:382,1,270.000003147125,8|0,0:0|0:0,0:0:0:0:
162,281,68850,1,0,0:0:0:0:
413,200,69000,5,6,0:0:0:0:
203,144,69150,1,0,0:0:0:0:
203,144,69225,1,0,0:0:0:0:
203,144,69300,1,4,0:0:0:0:
337,303,69450,1,0,0:0:0:0:
334,107,69600,5,8,0:0:0:0:
79,221,69750,1,0,0:0:0:0:
246,62,69900,1,4,0:0:0:0:
241,309,70050,1,0,0:0:0:0:
185,255,70200,6,0,P|144:240|109:247,1,71.9999980926514,2|0,0:0|0:0,0:0:0:0:
83,263,70650,1,0,0:0:0:0:
91,356,70800,2,0,L|66:82,1,270.000003147125,8|0,0:1|0:0,0:0:0:0:
129,22,71250,1,0,0:0:0:0:
388,75,71400,6,0,P|418:133|409:199,1,135.000001573563,6|0,0:0|0:0,0:0:0:0:
366,278,71700,2,2,P|321:212|330:140,1,135.000001573563,0|4,0:0|0:0,0:0:0:0:
451,115,72000,1,8,0:0:0:0:
241,104,72150,1,0,0:0:0:0:
408,199,72300,1,0,0:0:0:0:
252,23,72450,1,0,0:0:0:0:
227,183,72600,6,0,B|214:258|214:258|146:197|63:208|15:260,1,270.000003147125,6|0,0:0|0:0,0:0:0:0:
78,103,73050,1,0,0:0:0:0:
124,310,73200,6,0,P|214:348|273:330,1,135.000001573563,8|0,0:0|0:0,0:0:0:0:
454,314,73500,2,0,P|364:276|305:294,1,135.000001573563
238,125,73800,2,0,L|213:270,1,135.000001573563,6|0,0:0|0:0,0:0:0:0:
357,42,74100,2,0,L|379:175,1,135.000001573563,0|4,0:0|0:0,0:0:0:0:
396,280,74400,1,8,0:0:0:0:
127,179,74550,1,0,0:0:0:0:
200,348,74700,1,0,0:0:0:0:
464,48,74850,1,0,0:0:0:0:
414,256,75000,6,0,P|403:187|427:112,1,135.000001573563,6|0,0:0|0:0,0:0:0:0:
296,325,75300,2,0,P|307:256|283:181,1,135.000001573563
18,223,75600,2,0,B|105:122|105:122|255:111,1,270.000003147125,8|0,0:0|0:0,0:0:0:0:
339,105,76050,1,0,0:0:0:0:
199,262,76200,6,0,B|150:175|179:94|179:94|82:50,1,270.000003147125,6|0,0:0|0:0,0:0:0:0:
10,17,76650,1,4,0:0:0:0:
127,321,76800,6,0,P|218:363|289:231,1,270.000003147125,8|0,0:0|0:0,0:0:0:0:
261,161,77250,1,0,0:0:0:0:
468,294,77400,6,0,B|354:272|354:272|296:291|296:291|186:268,1,270.000003147125,6|0,0:0|0:0,0:0:0:0:
109,246,77850,1,0,0:0:0:0:
247,36,78000,6,0,P|130:67|188:173,1,270.000003147125,8|0,0:0|0:0,0:0:0:0:
336,148,78450,1,0,0:0:0:0:
257,284,78600,5,6,0:0:0:0:
388,263,78750,1,0,0:0:0:0:
388,263,78825,1,0,0:0:0:0:
388,263,78900,1,4,0:0:0:0:
173,150,79050,1,4,0:0:0:0:
350,76,79200,5,8,0:0:0:0:
43,251,79350,1,4,0:0:0:0:
267,34,79500,1,4,0:0:0:0:
342,337,79650,1,4,0:0:0:0:
87,67,79800,5,4,0:2:0:0:
256,192,80100,12,2,84600,0:0:0:0:
