osu file format v14

[General]
AudioFilename: audio.mp3
AudioLeadIn: 0
PreviewTime: 59940
Countdown: 0
SampleSet: None
StackLeniency: 0.7
Mode: 0
LetterboxInBreaks: 0
WidescreenStoryboard: 0

[Editor]
Bookmarks: 59190
DistanceSpacing: 1.2
BeatDivisor: 4
GridSize: 8
TimelineZoom: 1.3

[Metadata]
Title:Stronger
TitleUnicode:Stronger
Artist:Prismo
ArtistUnicode:Prismo
Creator:PeterEU
Version:Strength
Source:
Tags:EDM electronic dance music
BeatmapID:1510874
BeatmapSetID:715050

[Difficulty]
HPDrainRate:5
CircleSize:5
OverallDifficulty:7.8
ApproachRate:8
SliderMultiplier:1.7
SliderTickRate:1

[Events]
//Background and Video events
0,0,"alena-aenami-million-little-pieces-1k.jpg",0,0
//Break Periods
2,34533,47297
//Storyboard Layer 0 (Background)
//Storyboard Layer 1 (Fail)
//Storyboard Layer 2 (Pass)
//Storyboard Layer 3 (Foreground)
//Storyboard Sound Samples

[TimingPoints]
6905,428.571428571429,4,2,0,40,1,0
6905,-166.666666666667,4,2,0,40,0,0
11083,-166.666666666667,4,2,0,5,0,0
11190,-166.666666666667,4,2,0,40,0,0
20619,-142.857142857143,4,2,0,60,0,0
61762,-100,4,3,0,80,0,1
75958,-100,4,3,0,5,0,1
76119,-100,4,3,0,80,0,1
76172,-100,4,3,0,5,0,1
76333,-100,4,3,0,80,0,1
89190,-111.111111111111,4,2,0,80,0,0
102262,-111.111111111111,4,2,0,50,0,0
102476,-111.111111111111,4,2,0,80,0,0
120047,-100,4,2,0,5,0,0

[Colours]
Combo1 : 243,95,117
Combo2 : 255,62,62
Combo3 : 252,124,31

[HitObjects]
113,53,6905,6,0,P|120:108|109:162,1,101.999996887207,0|2,0:0|0:0,0:0:0:0:
94,228,7548,1,0,0:0:0:0:
150,279,7762,2,0,P|191:269|219:271,1,50.9999984436036,2|0,0:0|0:0,0:0:0:0:
267,233,8190,2,0,P|308:243|336:241,1,50.9999984436036,2|0,0:0|0:0,0:0:0:0:
196,91,8619,6,0,L|204:210,1,101.999996887207,2|2,0:0|0:0,0:0:0:0:
267,233,9262,1,0,0:0:0:0:
356,155,9476,2,0,P|397:149|460:167,1,101.999996887207,2|0,0:0|0:0,0:0:0:0:
213,290,10333,2,0,B|185:261|188:223,1,50.9999984436036
156,176,10762,6,0,P|105:195|66:186,1,76.4999976654053,2|0,0:0|0:0,0:0:0:0:
46,185,11190,2,0,L|52:293,1,101.999996887207,2|0,0:0|0:0,0:0:0:0:
156,176,12047,2,0,L|162:68,1,101.999996887207,2|2,0:0|0:0,0:0:0:0:
223,29,12690,5,0,0:0:0:0:
324,128,12905,2,0,P|374:109|392:46,1,101.999996887207,2|0,0:0|0:0,0:0:0:0:
325,56,13547,5,0,0:0:0:0:
260,171,13762,2,0,L|257:241,1,50.9999984436036
199,271,14190,2,0,P|244:300|304:285,1,101.999996887207,2|2,0:0|0:0,0:0:0:0:
176,191,15047,2,0,P|131:162|71:177,1,101.999996887207,2|2,0:0|0:0,0:0:0:0:
116,237,15690,5,0,0:0:0:0:
224,138,15905,2,0,L|223:73,1,50.9999984436036,2|0,0:0|0:0,0:0:0:0:
116,237,16333,2,0,L|115:302,1,50.9999984436036,2|0,0:0|0:0,0:0:0:0:
243,139,16762,2,0,L|242:74,1,50.9999984436036,2|0,0:0|0:0,0:0:0:0:
342,184,17190,6,0,L|340:307,1,101.999996887207,8|2,0:3|0:0,0:0:0:0:
216,144,18047,2,0,L|214:21,1,101.999996887207,0|2,0:0|0:0,0:0:0:0:
161,204,18905,6,0,P|240:222|275:206,1,101.999996887207,0|2,0:0|0:0,0:0:0:0:
336,64,19762,2,0,L|327:13,1,50.9999984436036,2|0,0:0|0:0,0:0:0:0:
224,95,20190,2,0,L|220:145,1,50.9999984436036,2|0,0:0|0:0,0:0:0:0:
154,66,20619,6,0,P|193:27|273:42,1,118.999996368408,0|2,0:0|0:0,0:0:0:0:
325,89,21262,1,0,0:0:0:0:
403,32,21476,2,0,P|436:29|464:32,1,59.4999981842042,2|0,0:0|0:0,0:0:0:0:
357,166,21905,2,0,P|324:169|296:166,1,59.4999981842042,2|0,0:0|0:0,0:0:0:0:
429,114,22333,6,0,L|431:249,1,118.999996368408,2|0,0:0|0:0,0:0:0:0:
380,289,22976,1,0,0:0:0:0:
302,223,23190,2,0,P|241:205|186:220,1,118.999996368408,2|0,0:0|0:0,0:0:0:0:
175,97,24047,6,0,P|168:55|172:36,1,59.4999981842042,2|0,0:0|0:0,0:0:0:0:
299,165,24476,2,0,P|306:193|302:223,1,59.4999981842042,2|0,0:0|0:0,0:0:0:0:
242,282,24905,2,0,P|303:305|362:284,1,118.999996368408,2|2,0:0|0:0,0:0:0:0:
203,363,25762,6,0,P|150:306|154:254,1,118.999996368408,2|2,0:0|0:0,0:0:0:0:
163,198,26405,1,0,0:0:0:0:
359,260,26619,2,0,L|242:281,1,118.999996368408,2|0,0:0|0:0,0:0:0:0:
385,366,27476,6,0,L|502:345,1,118.999996368408,0|2,0:0|0:0,0:0:0:0:
375,149,28333,2,0,P|377:108|394:77,1,59.4999981842042,2|0,0:0|0:0,0:0:0:0:
455,146,28762,2,0,P|452:186|435:217,1,59.4999981842042,2|0,0:0|0:0,0:0:0:0:
360,232,29190,6,0,P|295:211|238:232,1,118.999996368408,2|2,0:0|0:0,0:0:0:0:
300,297,29833,1,0,0:0:0:0:
213,317,30047,2,0,L|140:314,1,59.4999981842042,2|0,0:0|0:0,0:0:0:0:
280,380,30476,2,0,L|339:377,1,59.4999981842042,2|0,0:0|0:0,0:0:0:0:
419,336,30905,6,0,P|394:280|418:217,1,118.999996368408,0|2,0:0|0:0,0:0:0:0:
299,86,31762,2,0,L|231:93,1,59.4999981842042,4|0,0:3|0:0,0:0:0:0:
287,167,32190,2,0,L|355:174,1,59.4999981842042,4|0,0:3|0:0,0:0:0:0:
414,134,32619,5,0,0:0:0:0:
274,263,33047,2,0,L|153:248,1,118.999996368408,4|0,0:3|0:0,0:0:0:0:
46,118,33905,1,8,0:3:0:0:
131,338,34333,5,14,0:3:0:0:
66,349,48047,6,0,L|201:340,1,118.999996368408,2|2,0:0|0:0,0:0:0:0:
258,279,48690,1,0,0:0:0:0:
207,197,48905,2,0,P|208:141|213:126,1,59.4999981842042,2|0,0:0|0:0,0:0:0:0:
343,265,49333,2,0,P|341:320|336:335,1,59.4999981842042,2|0,0:0|0:0,0:0:0:0:
281,205,49762,6,0,P|329:181|393:198,1,118.999996368408,2|2,0:0|0:0,0:0:0:0:
458,243,50405,1,0,0:0:0:0:
508,147,50619,2,0,L|506:15,1,118.999996368408,2|0,0:0|0:0,0:0:0:0:
324,69,51476,6,0,L|251:62,1,59.4999981842042,2|0,0:0|0:0,0:0:0:0:
363,169,51905,2,0,L|436:162,1,59.4999981842042,2|0,0:0|0:0,0:0:0:0:
316,45,52333,2,0,L|243:38,1,59.4999981842042,2|0,0:0|0:0,0:0:0:0:
378,191,52762,2,0,L|451:184,1,59.4999981842042,2|0,0:0|0:0,0:0:0:0:
234,146,53190,5,2,0:0:0:0:
355,290,53619,1,2,0:0:0:0:
222,132,54047,2,0,L|95:139,1,118.999996368408,2|0,0:0|0:0,0:0:0:0:
353,93,54905,6,0,P|338:55|337:23,1,59.4999981842042,2|0,0:0|0:0,0:0:0:0:
423,52,55333,2,0,P|438:90|439:122,1,59.4999981842042,2|0,0:0|0:0,0:0:0:0:
331,174,55762,2,0,L|259:168,1,59.4999981842042,2|0,0:0|0:0,0:0:0:0:
363,282,56190,2,0,L|435:276,1,59.4999981842042,2|0,0:0|0:0,0:0:0:0:
268,335,56619,6,0,P|249:280|254:254,1,59.4999981842042,2|0,0:0|0:0,0:0:0:0:
312,118,57047,2,0,P|331:173|326:199,1,59.4999981842042,2|0,0:0|0:0,0:0:0:0:
165,248,57476,2,0,L|94:243,1,59.4999981842042,2|0,0:0|0:0,0:0:0:0:
168,105,57905,2,0,L|239:100,1,59.4999981842042,2|0,0:0|0:0,0:0:0:0:
81,21,58333,5,0,0:0:0:0:
40,211,58762,1,0,0:0:0:0:
156,133,59190,5,8,0:3:0:0:
47,220,59405,1,8,0:3:0:0:
150,229,59619,5,8,0:3:0:0:
20,100,59833,1,8,0:3:0:0:
162,240,60047,5,12,0:3:0:0:
261,145,60905,2,0,L|294:146,2,19.8333327280681
236,145,61119,1,4,0:3:0:0:
162,240,61333,1,4,0:3:0:0:
152,63,61547,1,8,3:0:0:0:
99,150,61762,6,0,L|-2:143,1,85
173,257,62190,2,0,L|274:250,1,85
347,175,62619,1,2,2:2:0:0:
298,324,62833,1,0,0:0:0:0:
259,226,63047,1,4,0:0:0:0:
308,347,63262,1,0,0:0:0:0:
388,262,63476,6,0,L|480:265,1,85
336,160,63905,2,0,L|244:163,1,85,4|0,0:3|0:0,0:0:0:0:
179,237,64333,1,4,0:3:0:0:
202,92,64547,1,0,0:0:0:0:
264,179,64762,1,0,0:0:0:0:
188,68,64976,1,0,0:0:0:0:
112,102,65190,6,0,P|104:60|116:20,1,85,4|0,0:3|0:0,0:0:0:0:
231,190,65619,2,0,P|242:231|233:274,1,85
190,354,66047,1,2,2:2:0:0:
71,293,66262,1,0,0:0:0:0:
202,242,66476,1,4,0:0:0:0:
55,302,66690,1,0,0:0:0:0:
156,206,66905,6,0,L|264:213,1,85
99,324,67333,2,0,L|-9:331,1,85,4|0,0:0|0:0,0:0:0:0:
159,227,67762,1,4,0:0:0:0:
221,358,67976,1,0,0:0:0:0:
148,203,68190,1,0,0:0:0:0:
243,263,68404,1,0,0:0:0:0:
120,290,68619,6,0,P|124:350|128:385,1,85,4|0,0:3|0:0,0:0:0:0:
256,247,69047,2,0,P|260:187|264:152,1,85
203,74,69476,1,2,2:2:0:0:
331,115,69690,1,0,0:0:0:0:
197,191,69904,1,4,0:0:0:0:
350,104,70119,1,0,0:0:0:0:
245,50,70333,6,0,P|170:45|139:51,1,85
308,175,70762,2,0,P|383:180|414:174,1,85,4|0,0:0|0:0,0:0:0:0:
510,144,71190,1,4,0:0:0:0:
433,101,71404,1,0,0:0:0:0:
485,239,71619,1,0,0:0:0:0:
424,81,71833,1,0,0:0:0:0:
369,200,72047,6,0,L|375:295,1,85,4|0,0:0|0:0,0:0:0:0:
506,133,72476,2,0,L|512:38,1,85,0|4,0:0|0:0,0:0:0:0:
444,186,72905,1,2,2:2:0:0:
405,56,73119,1,0,0:0:0:0:
358,145,73333,1,4,0:0:0:0:
416,37,73547,1,0,0:0:0:0:
299,76,73762,6,0,P|263:70|211:68,1,85
66,184,74190,2,0,P|102:190|154:192,1,85,4|0,0:0|0:0,0:0:0:0:
252,189,74619,1,4,0:0:0:0:
117,102,74833,1,0,0:0:0:0:
165,275,75047,1,4,0:0:0:0:
165,182,75262,1,0,0:0:0:0:
62,275,75476,5,12,0:0:0:0:
70,285,75905,6,0,L|109:284,1,21.25,2|0,2:2|2:2,0:0:0:0:
181,229,76119,2,0,L|219:230,1,21.25,2|0,2:2|2:2,0:0:0:0:
352,310,76333,2,0,L|441:305,1,85,12|0,0:0|0:0,0:0:0:0:
311,378,76762,1,4,0:0:0:0:
352,233,76976,1,0,0:0:0:0:
263,291,77190,6,0,P|205:296|159:286,1,85
308,165,77619,2,0,P|365:159|411:169,1,85,4|0,0:0|0:0,0:0:0:0:
496,197,78047,1,4,0:0:0:0:
453,109,78262,1,0,0:0:0:0:
424,257,78476,1,0,0:0:0:0:
459,84,78690,1,0,0:0:0:0:
350,184,78905,6,0,L|250:179,1,85,4|0,0:0|0:0,0:0:0:0:
394,348,79333,2,0,L|494:343,1,85,0|4,0:0|0:0,0:0:0:0:
291,264,79762,1,2,2:2:0:0:
395,365,79976,1,0,0:0:0:0:
394,255,80190,1,4,0:0:0:0:
397,384,80405,1,0,0:0:0:0:
284,253,80619,6,0,L|277:156,1,85
155,19,81047,2,0,L|148:116,1,85,4|0,0:0|0:0,0:0:0:0:
142,197,81476,1,4,0:0:0:0:
77,83,81690,1,0,0:0:0:0:
37,230,81905,1,0,0:0:0:0:
84,59,82119,1,0,0:0:0:0:
181,114,82333,6,0,P|225:111|286:114,1,85,4|0,0:0|0:0,0:0:0:0:
404,233,82762,2,0,P|360:236|299:233,1,85
464,164,83190,1,2,2:2:0:0:
447,324,83405,1,0,0:0:0:0:
393,216,83619,1,4,0:0:0:0:
458,344,83833,1,0,0:0:0:0:
491,227,84047,6,0,L|497:136,1,85
358,277,84476,2,0,L|364:368,1,85,4|0,0:0|0:0,0:0:0:0:
423,234,84905,1,4,0:0:0:0:
286,317,85119,1,0,0:0:0:0:
428,317,85333,1,0,0:0:0:0:
264,317,85547,1,0,0:0:0:0:
338,218,85762,6,0,P|381:211|430:214,1,85,4|0,0:0|0:0,0:0:0:0:
243,317,86190,2,0,P|199:323|151:321,1,85,0|4,0:0|0:0,0:0:0:0:
62,286,86619,1,2,2:2:0:0:
137,245,86833,1,0,0:0:0:0:
90,382,87047,1,4,0:0:0:0:
145,223,87262,1,0,0:0:0:0:
40,270,87476,6,0,L|30:157,1,85
162,54,87905,2,0,L|152:167,1,85,4|0,0:0|0:0,0:0:0:0:
145,223,88333,1,4,0:0:0:0:
89,132,88547,1,0,0:0:0:0:
191,143,88762,1,0,0:0:0:0:
65,127,88976,1,0,0:0:0:0:
145,223,89190,6,0,B|219:250|237:198|306:226,1,152.999995330811,8|2,0:3|0:0,0:0:0:0:
374,254,89833,1,0,0:0:0:0:
437,203,90047,2,0,L|443:117,1,76.4999976654053,2|0,0:0|0:0,0:0:0:0:
327,32,90476,2,0,L|333:118,1,76.4999976654053,2|0,0:0|0:0,0:0:0:0:
212,203,90905,6,0,L|218:117,1,76.4999976654053,2|0,0:0|0:0,0:0:0:0:
102,32,91334,2,0,L|108:118,1,76.4999976654053,2|0,0:0|0:0,0:0:0:0:
141,253,91762,2,0,P|90:198|17:203,1,152.999995330811,4|0,0:3|0:0,0:0:0:0:
58,285,92405,1,0,0:0:0:0:
160,343,92619,6,0,L|243:337,1,76.4999976654053,2|0,0:0|0:0,0:0:0:0:
331,242,93047,2,0,L|254:236,1,76.4999976654053,2|0,0:0|0:0,0:0:0:0:
160,139,93476,2,0,L|243:133,1,76.4999976654053,2|0,0:0|0:0,0:0:0:0:
331,38,93904,2,0,L|254:32,1,76.4999976654053,2|0,0:0|0:0,0:0:0:0:
330,161,94333,6,0,L|406:155,1,76.4999976654053,2|0,0:0|0:0,0:0:0:0:
498,54,94762,2,0,L|421:48,1,76.4999976654053,2|0,0:0|0:0,0:0:0:0:
267,125,95190,2,0,P|278:213|341:235,1,152.999995330811,2|2,0:0|0:0,0:0:0:0:
330,161,95833,1,0,0:0:0:0:
243,291,96047,6,0,L|77:285,1,152.999995330811,2|0,0:0|0:0,0:0:0:0:
16,230,96690,1,2,0:0:0:0:
91,176,96905,2,0,P|98:125|89:95,1,76.4999976654053,2|0,0:0|0:0,0:0:0:0:
10,246,97333,2,0,P|3:297|12:327,1,76.4999976654053,2|0,0:0|0:0,0:0:0:0:
99,284,97762,6,0,B|177:313|178:261|266:293,1,152.999995330811,2|2,0:0|0:0,0:0:0:0:
216,365,98405,1,0,0:0:0:0:
146,225,98619,2,0,L|158:52,1,152.999995330811,4|2,0:3|0:0,0:0:0:0:
225,11,99262,1,2,0:0:0:0:
321,114,99476,6,0,P|395:119|445:45,1,152.999995330811,4|0,0:3|0:0,0:0:0:0:
361,44,100119,1,0,0:0:0:0:
258,178,100333,2,0,L|263:334,1,152.999995330811,2|4,0:0|0:3,0:0:0:0:
181,374,100976,1,0,0:0:0:0:
133,295,101190,6,0,P|80:251|-22:283,1,152.999995330811,0|4,0:0|0:3,0:0:0:0:
54,332,101833,1,0,0:0:0:0:
177,227,102047,2,0,P|186:184|179:128,1,76.4999976654053,4|8,0:3|0:3,0:0:0:0:
112,16,102476,2,0,P|103:59|110:115,1,76.4999976654053,2|0,0:2|0:0,0:0:0:0:
274,66,102905,6,0,L|357:68,1,76.4999976654053,2|0,0:0|0:0,0:0:0:0:
437,167,103333,2,0,L|354:169,1,76.4999976654053,2|0,0:0|0:0,0:0:0:0:
274,266,103762,2,0,L|357:268,1,76.4999976654053,2|0,0:0|0:0,0:0:0:0:
435,369,104190,2,0,L|352:371,1,76.4999976654053,2|0,0:0|0:0,0:0:0:0:
182,308,104619,6,0,P|232:181|223:169,1,152.999995330811,2|2,0:0|0:0,0:0:0:0:
159,224,105262,1,0,0:0:0:0:
342,144,105476,2,0,B|421:119|421:172|500:143,1,152.999995330811,4|0,0:3|0:0,0:0:0:0:
456,77,106119,1,0,0:0:0:0:
382,220,106333,6,0,L|389:310,1,76.4999976654053,2|0,0:0|0:0,0:0:0:0:
274,194,106762,2,0,L|281:104,1,76.4999976654053,2|0,0:0|0:0,0:0:0:0:
169,221,107190,2,0,L|176:311,1,76.4999976654053,2|0,0:0|0:0,0:0:0:0:
61,195,107619,2,0,L|68:105,1,76.4999976654053,2|0,0:0|0:0,0:0:0:0:
199,82,108047,6,0,B|280:55|279:104|360:77,1,152.999995330811,2|2,0:0|0:0,0:0:0:0:
435,45,108690,1,0,0:0:0:0:
490,143,108905,2,0,L|492:302,1,152.999995330811,4|2,0:3|0:0,0:0:0:0:
401,336,109547,1,0,0:0:0:0:
318,279,109762,6,0,L|225:275,1,76.4999976654053,2|0,0:0|0:0,0:0:0:0:
164,169,110190,2,0,L|257:165,1,76.4999976654053,2|0,0:0|0:0,0:0:0:0:
319,293,110619,2,0,L|226:289,1,76.4999976654053,2|0,0:0|0:0,0:0:0:0:
168,180,111047,2,0,L|261:176,1,76.4999976654053,2|0,0:0|0:0,0:0:0:0:
97,249,111476,6,0,P|60:188|94:111,1,152.999995330811,2|4,0:0|0:3,0:0:0:0:
152,51,112119,1,0,0:0:0:0:
263,108,112333,2,0,L|426:101,1,152.999995330811,4|0,0:3|0:0,0:0:0:0:
489,46,112976,1,2,0:0:0:0:
511,171,113190,6,0,B|483:246|539:245|503:323,1,152.999995330811,4|0,0:3|0:0,0:0:0:0:
433,271,113833,1,0,0:0:0:0:
322,337,114047,2,0,L|140:331,1,152.999995330811,2|0,0:0|0:0,0:0:0:0:
86,291,114690,1,0,0:0:0:0:
151,226,114905,6,0,P|151:162|138:129,1,76.4999976654053,2|0,0:0|0:0,0:0:0:0:
19,52,115333,2,0,P|18:115|31:148,1,76.4999976654053,4|0,0:3|0:0,0:0:0:0:
103,85,115762,2,0,P|162:83|268:81,1,152.999995330811,4|0,0:3|0:0,0:0:0:0:
340,78,116405,1,0,0:0:0:0:
256,192,116619,5,8,0:3:0:0:
256,192,116833,12,0,120047,0:0:0:0:
