osu file format v14

[General]
AudioFilename: audio.mp3
AudioLeadIn: 0
PreviewTime: 59940
Countdown: 0
SampleSet: None
StackLeniency: 0.7
Mode: 0
LetterboxInBreaks: 0
WidescreenStoryboard: 0

[Editor]
DistanceSpacing: 1
BeatDivisor: 4
GridSize: 4
TimelineZoom: 1

[Metadata]
Title:Stronger
TitleUnicode:Stronger
Artist:Prismo
ArtistUnicode:Prismo
Creator:PeterEU
Version:Normal
Source:
Tags:EDM electronic dance music
BeatmapID:1510873
BeatmapSetID:715050

[Difficulty]
HPDrainRate:4
CircleSize:4
OverallDifficulty:4
ApproachRate:5
SliderMultiplier:0.999999999999999
SliderTickRate:1

[Events]
//Background and Video events
0,0,"alena-aenami-million-little-pieces-1k.jpg",0,0
//Break Periods
2,34533,46847
//Storyboard Layer 0 (Background)
//Storyboard Layer 1 (Fail)
//Storyboard Layer 2 (Pass)
//Storyboard Layer 3 (Foreground)
//Storyboard Sound Samples

[TimingPoints]
6905,428.571428571429,4,2,0,40,1,0
6905,-100,4,2,0,40,0,0
20619,-100,4,2,0,60,0,0
61762,-95.2380952380952,4,3,0,80,0,1
89190,-100,4,2,0,75,0,0
120047,-100,4,2,0,5,0,0

[Colours]
Combo1 : 243,95,117
Combo2 : 255,62,62
Combo3 : 252,124,31

[HitObjects]
23,139,6904,6,0,B|142:133,1,99.9999999999999,0|2,0:0|0:0,0:0:0:0:
207,80,7762,2,0,B|326:86,1,99.9999999999999,2|2,0:0|0:0,0:0:0:0:
403,59,8619,1,2,0:0:0:0:
463,138,9047,1,2,0:0:0:0:
424,228,9477,2,0,P|437:278|424:332,1,99.9999999999999,2|0,0:0|0:0,0:0:0:0:
341,273,10333,6,0,L|232:273,1,99.9999999999999,0|2,0:0|0:0,0:0:0:0:
176,349,11190,2,0,L|70:349,1,99.9999999999999,2|2,0:0|0:0,0:0:0:0:
10,273,12047,1,2,0:0:0:0:
68,192,12476,2,0,P|50:140|73:80,1,99.9999999999999,2|2,0:0|0:0,0:0:0:0:
132,28,13333,1,0,0:0:0:0:
213,80,13762,6,0,B|266:62|268:95|330:73,1,99.9999999999999,0|2,0:0|0:0,0:0:0:0:
410,90,14619,2,0,L|404:210,1,99.9999999999999,2|2,0:0|0:0,0:0:0:0:
315,235,15476,2,0,L|321:355,1,99.9999999999999,2|2,0:0|0:0,0:0:0:0:
227,371,16333,1,2,0:0:0:0:
143,316,16762,1,2,0:0:0:0:
57,367,17190,6,0,P|43:317|61:259,1,99.9999999999999,8|2,0:3|0:0,0:0:0:0:
95,180,18047,1,0,0:0:0:0:
191,213,18476,2,0,L|291:204,1,99.9999999999999,2|0,0:0|0:0,0:0:0:0:
353,125,19333,2,0,L|453:134,1,99.9999999999999,2|2,0:0|0:0,0:0:0:0:
504,219,20190,1,2,0:0:0:0:
403,222,20619,5,0,0:0:0:0:
452,308,21047,2,0,P|406:321|354:309,1,99.9999999999999,2|2,0:0|0:0,0:0:0:0:
269,360,21905,2,0,P|215:349|162:360,1,99.9999999999999,2|2,0:0|0:0,0:0:0:0:
73,334,22762,1,0,0:0:0:0:
26,245,23190,2,0,L|26:137,1,99.9999999999999,2|0,0:0|0:0,0:0:0:0:
126,147,24047,6,0,L|125:255,1,99.9999999999999,2|2,0:0|0:0,0:0:0:0:
211,297,24905,2,0,P|261:285|322:297,1,99.9999999999999,2|2,0:0|0:0,0:0:0:0:
399,334,25762,2,0,P|449:346|510:334,1,99.9999999999999,2|2,0:0|0:0,0:0:0:0:
451,250,26619,2,0,L|457:134,1,99.9999999999999,2|0,0:0|0:0,0:0:0:0:
428,54,27476,5,0,0:0:0:0:
335,91,27905,2,0,P|285:94|224:80,1,99.9999999999999,2|2,0:0|0:0,0:0:0:0:
141,52,28762,2,0,P|91:49|30:63,1,99.9999999999999,2|2,0:0|0:0,0:0:0:0:
97,142,29619,1,2,0:0:0:0:
28,214,30047,2,0,L|36:336,1,99.9999999999999,2|2,0:0|0:0,0:0:0:0:
114,374,30905,6,0,P|175:355|229:367,1,99.9999999999999,0|2,0:0|0:0,0:0:0:0:
308,378,31762,1,4,0:3:0:0:
361,293,32190,2,0,L|361:172,1,99.9999999999999,4|0,0:3|0:0,0:0:0:0:
261,187,33047,2,0,L|261:308,1,99.9999999999999,4|0,0:3|0:0,0:0:0:0:
177,343,33905,1,8,0:3:0:0:
90,293,34333,5,14,0:3:0:0:
272,25,48047,6,0,L|259:138,1,99.9999999999999,2|2,0:0|0:0,0:0:0:0:
326,200,48905,2,0,L|339:313,1,99.9999999999999,2|2,0:0|0:0,0:0:0:0:
260,363,49762,1,2,0:0:0:0:
167,325,50190,2,0,P|106:309|55:326,1,99.9999999999999,2|2,0:0|0:0,0:0:0:0:
19,232,51047,1,0,0:0:0:0:
71,146,51476,6,0,L|184:142,1,99.9999999999999,2|2,0:0|0:0,0:0:0:0:
256,91,52333,2,0,P|274:136|257:201,1,99.9999999999999,2|2,0:0|0:0,0:0:0:0:
303,278,53190,1,2,0:0:0:0:
388,226,53619,2,0,P|459:222|496:254,1,99.9999999999999,2|2,0:0|0:0,0:0:0:0:
429,321,54476,1,0,0:0:0:0:
347,379,54905,6,0,L|238:374,1,99.9999999999999,2|2,0:0|0:0,0:0:0:0:
176,304,55762,2,0,P|123:322|62:310,1,99.9999999999999,2|2,0:0|0:0,0:0:0:0:
4,252,56619,1,2,0:0:0:0:
92,208,57047,2,0,L|96:103,1,99.9999999999999,2|2,0:0|0:0,0:0:0:0:
180,56,57905,1,2,0:0:0:0:
258,119,58333,6,0,P|311:128|369:106,1,99.9999999999999,0|0,0:0|0:0,0:0:0:0:
451,89,59190,2,0,L|457:160,1,50,8|8,0:3|0:3,0:0:0:0:
427,180,59619,2,0,L|434:252,1,50,8|8,0:3|0:3,0:0:0:0:
414,276,60047,1,12,0:3:0:0:
149,296,61119,2,0,L|92:294,2,50,4|8|4,0:3|0:3|0:3,0:0:0:0:
186,259,61762,6,0,P|155:220|158:152,1,104.999996795654
171,117,62405,1,0,0:0:0:0:
171,117,62619,2,0,L|279:117,1,104.999996795654,2|4,2:2|0:0,0:0:0:0:
372,75,63476,2,0,P|388:131|365:181,1,104.999996795654,0|4,0:0|0:3,0:0:0:0:
276,216,64333,2,0,P|268:276|287:319,1,104.999996795654,4|0,0:3|0:0,0:0:0:0:
370,255,65190,6,0,P|420:246|475:268,1,104.999996795654,4|0,0:3|0:0,0:0:0:0:
507,300,65833,1,0,0:0:0:0:
507,300,66047,2,0,P|486:252|498:202,1,104.999996795654,2|4,2:2|0:0,0:0:0:0:
427,124,66905,2,0,L|301:129,1,104.999996795654,0|4,0:0|0:0,0:0:0:0:
237,190,67762,2,0,L|111:185,1,104.999996795654,4|0,0:0|0:0,0:0:0:0:
36,139,68619,6,0,P|22:186|55:256,1,104.999996795654,4|0,0:3|0:0,0:0:0:0:
74,275,69262,1,0,0:0:0:0:
74,275,69476,2,0,P|90:322|63:390,1,104.999996795654,2|4,2:2|0:0,0:0:0:0:
180,365,70333,2,0,L|303:375,1,104.999996795654,0|4,0:0|0:0,0:0:0:0:
363,303,71190,2,0,L|486:293,1,104.999996795654,4|0,0:0|0:0,0:0:0:0:
490,193,72047,6,0,P|454:148|459:81,1,104.999996795654,4|0,0:0|0:0,0:0:0:0:
466,51,72690,1,4,0:0:0:0:
466,51,72905,2,0,B|413:31|412:71|344:46,1,104.999996795654,2|4,2:2|0:0,0:0:0:0:
264,15,73762,2,0,L|154:21,1,104.999996795654,0|4,0:0|0:0,0:0:0:0:
73,81,74619,2,0,P|93:137|71:197,1,104.999996795654,4|4,0:0|0:0,0:0:0:0:
68,283,75476,6,0,L|193:283,1,104.999996795654,12|2,0:0|2:2,0:0:0:0:
225,283,76119,1,2,2:2:0:0:
225,283,76333,2,0,P|231:332|283:374,1,104.999996795654,12|4,0:0|0:0,0:0:0:0:
361,319,77190,2,0,L|481:323,1,104.999996795654,0|4,0:0|0:0,0:0:0:0:
486,219,78047,2,0,L|366:223,1,104.999996795654,4|0,0:0|0:0,0:0:0:0:
296,159,78905,6,0,P|320:103|295:49,1,104.999996795654,4|0,0:0|0:0,0:0:0:0:
279,19,79547,1,4,0:0:0:0:
279,19,79762,2,0,L|175:19,1,104.999996795654,2|4,2:2|0:0,0:0:0:0:
108,102,80619,2,0,L|212:102,1,104.999996795654,0|4,0:0|0:0,0:0:0:0:
292,170,81476,2,0,P|276:234|296:290,1,104.999996795654,4|0,0:0|0:0,0:0:0:0:
331,365,82333,6,0,L|211:365,1,104.999996795654,4|0,0:0|0:0,0:0:0:0:
173,363,82976,1,0,0:0:0:0:
173,363,83190,2,0,P|189:319|173:259,1,104.999996795654,2|4,2:2|0:0,0:0:0:0:
123,173,84047,2,0,P|107:129|123:69,1,104.999996795654,0|4,0:0|0:0,0:0:0:0:
217,34,84905,2,0,P|233:78|217:138,1,104.999996795654,4|0,0:0|0:0,0:0:0:0:
298,203,85762,6,0,L|422:199,1,104.999996795654,4|0,0:0|0:0,0:0:0:0:
455,203,86405,1,4,0:0:0:0:
455,203,86619,2,0,P|443:255|471:315,1,104.999996795654,2|4,2:2|0:0,0:0:0:0:
374,364,87476,2,0,L|266:360,1,104.999996795654,0|4,0:0|0:0,0:0:0:0:
187,295,88333,2,0,L|79:299,1,104.999996795654,4|0,0:0|0:0,0:0:0:0:
20,224,89190,6,0,P|12:164|36:116,1,99.9999999999999,8|2,0:3|0:0,0:0:0:0:
72,40,90047,1,2,0:0:0:0:
164,80,90476,1,2,0:0:0:0:
256,36,90905,2,0,L|372:40,1,99.9999999999999,2|2,0:0|0:0,0:0:0:0:
336,136,91762,2,0,L|220:140,1,99.9999999999999,4|0,0:3|0:0,0:0:0:0:
157,77,92619,6,0,P|133:133|145:181,1,99.9999999999999,2|2,0:0|0:0,0:0:0:0:
216,234,93476,2,0,P|240:290|228:338,1,99.9999999999999,2|2,0:0|0:0,0:0:0:0:
140,290,94333,1,2,0:0:0:0:
80,370,94762,1,2,0:0:0:0:
20,289,95190,2,0,L|20:169,1,99.9999999999999,2|2,0:0|0:0,0:0:0:0:
106,138,96047,6,0,B|160:124|160:152|225:135,1,99.9999999999999,2|0,0:0|0:0,0:0:0:0:
300,109,96905,2,0,L|416:115,1,99.9999999999999,2|2,0:0|0:0,0:0:0:0:
446,202,97762,2,0,L|330:208,1,99.9999999999999,2|2,0:0|0:0,0:0:0:0:
247,190,98619,1,4,0:3:0:0:
175,259,99047,1,2,0:0:0:0:
116,178,99476,6,0,L|121:76,1,99.9999999999999,4|0,0:3|0:0,0:0:0:0:
27,115,100333,2,0,L|32:217,1,99.9999999999999,2|4,0:0|0:3,0:0:0:0:
99,288,101190,1,0,0:0:0:0:
183,234,101619,1,4,0:3:0:0:
265,290,102047,2,0,P|311:301|366:293,1,99.9999999999999,4|2,0:3|0:0,0:0:0:0:
449,243,102905,6,0,L|458:131,1,99.9999999999999,2|2,0:0|0:0,0:0:0:0:
359,119,103762,2,0,L|349:9,1,99.9999999999999,2|2,0:0|0:0,0:0:0:0:
261,65,104619,1,2,0:0:0:0:
169,25,105047,1,2,0:0:0:0:
102,99,105476,2,0,B|83:154|119:153|98:211,1,99.9999999999999,4|0,0:3|0:0,0:0:0:0:
167,273,106333,6,0,P|214:254|284:265,1,99.9999999999999,2|2,0:0|0:0,0:0:0:0:
354,295,107190,2,0,P|399:313|449:311,1,99.9999999999999,2|2,0:0|0:0,0:0:0:0:
413,218,108047,1,2,0:0:0:0:
464,132,108476,1,2,0:0:0:0:
386,68,108905,2,0,L|267:66,1,99.9999999999999,4|2,0:3|0:0,0:0:0:0:
194,25,109762,6,0,P|186:90|215:133,1,99.9999999999999,2|2,0:0|0:0,0:0:0:0:
290,163,110619,2,0,P|298:228|269:271,1,99.9999999999999,2|2,0:0|0:0,0:0:0:0:
207,322,111476,1,2,0:0:0:0:
127,261,111905,1,4,0:3:0:0:
28,279,112333,2,0,L|32:172,1,99.9999999999999,4|0,0:3|0:0,0:0:0:0:
114,123,113190,6,0,P|174:140|228:128,1,99.9999999999999,4|0,0:3|0:0,0:0:0:0:
299,180,114047,2,0,P|359:163|413:175,1,99.9999999999999,2|0,0:0|0:0,0:0:0:0:
481,216,114905,1,2,0:0:0:0:
482,117,115333,2,0,L|483:11,2,99.9999999999999,4|4|0,0:3|0:3|0:0,0:0:0:0:
481,216,116619,5,8,0:3:0:0:
256,192,117047,12,0,120047,0:0:0:0:
