osu file format v14

[General]
AudioFilename: audio.mp3
AudioLeadIn: 0
PreviewTime: 59979
Countdown: 1
SampleSet: Soft
StackLeniency: 0.2
Mode: 0
LetterboxInBreaks: 0
WidescreenStoryboard: 1

[Editor]
Bookmarks: 5189,52118,58761
DistanceSpacing: 1.2
BeatDivisor: 4
GridSize: 8
TimelineZoom: 1.2

[Metadata]
Title:Stronger
TitleUnicode:Stronger
Artist:Prismo
ArtistUnicode:Prismo
Creator:AquaTail
Version:Stronger
Source:
Tags:
BeatmapID:2187247
BeatmapSetID:1046281

[Difficulty]
HPDrainRate:7
CircleSize:4.2
OverallDifficulty:7
ApproachRate:9.5
SliderMultiplier:2.2
SliderTickRate:1

[Events]
//Background and Video events
0,0,"bab9c9b149b654c89e9850a251c76d60.jpg",0,0
//Break Periods
2,44749,47454
2,147607,149454
//Storyboard Layer 0 (Background)
//Storyboard Layer 1 (Fail)
//Storyboard Layer 2 (Pass)
//Storyboard Layer 3 (Foreground)
//Storyboard Layer 4 (Overlay)
//Storyboard Sound Samples

[TimingPoints]
-21,428.571428571429,4,2,0,20,1,0
-21,-125,4,2,0,20,0,0
407,-125,4,2,0,25,0,0
836,-125,4,2,0,30,0,0
1264,-125,4,2,0,35,0,0
1693,-125,4,2,0,40,0,0
2121,-125,4,2,0,45,0,0
2550,-125,4,2,0,50,0,0
2979,-125,4,2,0,55,0,0
3407,-125,4,2,0,60,0,0
6836,-83.3333333333334,4,2,0,60,0,0
7479,-142.857142857143,4,2,0,60,0,0
8979,-142.857142857143,4,2,1,70,0,0
9086,-142.857142857143,4,2,0,60,0,0
10264,-142.857142857143,4,2,1,70,0,0
10371,-142.857142857143,4,2,0,60,0,0
12407,-142.857142857143,4,2,1,70,0,0
12514,-142.857142857143,4,2,0,60,0,0
13264,-142.857142857143,4,2,1,70,0,0
13371,-142.857142857143,4,2,0,60,0,0
13693,-142.857142857143,4,2,1,70,0,0
13800,-142.857142857143,4,2,0,60,0,0
15836,-142.857142857143,4,2,1,70,0,0
15943,-142.857142857143,4,2,0,60,0,0
17121,-142.857142857143,4,2,1,70,0,0
17229,-142.857142857143,4,2,0,60,0,0
19050,-142.857142857143,4,2,1,50,0,0
19264,-142.857142857143,4,2,1,70,0,0
19371,-142.857142857143,4,2,0,60,0,0
19907,-142.857142857143,4,2,1,50,0,0
20121,-333.333333333334,4,2,1,70,0,0
20229,-142.857142857143,4,2,0,60,0,0
20550,-76.9230769230769,4,2,0,60,0,0
20979,-142.857142857143,4,2,0,60,0,0
21407,-142.857142857143,4,2,1,70,0,0
21514,-142.857142857143,4,2,0,60,0,0
22693,-142.857142857143,4,2,1,70,0,0
22800,-142.857142857143,4,2,0,60,0,0
23121,-142.857142857143,4,2,1,70,0,0
23229,-142.857142857143,4,2,0,60,0,0
23979,-142.857142857143,4,2,1,70,0,0
24086,-142.857142857143,4,2,0,60,0,0
24836,-142.857142857143,4,2,1,70,0,0
24943,-142.857142857143,4,2,0,60,0,0
26121,-142.857142857143,4,2,1,70,0,0
26229,-142.857142857143,4,2,0,60,0,0
26550,-142.857142857143,4,2,1,70,0,0
26657,-142.857142857143,4,2,0,60,0,0
26979,-142.857142857143,4,2,1,70,0,0
27086,-142.857142857143,4,2,0,60,0,0
28264,-142.857142857143,4,2,1,70,0,0
28371,-142.857142857143,4,2,0,60,0,0
29550,-142.857142857143,4,2,1,70,0,0
29657,-142.857142857143,4,2,0,60,0,0
29979,-142.857142857143,4,2,1,70,0,0
30086,-142.857142857143,4,2,0,60,0,0
30836,-142.857142857143,4,2,1,70,0,0
30943,-142.857142857143,4,2,0,60,0,0
31693,-142.857142857143,4,2,1,70,0,0
31800,-142.857142857143,4,2,0,60,0,0
32979,-142.857142857143,4,2,1,70,0,0
33086,-142.857142857143,4,2,0,60,0,0
33407,-142.857142857143,4,2,1,70,0,0
33514,-142.857142857143,4,2,0,60,0,0
33836,-142.857142857143,4,2,1,70,0,0
33943,-142.857142857143,4,2,0,60,0,0
34264,-500.000000000003,4,2,1,80,0,0
34371,-500.000000000003,4,2,0,30,0,0
37693,-333.333333333333,4,2,0,30,0,0
41121,-250,4,2,0,30,0,0
47979,-142.857142857143,4,2,1,70,0,0
48086,-142.857142857143,4,2,0,60,0,0
48836,-142.857142857143,4,2,1,70,0,0
48943,-142.857142857143,4,2,0,60,0,0
50121,-142.857142857143,4,2,1,70,0,0
50229,-142.857142857143,4,2,0,60,0,0
50550,-142.857142857143,4,2,1,70,0,0
50657,-142.857142857143,4,2,0,60,0,0
51407,-142.857142857143,4,2,1,70,0,0
51514,-142.857142857143,4,2,0,60,0,0
52264,-142.857142857143,4,2,1,70,0,0
52371,-142.857142857143,4,2,0,60,0,0
53550,-142.857142857143,4,2,1,70,0,0
53657,-142.857142857143,4,2,0,60,0,0
53979,-142.857142857143,4,2,1,70,0,0
54086,-142.857142857143,4,2,0,60,0,0
54407,-142.857142857143,4,2,1,70,0,0
54514,-142.857142857143,4,2,1,60,0,0
54836,-142.857142857143,4,2,0,60,0,0
56979,-142.857142857143,4,2,1,70,0,0
57086,-142.857142857143,4,2,0,60,0,0
58264,-142.857142857143,4,2,1,70,0,0
58371,-142.857142857143,4,2,0,60,0,0
60836,-125,4,2,0,60,0,0
61050,-125,4,2,2,70,0,0
61157,-125,4,2,0,60,0,0
61264,-125,4,2,3,70,0,0
61479,-125,4,2,2,70,0,0
61586,-125,4,2,0,60,0,0
61693,-100,4,2,3,90,0,1
61800,-100,4,2,0,80,0,1
62550,-100,4,2,2,90,0,1
62657,-100,4,2,0,80,0,1
62979,-100,4,2,3,90,0,1
63086,-100,4,2,0,80,0,1
63836,-100,4,2,3,90,0,1
63943,-100,4,2,0,80,0,1
64264,-100,4,2,2,90,0,1
64371,-100,4,2,0,80,0,1
65121,-100,4,2,3,90,0,1
65229,-100,4,2,0,80,0,1
65764,-100,4,2,3,90,0,1
65979,-100,4,2,2,90,0,1
66086,-100,4,2,0,80,0,1
66407,-100,4,2,3,90,0,1
66514,-100,4,2,0,80,0,1
67264,-100,4,2,3,90,0,1
67371,-100,4,2,0,80,0,1
67693,-100,4,2,2,90,0,1
67800,-100,4,2,0,80,0,1
68550,-100,4,2,3,90,0,1
68657,-100,4,2,0,80,0,1
69407,-100,4,2,2,90,0,1
69514,-100,4,2,0,80,0,1
69836,-100,4,2,3,90,0,1
69943,-100,4,2,0,80,0,1
70693,-100,4,2,3,90,0,1
70800,-100,4,2,0,80,0,1
71121,-100,4,2,2,90,0,1
71229,-100,4,2,0,80,0,1
71979,-100,4,2,3,90,0,1
72086,-100,4,2,0,80,0,1
72621,-100,4,2,3,90,0,1
72836,-100,4,2,2,90,0,1
72943,-100,4,2,0,80,0,1
73264,-100,4,2,3,90,0,1
73371,-100,4,2,0,80,0,1
74121,-100,4,2,3,90,0,1
74229,-100,4,2,0,80,0,1
74550,-100,4,2,2,90,0,1
74657,-100,4,2,0,80,0,1
74979,-100,4,2,2,90,0,1
75086,-100,4,2,0,80,0,1
75407,-100,4,2,3,90,0,1
75514,-100,4,2,0,80,0,1
75836,-66.6666666666667,4,2,0,80,0,1
76264,-66.6666666666667,4,2,2,90,0,1
76371,-100,4,2,0,80,0,1
76693,-100,4,2,3,90,0,1
76800,-100,4,2,0,80,0,1
77550,-100,4,2,3,90,0,1
77657,-100,4,2,0,80,0,1
77979,-100,4,2,2,90,0,1
78086,-100,4,2,0,80,0,1
78836,-100,4,2,3,90,0,1
78943,-100,4,2,0,80,0,1
79479,-100,4,2,3,90,0,1
79693,-100,4,2,2,90,0,1
79800,-100,4,2,0,80,0,1
80121,-100,4,2,3,90,0,1
80229,-100,4,2,0,80,0,1
80979,-100,4,2,3,90,0,1
81086,-100,4,2,0,80,0,1
81407,-100,4,2,2,90,0,1
81514,-100,4,2,0,80,0,1
82264,-100,4,2,3,90,0,1
82371,-100,4,2,0,80,0,1
83121,-100,4,2,2,90,0,1
83229,-100,4,2,0,80,0,1
83550,-100,4,2,3,90,0,1
83657,-100,4,2,0,80,0,1
84407,-100,4,2,3,90,0,1
84514,-100,4,2,0,80,0,1
84836,-100,4,2,2,90,0,1
84943,-100,4,2,0,80,0,1
85693,-100,4,2,3,90,0,1
85800,-100,4,2,0,80,0,1
86336,-100,4,2,3,90,0,1
86550,-100,4,2,2,90,0,1
86657,-100,4,2,0,80,0,1
86979,-100,4,2,3,90,0,1
87086,-100,4,2,0,80,0,1
87836,-100,4,2,3,90,0,1
87943,-100,4,2,0,80,0,1
88264,-90.9090909090909,4,2,2,90,0,1
88371,-100,4,2,0,80,0,1
88479,-100,4,2,3,70,0,1
88693,-100,4,2,3,90,0,1
88800,-100,4,2,0,80,0,1
89121,-100,4,2,3,90,0,1
89229,-100,4,2,0,80,0,1
89979,-100,4,2,2,90,0,1
90086,-100,4,2,0,80,0,1
90407,-100,4,2,3,90,0,1
90514,-100,4,2,0,80,0,1
91264,-100,4,2,3,90,0,1
91371,-100,4,2,0,80,0,1
91693,-100,4,2,2,90,0,1
91800,-100,4,2,0,80,0,1
91907,-100,4,2,3,90,0,1
92014,-100,4,2,0,80,0,1
92550,-100,4,2,3,90,0,1
92657,-100,4,2,0,80,0,1
93193,-100,4,2,3,90,0,1
93407,-100,4,2,2,90,0,1
93514,-100,4,2,0,80,0,1
93836,-100,4,2,3,90,0,1
93943,-100,4,2,0,80,0,1
94693,-100,4,2,3,90,0,1
94800,-100,4,2,0,80,0,1
95121,-100,4,2,2,90,0,1
95229,-100,4,2,0,80,0,1
95336,-100,4,2,3,90,0,1
95443,-100,4,2,0,80,0,1
95979,-100,4,2,3,90,0,1
96086,-100,4,2,0,80,0,1
96836,-100,4,2,2,90,0,1
96943,-100,4,2,0,80,0,1
97264,-100,4,2,3,90,0,1
97371,-100,4,2,0,80,0,1
98121,-100,4,2,3,90,0,1
98229,-100,4,2,0,80,0,1
98550,-100,4,2,2,90,0,1
98657,-100,4,2,0,80,0,1
99407,-100,4,2,3,90,0,1
99514,-100,4,2,0,80,0,1
100264,-100,4,2,2,90,0,1
100371,-100,4,2,0,80,0,1
100693,-100,4,2,3,90,0,1
100800,-100,4,2,0,80,0,1
101550,-100,4,2,3,90,0,1
101657,-100,4,2,0,80,0,1
101979,-100,4,2,2,90,0,1
102086,-100,4,2,0,80,0,1
102407,-100,4,2,2,90,0,1
102514,-100,4,2,0,80,0,1
102836,-100,4,2,3,90,0,1
102943,-100,4,2,0,80,0,1
103693,-100,4,2,2,90,0,1
103800,-100,4,2,0,80,0,1
104121,-100,4,2,3,90,0,1
104229,-100,4,2,0,80,0,1
104979,-100,4,2,3,90,0,1
105086,-100,4,2,0,80,0,1
105407,-100,4,2,2,90,0,1
105514,-100,4,2,0,80,0,1
106264,-100,4,2,3,90,0,1
106371,-100,4,2,0,80,0,1
106907,-100,4,2,3,90,0,1
107121,-100,4,2,2,90,0,1
107229,-100,4,2,0,80,0,1
107550,-100,4,2,3,90,0,1
107657,-100,4,2,0,80,0,1
108407,-100,4,2,3,90,0,1
108514,-100,4,2,0,80,0,1
108836,-100,4,2,2,90,0,1
108943,-100,4,2,0,80,0,1
109693,-100,4,2,3,90,0,1
109800,-100,4,2,0,80,0,1
110550,-100,4,2,2,90,0,1
110657,-100,4,2,0,80,0,1
110979,-100,4,2,3,90,0,1
111086,-100,4,2,0,80,0,1
111836,-100,4,2,3,90,0,1
111943,-100,4,2,0,80,0,1
112264,-100,4,2,2,90,0,1
112371,-100,4,2,0,80,0,1
113121,-100,4,2,3,90,0,1
113229,-100,4,2,0,80,0,1
113764,-90.9090909090909,4,2,0,80,0,1
113979,-100,4,2,2,90,0,1
114086,-100,4,2,0,80,0,1
114407,-100,4,2,3,90,0,1
114514,-100,4,2,0,80,0,1
115264,-100,4,2,3,90,0,1
115371,-100,4,2,0,80,0,1
115693,-100,4,2,2,90,0,1
115821,-100,4,2,0,80,0,1
116550,-142.857142857143,4,2,1,40,0,0
118479,-142.857142857143,4,2,1,20,0,0
118586,-142.857142857143,4,2,0,30,0,0
118693,-142.857142857143,4,2,1,40,0,0
118800,-142.857142857143,4,2,0,30,0,0
119979,-142.857142857143,4,2,1,40,0,0
120086,-142.857142857143,4,2,0,30,0,0
121907,-142.857142857143,4,2,1,20,0,0
122121,-142.857142857143,4,2,1,40,0,0
122229,-142.857142857143,4,2,0,30,0,0
122550,-142.857142857143,4,2,1,10,0,0
122657,-142.857142857143,4,2,0,30,0,0
122764,-142.857142857143,4,2,1,20,0,0
122979,-142.857142857143,4,2,1,40,0,0
123086,-142.857142857143,4,2,0,30,0,0
123407,-142.857142857143,4,2,1,40,0,0
123514,-142.857142857143,4,2,0,30,0,0
125550,-142.857142857143,4,2,1,40,0,0
125657,-142.857142857143,4,2,0,30,0,0
126836,-142.857142857143,4,2,1,40,0,0
126943,-142.857142857143,4,2,0,30,0,0
128764,-142.857142857143,4,2,1,20,0,0
128871,-142.857142857143,4,2,0,30,0,0
128979,-142.857142857143,4,2,1,40,0,0
129086,-142.857142857143,4,2,0,30,0,0
129407,-142.857142857143,4,2,1,10,0,0
129514,-142.857142857143,4,2,0,30,0,0
129621,-142.857142857143,4,2,1,20,0,0
129836,-142.857142857143,4,2,1,40,0,0
129943,-142.857142857143,4,2,0,30,0,0
130264,-142.857142857143,4,2,1,40,0,0
130371,-142.857142857143,4,2,0,30,0,0
132193,-142.857142857143,4,2,1,20,0,0
132407,-142.857142857143,4,2,1,40,0,0
132514,-142.857142857143,4,2,0,30,0,0
133693,-142.857142857143,4,2,1,40,0,0
133800,-142.857142857143,4,2,0,30,0,0
135621,-142.857142857143,4,2,1,20,0,0
135836,-125,4,2,1,40,0,0
135943,-125,4,2,0,30,0,0
136264,-166.666666666667,4,2,0,30,0,0
136693,-250.000000000001,4,2,1,40,0,0
136800,-250.000000000001,4,2,0,30,0,0
137121,-333.333333333333,4,2,1,40,0,0
137229,-333.333333333333,4,2,0,30,0,0
140550,-200,4,2,0,30,0,0
143979,-333.333333333333,4,2,0,30,0,0
149979,-250.000000000001,4,2,0,30,0,0
150193,-250.000000000001,4,2,1,20,0,0
150300,-250.000000000001,4,2,0,30,0,0
150407,-250.000000000001,4,2,1,40,0,0
150514,-250.000000000001,4,2,0,30,0,0
150836,-142.857142857143,4,2,1,40,0,0
150943,-142.857142857143,4,2,0,30,0,0
151693,-142.857142857143,4,2,1,40,0,0
151800,-142.857142857143,4,2,0,30,0,0
152979,-142.857142857143,4,2,1,40,0,0
153086,-142.857142857143,4,2,0,30,0,0
153407,-142.857142857143,4,2,1,40,0,0
153514,-142.857142857143,4,2,0,30,0,0
154264,-142.857142857143,4,2,1,40,0,0
154371,-142.857142857143,4,2,0,30,0,0
155121,-142.857142857143,4,2,1,40,0,0
155229,-142.857142857143,4,2,0,30,0,0
156407,-142.857142857143,4,2,1,40,0,0
156514,-142.857142857143,4,2,0,30,0,0
156836,-142.857142857143,4,2,1,40,0,0
156943,-142.857142857143,4,2,0,30,0,0
157264,-142.857142857143,4,2,1,40,0,0
157371,-142.857142857143,4,2,0,30,0,0
157693,-250.000000000001,4,2,0,65,0,0
158550,-250.000000000001,4,2,1,75,0,0
158657,-250.000000000001,4,2,0,65,0,0
158979,-166.666666666667,4,2,0,70,0,0
159836,-166.666666666667,4,2,1,40,0,0
159943,-166.666666666667,4,2,0,30,0,0
160264,-166.666666666667,4,2,1,40,0,0
160371,-166.666666666667,4,2,0,30,0,0
161121,-166.666666666667,4,2,1,40,0,0
161229,-166.666666666667,4,2,0,70,0,0
161979,-166.666666666667,4,2,1,80,0,0
162086,-166.666666666667,4,2,0,70,0,0
163907,-166.666666666667,4,2,2,80,0,0
164121,-83.3333333333334,4,2,3,90,0,0
164336,-83.3333333333334,4,2,2,90,0,0
164550,-71.4285714285714,4,2,3,90,0,1
164657,-71.4285714285714,4,2,0,80,0,1
164979,-62.5,4,2,0,80,0,1
165193,-62.5,4,2,3,90,0,1
165300,-62.5,4,2,0,80,0,1
165407,-100,4,2,2,90,0,1
165514,-100,4,2,0,80,0,1
165836,-100,4,2,3,90,0,1
165943,-100,4,2,0,80,0,1
166693,-100,4,2,3,90,0,1
166800,-100,4,2,0,80,0,1
167121,-76.9230769230769,4,2,2,90,0,1
167229,-76.9230769230769,4,2,0,80,0,1
167979,-100,4,2,3,90,0,1
168086,-100,4,2,0,80,0,1
168621,-100,4,2,3,90,0,1
168729,-100,4,2,0,80,0,1
168836,-100,4,2,2,90,0,1
168943,-100,4,2,0,80,0,1
169264,-100,4,2,3,90,0,1
169371,-100,4,2,0,80,0,1
170121,-100,4,2,3,90,0,1
170229,-100,4,2,0,80,0,1
170550,-76.9230769230769,4,2,2,90,0,1
170657,-76.9230769230769,4,2,0,80,0,1
170764,-76.9230769230769,4,2,3,90,0,1
170871,-76.9230769230769,4,2,0,80,0,1
171407,-100,4,2,3,90,0,1
171514,-100,4,2,0,80,0,1
171836,-76.9230769230769,4,2,0,80,0,1
172050,-76.9230769230769,4,2,3,90,0,1
172157,-76.9230769230769,4,2,0,80,0,1
172264,-76.9230769230769,4,2,2,90,0,1
172371,-76.9230769230769,4,2,0,80,0,1
172693,-76.9230769230769,4,2,3,90,0,1
172800,-76.9230769230769,4,2,0,80,0,1
173550,-76.9230769230769,4,2,3,90,0,1
173657,-76.9230769230769,4,2,0,80,0,1
173979,-76.9230769230769,4,2,2,90,0,1
174086,-76.9230769230769,4,2,0,80,0,1
174836,-100,4,2,3,90,0,1
174943,-100,4,2,0,80,0,1
175479,-100,4,2,3,90,0,1
175586,-100,4,2,0,80,0,1
175693,-100,4,2,2,90,0,1
175800,-100,4,2,0,80,0,1
176121,-100,4,2,3,90,0,1
176229,-100,4,2,0,80,0,1
176979,-100,4,2,3,90,0,1
177086,-100,4,2,0,80,0,1
177407,-100,4,2,2,90,0,1
177514,-100,4,2,0,80,0,1
177621,-100,4,2,3,90,0,1
177836,-100,4,2,2,90,0,1
177943,-100,4,2,0,80,0,1
178264,-55.5555555555556,4,2,0,80,0,1
179121,-100,4,2,2,90,0,1
179229,-100,4,2,0,80,0,1
179550,-100,4,2,3,90,0,1
179657,-100,4,2,0,80,0,1
180407,-100,4,2,3,90,0,1
180514,-100,4,2,0,80,0,1
180836,-76.9230769230769,4,2,2,90,0,1
180943,-76.9230769230769,4,2,0,80,0,1
181264,-100,4,2,0,80,0,1
181693,-100,4,2,3,90,0,1
181800,-100,4,2,0,80,0,1
182121,-76.9230769230769,4,2,0,80,0,1
182336,-76.9230769230769,4,2,3,90,0,1
182443,-76.9230769230769,4,2,0,80,0,1
182550,-100,4,2,2,90,0,1
182657,-100,4,2,2,80,0,1
182979,-100,4,2,3,90,0,1
183086,-100,4,2,0,80,0,1
183836,-100,4,2,3,90,0,1
183943,-100,4,2,0,80,0,1
184264,-100,4,2,2,90,0,1
184371,-100,4,2,0,80,0,1
184479,-100,4,2,3,90,0,1
184693,-76.9230769230769,4,2,0,80,0,1
185121,-76.9230769230769,4,2,3,90,0,1
185229,-76.9230769230769,4,2,0,80,0,1
185550,-100,4,2,0,80,0,1
185979,-100,4,2,2,90,0,1
186086,-100,4,2,2,90,0,1
186407,-166.666666666667,4,2,3,90,0,1
186514,-166.666666666667,4,2,0,80,0,1
186836,-125,4,2,0,80,0,1
187264,-100,4,2,3,90,0,1
187371,-100,4,2,0,80,0,1
187693,-83.3333333333333,4,2,2,90,0,1
187800,-83.3333333333333,4,2,0,80,0,1
188550,-83.3333333333333,4,2,3,90,0,1
188657,-83.3333333333333,4,2,0,80,0,1
188979,-100,4,2,0,80,0,1
189193,-100,4,2,3,90,0,1
189300,-100,4,2,0,80,0,1
189407,-100,4,2,2,90,0,1
189514,-100,4,2,0,80,0,1
189836,-100,4,2,3,90,0,1
189943,-100,4,2,0,80,0,1
190693,-100,4,2,3,90,0,1
190800,-100,4,2,0,80,0,1
191121,-100,4,2,2,90,0,1
191229,-100,4,2,0,80,0,0
191550,-100,4,2,3,90,0,0
191657,-100,4,2,3,80,0,0
191979,-142.857142857143,4,2,0,30,0,0

[HitObjects]
311,173,407,6,0,P|251:186|214:172,1,88,0|0,0:0|0:0,0:0:0:0:
251,21,836,2,0,P|258:73|241:106,1,88
153,278,1264,2,0,P|144:227|152:189,1,88,0|0,0:0|0:0,0:0:0:0:
325,147,1693,2,0,B|365:176|365:176|370:240,1,88,0|0,0:0|0:0,0:0:0:0:
359,354,2121,2,0,B|319:325|319:325|314:261,1,88,0|0,0:0|0:0,0:0:0:0:
197,268,2550,2,0,B|226:228|226:228|264:224,1,88,0|0,0:0|0:0,0:0:0:0:
460,238,2979,6,0,B|431:278|431:278|392:281,1,88,0|0,0:0|0:0,0:0:0:0:
269,27,3407,2,0,L|301:126,1,88,0|0,0:0|0:0,0:0:0:0:
398,230,3836,2,0,L|366:131,1,88,0|0,0:0|0:0,0:0:0:0:
470,45,4264,2,0,L|371:77,1,88,0|0,0:0|0:0,0:0:0:0:
214,216,4693,2,0,L|313:184,1,88,0|0,0:0|0:0,0:0:0:0:
111,136,5121,6,0,P|70:142|33:180,3,88,0|0|0|0,0:0|0:0|0:0|0:0,0:0:0:0:
178,246,5979,6,0,P|140:238|100:202,3,88,0|0|0|0,0:0|0:0|0:0|0:0,0:0:0:0:
439,175,6836,2,0,B|313:107|315:233|172:163,1,263.99999194336,4|0,0:0|0:0,0:0:0:0:
201,25,7479,1,0,0:0:0:0:
234,100,7693,2,0,P|273:130|279:166,1,76.9999976501466
186,169,8121,1,0,0:0:0:0:
234,100,8550,2,0,B|312:115|312:115|408:93,1,153.999995300293,0|8,0:0|0:0,0:0:0:0:
437,30,9193,1,0,0:0:0:0:
506,165,9407,2,0,B|494:112|512:66|512:66|500:97|462:102,1,153.999995300293,0|0,0:0|0:0,0:0:0:0:
510,250,10264,1,12,0:0:0:0:
358,267,10693,6,0,P|287:275|233:216,1,153.999995300293,0|0,0:0|0:0,0:0:0:0:
312,123,11336,1,0,0:0:0:0:
312,123,11550,2,0,B|310:199,1,76.9999976501466,0|0,0:0|0:0,0:0:0:0:
374,85,11979,6,0,P|314:48|247:87,2,153.999995300293,0|8|0,0:0|0:0|0:0,0:0:0:0:
190,198,13264,6,0,B|113:217|113:217|38:198,1,153.999995300293,12|12,0:0|0:0,0:0:0:0:
249,86,13907,1,0,0:0:0:0:
375,188,14121,2,0,P|392:251|481:256,1,153.999995300293
372,113,14979,2,0,P|418:125|445:163,1,76.9999976501466,0|0,0:0|0:0,0:0:0:0:
351,257,15407,2,0,P|313:271|223:214,1,153.999995300293,0|8,0:0|0:0,0:0:0:0:
229,324,16050,5,0,0:0:0:0:
98,151,16264,2,0,B|178:183|180:121|260:152,1,153.999995300293,0|0,0:0|0:0,0:0:0:0:
351,257,16907,1,0,0:0:0:0:
312,112,17121,6,0,P|285:84|237:76,1,76.9999976501466,8|0,0:0|0:0,0:0:0:0:
393,174,17550,2,0,P|424:154|465:155,1,76.9999976501466,0|0,0:0|0:0,0:0:0:0:
351,257,17979,2,0,P|298:299|215:260,1,153.999995300293,0|0,0:0|0:0,0:0:0:0:
351,257,18621,5,0,0:0:0:0:
166,227,18836,2,0,P|196:204|234:201,1,76.9999976501466,0|8,0:0|0:0,0:0:0:0:
153,302,19264,2,0,P|86:327|9:283,1,153.999995300293,8|4,0:0|0:0,0:0:0:0:
123,134,19907,5,8,0:0:0:0:
265,202,20121,2,0,L|220:205,1,32.99999899292,8|0,0:0|0:0,0:0:0:0:
281,200,20550,2,0,B|372:179|406:143|406:143|436:186|535:221,1,285.99998690796,4|0,0:0|0:0,0:0:0:0:
406,142,21407,2,0,P|392:77|464:33,1,153.999995300293,2|0,0:0|0:0,0:0:0:0:
490,153,22050,1,0,0:0:0:0:
387,247,22264,2,0,B|308:214|309:270|231:237,1,153.999995300293,0|2,0:0|0:0,0:0:0:0:
243,113,23121,2,0,P|277:97|315:100,1,76.9999976501466,2|0,0:0|0:0,0:0:0:0:
237,239,23550,6,0,P|171:276|99:257,1,153.999995300293,0|12,0:0|0:0,0:0:0:0:
237,239,24193,1,0,0:0:0:0:
134,329,24407,2,0,B|132:285|98:257|98:257|119:220|103:156,1,153.999995300293,0|2,0:0|0:0,0:0:0:0:
213,83,25264,2,0,L|188:160,1,76.9999976501466,0|0,0:0|0:0,0:0:0:0:
292,84,25693,2,0,L|318:1,1,76.9999976501466,0|0,0:0|0:0,0:0:0:0:
342,152,26121,2,0,P|406:124|481:163,1,153.999995300293,8|2,0:0|0:0,0:0:0:0:
315,10,26764,5,0,0:0:0:0:
192,160,26979,2,0,B|261:184|272:122|363:160,1,153.999995300293,8|4,0:0|0:0,0:0:0:0:
224,94,27836,6,0,P|183:87|148:100,1,76.9999976501466,0|0,0:0|0:0,0:0:0:0:
262,173,28264,1,2,0:0:0:0:
341,75,28479,2,0,L|342:185,1,76.9999976501466,0|0,0:0|0:0,0:0:0:0:
344,277,28907,1,0,0:0:0:0:
207,344,29121,2,0,B|259:337|268:303|268:303|276:340|349:358,1,153.999995300293,0|8,0:0|0:0,0:0:0:0:
200,270,29979,2,0,P|158:261|119:278,1,76.9999976501466,2|0,0:0|0:0,0:0:0:0:
101,193,30407,1,0,0:0:0:0:
223,115,30836,2,0,P|262:147|267:188,1,76.9999976501466,12|0,0:0|0:0,0:0:0:0:
146,87,31264,6,0,P|107:100|65:83,1,76.9999976501466
217,28,31693,2,0,B|267:35|256:8|318:39,1,76.9999976501466,2|0,0:0|0:0,0:0:0:0:
302,182,32121,2,0,P|316:253|260:321,1,153.999995300293,0|0,0:0|0:0,0:0:0:0:
221,198,32764,1,0,0:0:0:0:
270,315,32979,2,0,P|205:277|134:300,1,153.999995300293,8|2,0:0|0:0,0:0:0:0:
302,182,33621,5,0,0:0:0:0:
221,198,33836,5,8,0:0:0:0:
185,185,33943,1,0,0:0:0:0:
147,190,34050,1,0,0:0:0:0:
109,197,34157,1,0,0:0:0:0:
71,185,34264,2,0,B|77:131|123:122|123:122|161:85|156:44|156:44|168:83|213:109|213:109|241:99|265:103,1,308,12|0,0:0|0:0,0:0:0:0:
373,191,37693,2,0,B|370:224|342:250|342:250|333:286|336:315|336:315|326:289|296:265|296:265|264:253|244:229|244:229|258:202|266:165|266:165|244:135|257:98,1,395.999987915039
366,37,41121,2,0,B|379:85|349:99|349:99|368:108|376:126|376:126|365:160|373:192,1,176,0|0,0:0|0:0,0:0:0:0:
461,298,42836,2,0,B|450:302|424:299|404:289|390:277|390:277|379:277|379:277|377:264|377:264|366:242|362:218|369:194|376:182,1,176,0|0,0:0|0:0,0:0:0:0:
350,99,44121,2,0,B|318:96|310:83|310:83|306:97|272:107,1,88,0|0,0:0|0:0,0:0:0:0:
76,103,47979,6,0,P|111:85|179:100,1,76.9999976501466,12|0,0:0|0:0,0:0:0:0:
278,135,48407,6,0,P|231:146|196:137,1,76.9999976501466,0|0,0:0|0:0,0:0:0:0:
327,72,48836,2,0,B|358:63|383:78|383:78|390:63|405:51|405:51|430:69|471:65,1,153.999995300293,2|0,0:0|0:0,0:0:0:0:
352,215,49693,2,0,P|345:181|348:136,1,76.9999976501466,0|0,0:0|0:0,0:0:0:0:
426,246,50121,2,0,P|370:292|291:266,1,153.999995300293,8|2,0:0|0:0,0:0:0:0:
296,272,50979,2,0,P|334:292|372:291,1,76.9999976501466,0|0,0:0|0:0,0:0:0:0:
271,132,51407,6,0,P|256:195|298:274,1,153.999995300293,12|0,0:0|0:0,0:0:0:0:
147,323,52264,6,0,P|191:317|218:288,1,76.9999976501466,2|0,0:0|0:0,0:0:0:0:
112,248,52693,6,0,P|67:253|40:282,1,76.9999976501466,0|0,0:0|0:0,0:0:0:0:
258,201,53121,6,0,P|331:171|335:98,1,153.999995300293,0|8,0:0|0:0,0:0:0:0:
163,223,53764,5,0,0:0:0:0:
243,127,53979,6,0,P|173:151|163:224,1,153.999995300293,2|8,0:0|0:0,0:0:0:0:
212,72,54836,5,12,0:0:0:0:
146,265,55050,1,0,0:0:0:0:
303,197,55264,1,4,0:0:0:0:
55,140,55479,1,0,0:0:0:0:
276,365,55693,1,4,0:0:0:0:
342,53,55907,1,0,0:0:0:0:
44,225,56121,1,4,0:0:0:0:
359,323,56336,1,0,0:0:0:0:
270,19,56550,5,4,0:0:0:0:
75,313,56764,1,0,0:0:0:0:
444,182,56979,1,12,0:0:0:0:
113,59,57193,1,0,0:0:0:0:
168,365,57407,1,4,0:0:0:0:
270,19,57621,1,0,0:0:0:0:
6,173,57836,1,4,0:0:0:0:
397,172,58050,5,0,0:0:0:0:
302,266,58264,1,12,0:0:0:0:
335,283,58371,1,0,0:0:0:0:
374,284,58479,1,0,0:0:0:0:
408,268,58586,1,0,0:0:0:0:
432,238,58693,1,4,0:0:0:0:
408,209,58800,1,0,0:0:0:0:
397,172,58907,1,0,0:0:0:0:
400,134,59014,5,0,0:0:0:0:
384,100,59121,2,0,P|382:58|398:9,4,76.9999976501466,12|0|4|0|12,0:0|0:0|0:0|0:0|0:0,0:0:0:0:
193,237,60836,5,4,0:0:0:0:
193,237,60943,1,0,0:0:0:0:
193,237,61050,1,8,0:0:0:0:
306,50,61264,1,8,0:0:0:0:
327,303,61479,1,8,0:0:0:0:
102,194,61693,2,0,P|89:138|113:78,1,110,12|0,0:0|0:0,0:0:0:0:
276,190,62121,2,0,P|331:202|389:174,1,110
306,50,62550,2,0,B|248:50|197:33|197:33|160:68|79:99,1,220,2|12,0:0|0:0,0:0:0:0:
134,238,63193,5,0,0:0:0:0:
306,50,63407,1,4,0:0:0:0:
405,289,63621,1,0,0:0:0:0:
158,107,63836,1,12,0:0:0:0:
252,334,64050,1,0,0:0:0:0:
427,160,64264,1,12,0:0:0:0:
214,42,64479,1,0,0:0:0:0:
134,238,64693,1,4,0:0:0:0:
367,216,64907,1,0,0:0:0:0:
164,321,65121,6,0,L|53:309,1,110,12|0,0:0|0:0,0:0:0:0:
134,238,65550,6,0,L|244:249,1,110,0|8,0:0|0:0,0:0:0:0:
512,166,65979,5,2,0:0:0:0:
311,45,66193,1,0,0:0:0:0:
305,282,66407,1,12,0:0:0:0:
512,60,66621,1,0,0:0:0:0:
267,117,66836,1,4,0:0:0:0:
425,314,67050,1,0,0:0:0:0:
413,24,67264,1,12,0:0:0:0:
223,189,67479,1,0,0:0:0:0:
512,167,67693,2,0,B|455:158|455:158|405:174,1,110,12|0,0:0|0:0,0:0:0:0:
267,117,68121,2,0,B|314:92|314:92|369:104,1,110,4|0,0:0|0:0,0:0:0:0:
211,303,68550,6,0,B|315:351|315:261|435:318,1,220,12|0,0:0|0:0,0:0:0:0:
461,155,69193,5,0,0:0:0:0:
394,384,69407,1,6,0:0:0:0:
261,209,69621,5,0,0:0:0:0:
512,220,69836,1,4,0:0:0:0:
380,17,70050,1,0,0:0:0:0:
326,267,70264,1,4,0:0:0:0:
504,51,70479,1,0,0:0:0:0:
255,31,70693,1,12,0:0:0:0:
512,220,70907,1,0,0:0:0:0:
245,149,71121,2,0,P|202:177|189:243,1,110,12|0,0:0|0:0,0:0:0:0:
198,373,71550,2,0,P|241:345|254:279,1,110,4|0,0:0|0:0,0:0:0:0:
245,149,71979,5,12,0:0:0:0:
388,336,72193,1,0,0:0:0:0:
476,135,72407,1,4,0:0:0:0:
261,296,72621,1,8,0:0:0:0:
355,79,72836,1,6,0:0:0:0:
484,250,73050,1,0,0:0:0:0:
245,149,73264,1,12,0:0:0:0:
309,372,73479,1,0,0:0:0:0:
99,292,73693,5,4,0:0:0:0:
325,216,73907,1,0,0:0:0:0:
152,96,74121,1,12,0:0:0:0:
221,296,74336,5,0,0:0:0:0:
238,145,74550,6,0,P|178:133|151:92,1,110,12|0,0:0|0:0,0:0:0:0:
348,88,74979,6,0,P|385:49|438:47,1,110,12|0,0:0|0:0,0:0:0:0:
405,263,75407,2,0,B|456:285|475:238|535:274,1,110,8|0,0:0|0:0,0:0:0:0:
405,263,75836,6,0,P|365:245|320:267,1,82.5000031471254,0|0,0:0|0:0,0:0:0:0:
255,251,76050,6,0,P|293:268|340:247,1,82.5000031471254
358,325,76264,2,0,B|408:359|478:357|531:259|471:197|422:180|422:180|429:155|413:133,1,330.000012588501,6|12,0:0|0:0,0:0:0:0:
249,35,76907,5,0,0:0:0:0:
255,251,77121,1,4,0:0:0:0:
415,136,77336,1,0,0:0:0:0:
174,86,77550,1,12,0:0:0:0:
353,224,77764,1,0,0:0:0:0:
341,18,77979,1,12,0:0:0:0:
156,194,78193,1,0,0:0:0:0:
415,136,78407,1,0,0:0:0:0:
173,9,78621,1,0,0:0:0:0:
353,224,78836,2,0,P|371:284|348:326,1,110,12|0,0:0|0:0,0:0:0:0:
239,143,79264,6,0,B|217:93|217:93|254:24,1,110,0|8,0:0|0:0,0:0:0:0:
438,256,79693,2,0,B|383:264|352:224|352:224|346:252|325:257|325:257|284:227|224:263,1,220,2|12,0:0|0:0,0:0:0:0:
197,96,80336,5,0,0:0:0:0:
146,297,80550,1,4,0:0:0:0:
349,211,80764,1,0,0:0:0:0:
111,172,80979,1,12,0:0:0:0:
268,337,81193,1,0,0:0:0:0:
280,17,81407,1,12,0:0:0:0:
227,214,81621,1,0,0:0:0:0:
439,126,81836,1,4,0:0:0:0:
187,45,82050,5,0,0:0:0:0:
36,189,82264,6,0,P|64:234|117:247,1,110,12|0,0:0|0:0,0:0:0:0:
227,214,82693,2,0,P|252:167|243:114,1,110
36,189,83121,5,6,0:0:0:0:
227,214,83336,1,0,0:0:0:0:
112,348,83550,1,12,0:0:0:0:
172,144,83764,1,0,0:0:0:0:
241,346,83979,1,4,0:0:0:0:
372,159,84193,1,0,0:0:0:0:
198,244,84407,1,12,0:0:0:0:
436,290,84621,1,0,0:0:0:0:
296,55,84836,1,12,0:0:0:0:
282,270,85050,1,0,0:0:0:0:
257,127,85264,6,0,P|192:121|148:144,1,110
310,194,85693,2,0,P|389:199|487:90,1,220,12|0,0:0|0:0,0:0:0:0:
296,55,86336,5,8,0:0:0:0:
320,353,86550,1,2,0:0:0:0:
417,189,86764,1,0,0:0:0:0:
214,192,86979,1,8,0:0:0:0:
414,328,87193,1,0,0:0:0:0:
403,102,87407,5,0,0:0:0:0:
248,266,87621,1,0,0:0:0:0:
498,196,87836,1,8,0:0:0:0:
313,47,88050,1,0,0:0:0:0:
335,307,88264,1,12,0:0:0:0:
335,307,88371,1,0,0:0:0:0:
335,307,88479,1,8,0:0:0:0:
288,152,88693,1,8,0:0:0:0:
512,210,89121,6,0,B|447:207|414:258|414:258|370:211|291:227,1,220,12|0,0:0|0:0,0:0:0:0:
229,326,89764,1,0,0:0:0:0:
128,194,89979,6,0,P|101:254|135:315,1,110,2|0,0:0|0:0,0:0:0:0:
67,149,90407,2,0,P|122:118|181:139,1,110,8|0,0:0|0:0,0:0:0:0:
318,225,90836,2,0,B|327:171|296:138|296:138|325:124|330:99|330:99|312:72|327:26,1,220,0|8,0:0|0:0,0:0:0:0:
244,197,91479,5,0,0:0:0:0:
390,60,91693,6,0,P|441:19|484:32,1,110,8|8,0:0|0:0,0:0:0:0:
443,183,92121,2,0,B|349:236|349:236|228:191,1,220,0|12,0:0|0:0,0:0:0:0:
341,99,92764,5,0,0:0:0:0:
308,274,92979,2,0,B|349:237|349:237|391:272,1,110,0|8,0:0|0:0,0:0:0:0:
96,299,93407,2,0,B|166:279|166:279|239:296|239:296|315:271,1,220,2|8,0:0|0:0,0:0:0:0:
207,93,94264,6,0,P|172:138|176:195,1,110,0|0,0:0|0:0,0:0:0:0:
224,280,94693,1,8,0:0:0:0:
224,280,94907,1,0,0:0:0:0:
173,188,95121,2,0,P|227:172|295:207,2,110,8|8|0,0:0|0:0|0:0,0:0:0:0:
275,188,95979,2,0,B|265:135|265:135|293:87,1,110,8|0,0:0|0:0,0:0:0:0:
326,280,96407,2,0,P|395:265|443:309,1,110,0|0,0:0|0:0,0:0:0:0:
447,147,96836,1,2,0:0:0:0:
322,59,97050,5,0,0:0:0:0:
253,196,97264,2,0,P|355:211|451:142,1,220,8|0,0:0|0:0,0:0:0:0:
283,111,98121,6,0,B|237:144|237:144|254:200,1,110,8|0,0:0|0:0,0:0:0:0:
422,299,98550,6,0,B|364:209|364:209|242:193,1,220,8|0,0:0|0:0,0:0:0:0:
126,284,99193,1,0,0:0:0:0:
126,284,99407,6,0,P|84:233|119:85,1,220,12|0,0:0|0:0,0:0:0:0:
183,176,100050,1,0,0:0:0:0:
128,183,100157,1,0,0:0:0:0:
74,191,100264,1,2,0:0:0:0:
126,284,100479,5,0,0:0:0:0:
281,156,100693,1,8,0:0:0:0:
111,91,100907,1,0,0:0:0:0:
254,276,101121,6,0,B|331:258|331:258|385:278|385:278|479:256,1,220,0|8,0:0|0:0,0:0:0:0:
470,139,101764,1,0,0:0:0:0:
352,80,101979,6,0,B|352:112|352:112|336:128|336:128|350:151|350:151|352:192,1,110,8|0,0:0|0:0,0:0:0:0:
229,33,102407,6,0,B|229:65|229:65|245:81|245:81|231:104|231:104|229:145,1,110,8|0,0:0|0:0,0:0:0:0:
105,260,102836,6,0,B|161:263|200:307|200:307|242:264|309:251,1,220,12|0,0:0|0:0,0:0:0:0:
391,159,103479,1,0,0:0:0:0:
257,75,103693,6,0,L|253:187,1,110,2|0,0:0|0:0,0:0:0:0:
387,268,104121,6,0,L|391:156,1,110,8|0,0:0|0:0,0:0:0:0:
257,75,104550,2,0,B|370:28|369:125|478:60,1,220,0|8,0:0|0:0,0:0:0:0:
257,75,105407,2,0,B|216:106|216:106|197:163,1,110,8|0,0:0|0:0,0:0:0:0:
148,366,105836,2,0,B|205:272|205:272|198:148,1,220,0|12,0:0|0:0,0:0:0:0:
257,75,106693,6,0,P|322:61|377:98,1,110,0|0,0:0|0:0,0:0:0:0:
105,153,107121,2,0,P|47:169|-35:136,1,110,2|0,0:0|0:0,0:0:0:0:
354,178,107550,6,0,P|328:121|268:110,1,110,8|0,0:0|0:0,0:0:0:0:
396,169,107979,2,0,L|402:30,1,110,0|0,0:0|0:0,0:0:0:0:
435,185,108407,6,0,P|461:128|521:117,1,110,8|0,0:0|0:0,0:0:0:0:
265,216,108836,6,0,B|223:204|223:204|185:237|185:237|156:224|141:195|141:195|99:218|28:199,1,220,8|0,0:0|0:0,0:0:0:0:
245,289,109693,6,0,P|231:354|253:391,1,110,12|0,0:0|0:0,0:0:0:0:
326,186,110121,2,0,B|326:253|388:268|388:268|366:282|340:297|355:339|289:333,1,220,0|2,0:0|0:0,0:0:0:0:
241,197,110764,5,0,0:0:0:0:
431,173,110979,2,0,B|375:154|375:197|324:185,1,110,8|0,0:0|0:0,0:0:0:0:
198,102,111407,2,0,B|196:158|241:197|241:197|199:252|215:331,1,220,0|8,0:0|0:0,0:0:0:0:
198,102,112264,2,0,P|251:111|304:97,1,110,8|0,0:0|0:0,0:0:0:0:
154,28,112693,2,0,P|116:67|113:120,1,110
105,331,113121,2,0,B|122:250|122:250|98:202|98:202|115:112,1,220,8|0,0:0|0:0,0:0:0:0:
241,197,113764,1,0,0:0:0:0:
259,213,113871,1,0,0:0:0:0:
286,221,113979,6,0,B|315:235|340:195|391:237|391:237|384:180|456:198|417:152|461:137,1,220,6|0,0:0|0:0,0:0:0:0:
300,53,114621,1,0,0:0:0:0:
286,221,114836,1,4,0:0:0:0:
445,147,115050,1,0,0:0:0:0:
156,116,115264,5,12,0:0:0:0:
275,363,115479,1,0,0:0:0:0:
300,53,115693,1,12,0:0:0:0:
434,289,115907,5,0,0:0:0:0:
115,268,116121,1,4,0:0:0:0:
73,236,116229,1,0,0:0:0:0:
31,266,116336,1,0,0:0:0:0:
48,314,116443,1,0,0:0:0:0:
99,313,116550,1,12,0:0:0:0:
156,117,116979,2,0,P|187:87|238:85,1,76.9999976501466
371,165,117407,2,0,B|295:174|295:174|204:149,1,153.999995300293
299,92,118050,5,0,0:0:0:0:
371,165,118264,2,8,P|417:157|459:184,2,76.9999976501466,0|8|8,0:0|0:0|0:0,0:0:0:0:
344,263,119121,2,0,P|303:272|249:258,1,76.9999976501466
344,263,119550,2,0,P|381:257|419:266,1,76.9999976501466
268,266,119979,1,8,0:0:0:0:
314,132,120407,2,0,P|268:186|273:275,1,153.999995300293
202,318,121050,1,0,0:0:0:0:
267,265,121264,2,0,P|233:197|164:168,1,153.999995300293
136,248,121907,5,8,0:0:0:0:
234,197,122121,2,0,P|201:176|165:168,1,76.9999976501466,8|0,0:0|0:0,0:0:0:0:
18,149,122550,2,0,P|50:171|87:179,1,76.9999976501466,8|8,0:0|0:0,0:0:0:0:
234,197,122979,2,0,P|272:200|308:190,1,76.9999976501466,8|0,0:0|0:0,0:0:0:0:
368,81,123407,2,0,B|379:116|368:145|368:145|380:157|400:161|400:161|390:195|400:225,1,153.999995300293,8|0,0:0|0:0,0:0:0:0:
377,299,124264,2,0,P|332:312|280:291,1,76.9999976501466
246,238,124693,1,0,0:0:0:0:
191,96,125121,2,0,P|175:147|182:181,1,76.9999976501466
319,230,125550,2,0,P|273:243|223:226,1,76.9999976501466,8|0,0:0|0:0,0:0:0:0:
113,215,125979,6,0,P|98:141|118:67,1,153.999995300293
158,276,126836,2,0,P|119:291|64:269,1,76.9999976501466,8|0,0:0|0:0,0:0:0:0:
206,218,127264,2,0,P|243:209|293:236,1,76.9999976501466
158,276,127693,5,0,0:0:0:0:
337,264,128121,2,0,P|352:215|335:177,1,76.9999976501466
225,145,128550,2,0,P|227:105|249:71,2,76.9999976501466,0|8|8,0:0|0:0|0:0,0:0:0:0:
345,191,129193,1,0,0:0:0:0:
151,178,129407,2,0,P|106:187|46:163,1,76.9999976501466,8|8,0:0|0:0,0:0:0:0:
48,77,129836,2,0,P|93:68|153:92,1,76.9999976501466,8|0,0:0|0:0,0:0:0:0:
239,296,130264,2,0,B|228:219|228:219|283:123,1,153.999995300293
297,16,131121,6,0,P|311:58|277:109,1,76.9999976501466
120,57,131550,2,0,P|157:63|194:54,1,76.9999976501466
29,15,131979,2,0,P|4:49|5:92,1,76.9999976501466,0|8,0:0|0:0,0:0:0:0:
53,193,132407,2,0,P|71:143|66:110,1,76.9999976501466,8|0,0:0|0:0,0:0:0:0:
179,196,132836,2,0,P|114:157|49:202,1,153.999995300293
116,305,133479,1,0,0:0:0:0:
116,305,133693,2,0,L|116:225,1,76.9999976501466,8|0,0:0|0:0,0:0:0:0:
252,192,134121,2,0,P|215:203|178:195,1,76.9999976501466
321,147,134550,1,0,0:0:0:0:
75,134,134979,6,0,P|139:102|219:134,1,153.999995300293
218,255,135621,1,8,0:0:0:0:
304,177,135836,2,0,P|322:140|306:92,1,88,8|0,0:0|0:0,0:0:0:0:
292,31,136264,2,0,P|327:29|366:61,1,65.9999979858399
381,108,136693,2,0,P|407:92|420:67,1,44,8|0,0:0|0:0,0:0:0:0:
506,163,137121,2,0,B|474:171|443:154|443:154|419:178|385:196|348:181|326:157|326:157|301:186|269:186|269:186|238:186|211:158|211:158|191:182|155:190|155:190|126:163|91:181,1,461.999985900879,8|0,0:0|0:0,0:0:0:0:
197,14,140550,6,0,B|251:33|264:94|264:94|332:76|306:119|370:107|370:107|424:73|425:113|475:85|475:85|453:125|459:158|497:178|497:178|441:203|470:228|420:253|420:253|433:313|392:304|436:382,1,660
182,89,143979,2,0,B|145:90|121:71|121:71|84:79|65:116,1,131.99999597168
330,295,145693,2,0,B|371:291|391:313|391:313|402:282|447:268,1,131.99999597168
256,192,146979,2,0,B|245:232|273:220|256:264,1,65.9999979858399
165,100,149979,6,0,L|173:144,2,44,0|8|8,0:0|0:0|0:0,0:0:0:0:
133,216,150621,1,0,0:0:0:0:
255,177,150836,2,0,P|242:212|212:235,1,76.9999976501466,8|0,0:0|0:0,0:0:0:0:
73,254,151264,6,0,P|98:223|145:218,1,76.9999976501466
196,382,151693,2,0,P|222:307|208:227,1,153.999995300293,2|0,0:0|0:0,0:0:0:0:
299,333,152550,2,0,P|344:347|371:327,1,76.9999976501466
410,191,152979,2,0,L|410:287,1,76.9999976501466,8|0,0:0|0:0,0:0:0:0:
478,162,153407,2,0,P|418:117|349:148,1,153.999995300293,2|0,0:0|0:0,0:0:0:0:
212,153,154264,2,0,P|178:112|178:63,1,76.9999976501466,8|0,0:0|0:0,0:0:0:0:
288,155,154693,2,0,P|277:199|241:221,1,76.9999976501466
82,220,155121,2,0,B|146:196|146:196|154:172|154:172|226:148,1,153.999995300293,2|0,0:0|0:0,0:0:0:0:
312,42,155979,6,0,B|380:5|399:86|459:52,2,153.999995300293,0|8|2,0:0|0:0|0:0,0:0:0:0:
356,192,157050,5,0,0:0:0:0:
359,208,157264,2,0,B|358:253|358:253|319:291,1,76.9999976501466,8|0,0:0|0:0,0:0:0:0:
181,175,157693,6,0,L|155:121,2,44
227,82,158336,5,0,0:0:0:0:
208,263,158550,2,0,L|188:302,1,44,2|0,0:0|0:0,0:0:0:0:
148,76,158979,6,0,L|119:17,2,65.9999979858399
256,344,159621,5,0,0:0:0:0:
364,76,159836,2,0,L|395:15,1,65.9999979858399,8|0,0:0|0:0,0:0:0:0:
148,308,160264,6,0,L|119:367,1,65.9999979858399,2|0,0:0|0:0,0:0:0:0:
450,234,160693,2,0,P|483:231|514:203,1,65.9999979858399
232,61,161121,6,0,L|137:76,1,65.9999979858399,8|0,0:0|0:0,0:0:0:0:
382,150,161550,2,0,L|459:167,1,65.9999979858399
300,214,161979,1,2,0:0:0:0:
270,198,162086,1,0,0:0:0:0:
239,189,162193,1,0,0:0:0:0:
206,189,162300,1,0,0:0:0:0:
174,196,162407,5,0,0:0:0:0:
141,204,162514,1,0,0:0:0:0:
109,207,162621,1,0,0:0:0:0:
76,202,162729,1,0,0:0:0:0:
45,190,162836,1,0,0:0:0:0:
202,78,163693,1,0,0:0:0:0:
255,76,163800,1,0,0:0:0:0:
296,40,163907,1,8,0:0:0:0:
255,76,164121,6,0,B|265:124|286:132|286:132|267:143|267:197,1,131.99999597168,8|8,0:0|0:0,0:0:0:0:
328,311,164550,2,0,P|392:326|391:243,1,153.999995300293,8|0,2:0|2:0,2:0:0:0:
319,318,164979,2,0,P|398:336|397:234,1,176,0|8,2:0|2:0,2:0:0:0:
202,78,165300,1,0,0:0:0:0:
202,78,165407,2,0,B|174:79|149:66|149:66|126:88|86:101,1,110,2|0,0:0|0:0,0:0:0:0:
343,183,165836,2,0,B|401:150|394:207|473:172,1,110,8|0,0:0|0:0,0:0:0:0:
192,284,166264,2,0,B|134:317|141:260|62:295,1,110
141,106,166693,5,8,0:0:0:0:
192,284,166907,1,0,0:0:0:0:
78,195,167121,2,0,B|146:217|182:175|182:175|209:200|243:207|243:207|276:163|336:182,1,285.99998690796,8|0,0:0|0:0,0:0:0:0:
399,292,167764,1,0,0:0:0:0:
439,184,167979,6,0,B|404:149|374:209|329:177,1,110,8|0,0:0|0:0,0:0:0:0:
465,89,168407,1,0,0:0:0:0:
329,291,168621,2,0,P|354:281|381:286,1,55,8|0,0:0|0:0,0:0:0:0:
399,292,168836,2,0,P|452:301|498:273,1,110,2|0,0:0|0:0,0:0:0:0:
424,137,169264,6,0,P|370:135|328:199,1,110,8|0,0:0|0:0,0:0:0:0:
399,292,169693,6,0,B|424:274|427:247|427:247|394:224|395:183,1,110
330,74,170121,6,0,B|330:99|308:123|308:123|330:153|334:183,1,110,8|0,0:0|0:0,0:0:0:0:
315,322,170550,2,0,L|163:338,1,142.99999345398,8|8,0:0|0:0,0:0:0:0:
250,329,170979,2,0,B|172:336|172:336|211:323|227:289,1,142.99999345398
95,219,171407,5,8,0:0:0:0:
274,143,171621,1,0,0:0:0:0:
56,65,171836,6,0,P|126:73|175:124,1,142.99999345398,0|8,0:0|0:0,0:0:0:0:
255,288,172157,1,0,0:0:0:0:
255,288,172264,6,0,B|279:261|273:220|273:220|314:223|344:183,1,142.99999345398,2|0,0:0|0:0,0:0:0:0:
167,193,172693,5,8,0:0:0:0:
240,77,172907,5,0,0:0:0:0:
336,194,173121,6,0,P|325:255|310:199,1,142.99999345398
240,77,173550,6,0,P|298:56|257:97,1,142.99999345398,8|0,0:0|0:0,0:0:0:0:
167,193,173979,6,0,P|119:152|175:167,1,142.99999345398,8|0,0:0|0:0,0:0:0:0:
336,194,174407,2,0,B|336:256|384:272|392:320|392:320|400:272|456:256|451:182,1,285.99998690796,0|8,0:0|0:0,0:0:0:0:
392,319,175050,5,0,0:0:0:0:
161,242,175264,2,0,P|212:223|280:240,1,110,0|8,0:0|0:0,0:0:0:0:
336,93,175693,2,0,P|355:144|329:200,1,110,2|0,0:0|0:0,0:0:0:0:
141,113,176121,2,0,B|92:141|92:141|178:151,1,110,8|0,0:0|0:0,0:0:0:0:
331,227,176550,2,0,B|384:220|384:220|335:192,1,110
282,67,176979,5,8,0:0:0:0:
214,246,177193,1,0,0:0:0:0:
44,162,177407,2,0,B|91:133|91:133|144:146,1,110,8|8,0:0|0:0,0:0:0:0:
431,242,177836,2,0,B|378:255|378:255|330:226,1,110,8|0,0:0|0:0,0:0:0:0:
144,146,178264,6,0,B|198:116|185:183|251:161|304:100|308:67|273:11|196:10|155:65|193:155|303:153|368:114,1,395.999987915039
375,7,178907,5,0,0:0:0:0:
431,242,179121,2,0,P|385:305|380:215,1,220,2|8,0:0|0:0,0:0:0:0:
509,208,179764,5,0,0:0:0:0:
449,362,179979,2,0,P|400:381|333:364,1,110
377,216,180407,2,0,P|376:161|397:111,1,110,8|0,0:0|0:0,0:0:0:0:
377,296,180836,2,0,B|311:280|279:326|279:326|234:317|209:280|209:280|158:282|114:330,1,285.99998690796,8|0,0:0|0:0,0:0:0:0:
155,202,181479,1,0,0:0:0:0:
70,354,181693,2,0,P|117:387|179:363,1,110,8|0,0:0|0:0,0:0:0:0:
231,118,182121,6,0,B|242:177|229:271,1,142.99999345398,0|8,0:0|0:0,0:0:0:0:
353,143,182443,1,0,0:0:0:0:
353,143,182550,2,0,P|426:123|473:166,1,110,2|0,0:0|0:0,0:0:0:0:
231,118,182979,2,0,P|180:112|111:149,1,110,8|0,0:0|0:0,0:0:0:0:
230,260,183407,1,0,0:0:0:0:
145,42,183621,1,0,0:0:0:0:
16,195,183836,6,0,P|45:143|36:79,2,110,8|0|8,0:0|0:0|0:0,0:0:0:0:
181,145,184479,5,8,0:0:0:0:
94,307,184693,6,0,B|129:330|137:373|137:373|220:305|230:408|365:319,1,285.99998690796,0|8,0:0|0:0,0:0:0:0:
386,174,185336,5,0,0:0:0:0:
181,145,185550,2,0,B|132:118|128:162|71:135,1,110
163,63,185871,1,0,0:0:0:0:
163,63,185979,2,0,B|216:37|220:81|269:54,1,110,2|0,0:0|0:0,0:0:0:0:
232,211,186407,6,0,L|236:297,1,65.9999979858399,8|0,0:0|0:0,0:0:0:0:
272,141,186836,6,0,L|267:53,1,88
331,200,187264,6,0,L|336:324,1,110,8|0,0:0|0:0,0:0:0:0:
272,141,187693,2,0,B|203:145|141:117|141:117|94:168|16:182,1,263.99999194336,8|0,0:0|0:0,0:0:0:0:
84,262,188336,5,0,0:0:0:0:
107,15,188550,1,8,0:0:0:0:
272,141,188764,5,0,0:0:0:0:
169,234,188979,6,0,B|154:289|170:354,1,110,0|8,0:0|0:0,0:0:0:0:
272,220,189300,1,0,0:0:0:0:
272,220,189407,2,0,P|324:204|350:154,1,110,2|0,0:0|0:0,0:0:0:0:
178,69,189836,6,0,P|120:108|108:173,1,110,8|0,0:0|0:0,0:0:0:0:
334,315,190264,6,0,P|392:276|404:211,1,110
335,69,190693,6,0,B|389:79|389:79|447:64,1,110,8|0,0:0|0:0,0:0:0:0:
487,155,191121,5,8,0:0:0:0:
289,202,191336,1,0,0:0:0:0:
436,342,191550,1,8,0:0:0:0:
341,115,191764,1,0,0:0:0:0:
333,381,191979,1,0,0:0:0:0:
230,282,192193,5,0,0:0:0:0:
185,193,192407,6,0,P|145:185|100:204,2,76.9999976501466
251,124,193050,1,0,0:0:0:0:
335,157,193264,2,0,P|371:104|320:28,4,153.999995300293
228,88,195407,2,0,P|181:75|140:98,1,76.9999976501466
101,154,195836,2,0,P|50:166|20:152,1,76.9999976501466
60,12,196264,6,0,L|66:199,1,153.999995300293
223,221,197121,2,0,P|282:249|354:199,2,153.999995300293
351,205,198193,1,0,0:0:0:0:
303,81,198407,2,0,P|286:131|297:162,1,76.9999976501466
311,281,198836,1,0,0:0:0:0:
465,252,199264,2,0,P|421:259|390:294,1,76.9999976501466
418,99,199907,5,0,0:0:0:0:
368,174,200121,2,0,P|338:124|371:28,4,153.999995300293
425,130,202264,2,0,P|441:164|435:201,1,76.9999976501466
376,248,202693,2,0,P|359:282|365:319,1,76.9999976501466
432,288,203121,2,0,L|264:288,1,153.999995300293
99,241,203979,2,0,P|86:286|100:343,1,76.9999976501466
179,210,204407,2,0,P|191:152|181:116,1,76.9999976501466
96,78,204836,5,0,0:0:0:0:
172,64,205050,1,0,0:0:0:0:
247,51,205264,1,0,0:0:0:0:
169,58,205479,1,0,0:0:0:0:
256,192,205693,12,0,209121,0:0:0:0:
