osu file format v14

[General]
AudioFilename: audio.mp3
AudioLeadIn: 0
PreviewTime: 31178
Countdown: 0
SampleSet: None
StackLeniency: 0.7
Mode: 0
LetterboxInBreaks: 0
WidescreenStoryboard: 0

[Editor]
Bookmarks: 31285,58713,86142,103285,130713,158999
DistanceSpacing: 0.8
BeatDivisor: 4
GridSize: 4
TimelineZoom: 1.700006

[Metadata]
Title:Faded (Prismofied)
TitleUnicode:Faded (Prismofied)
Artist:Prismo
ArtistUnicode:Prismo
Creator:BOT Pieselek
Version:Fading...
Source:
Tags:
BeatmapID:1643583
BeatmapSetID:782757

[Difficulty]
HPDrainRate:8
CircleSize:5
OverallDifficulty:8
ApproachRate:8
SliderMultiplier:2
SliderTickRate:1

[Events]
//Background and Video events
0,0,"epic-background-epic-background-epic-background-video-epic-background-music-for-videos-epic-background.jpg",0,0
//Break Periods
//Storyboard Layer 0 (Background)
//Storyboard Layer 1 (Fail)
//Storyboard Layer 2 (Pass)
//Storyboard Layer 3 (Foreground)
//Storyboard Sound Samples

[TimingPoints]
489,428.571428571429,4,2,0,100,1,0
551,-133.333333333333,4,2,0,66,0,0
14142,-100,4,3,0,95,0,0
31346,-74.0740740740741,4,3,0,95,0,1
58774,-117.647058823529,4,2,0,95,0,0

[HitObjects]
247,95,489,6,0,P|302:66|424:139,1,200
220,314,1774,2,0,P|184:319|121:296,1,75.0000028610231
292,202,2417,1,0,0:0:0:0:
143,157,3917,6,0,P|170:124|227:110,1,75.0000028610231
138,266,4346,2,0,P|104:302|60:310,1,75.0000028610231
287,137,4774,1,0,0:0:0:0:
186,218,5203,6,0,P|224:229|281:212,1,75.0000028610231
167,113,5846,1,0,0:0:0:0:
428,183,6274,2,0,B|443:227|410:255|410:255|440:278|426:337,1,150.000005722046
184,217,7131,2,0,P|152:161|206:83,1,150.000005722046
291,200,8631,6,0,P|322:237|318:282,1,75.0000028610231
109,137,9274,1,0,0:0:0:0:
196,114,10774,6,0,P|218:75|269:67,1,75.0000028610231
201,216,11203,2,0,P|182:262|137:283,1,75.0000028610231
264,134,11631,1,0,0:0:0:0:
310,329,12060,2,0,P|328:285|371:253,1,75.0000028610231
54,167,12703,1,0,0:0:0:0:
167,165,13131,2,0,B|262:197|240:148|336:176,1,150.000005722046
91,200,13989,2,0,P|75:167|92:115,1,75.0000028610231
336,243,14417,5,0,0:0:0:0:
149,245,14631,1,0,0:0:0:0:
326,176,14846,1,0,0:0:0:0:
231,320,15060,1,0,0:0:0:0:
251,129,15274,1,0,0:0:0:0:
366,286,15489,1,0,0:0:0:0:
149,245,15703,2,0,P|113:192|146:148,1,100
388,180,16131,5,0,0:0:0:0:
172,303,16346,1,0,0:0:0:0:
328,126,16560,1,0,0:0:0:0:
279,312,16774,1,0,0:0:0:0:
196,147,16989,1,0,0:0:0:0:
333,267,17203,2,0,P|271:247|217:271,1,100
396,90,17631,5,0,0:0:0:0:
278,189,17846,1,0,0:0:0:0:
463,186,18060,1,0,0:0:0:0:
308,123,18274,1,0,0:0:0:0:
471,53,18489,1,0,0:0:0:0:
370,225,18703,1,0,0:0:0:0:
347,56,18917,2,0,P|266:39|226:60,1,100
112,232,19346,5,0,0:0:0:0:
202,331,19560,1,0,0:0:0:0:
66,333,19774,1,0,0:0:0:0:
295,205,19989,1,0,0:0:0:0:
37,253,20203,1,0,0:0:0:0:
274,290,20417,1,0,0:0:0:0:
48,184,20631,2,0,B|113:164|113:164|161:177,1,100
371,240,21060,5,0,0:0:0:0:
213,331,21274,1,0,0:0:0:0:
447,318,21489,1,0,0:0:0:0:
249,259,21703,1,0,0:0:0:0:
357,335,21917,1,0,0:0:0:0:
320,177,22131,1,0,0:0:0:0:
453,250,22346,1,0,0:0:0:0:
286,330,22560,1,0,0:0:0:0:
393,158,22774,6,0,P|347:114|276:105,1,100
237,163,23203,2,0,P|185:139|139:76,1,100
341,66,23631,1,0,0:0:0:0:
92,230,23846,1,0,0:0:0:0:
361,171,24060,1,0,0:0:0:0:
154,104,24274,1,0,0:0:0:0:
323,315,24489,6,0,P|386:253|406:210,1,100
281,220,24917,2,0,P|219:264|188:308,1,100
389,243,25346,1,0,0:0:0:0:
465,168,25774,2,0,P|461:118|411:68,1,100
386,139,26417,1,0,0:0:0:0:
306,108,26846,2,0,B|322:172|294:204|294:204|338:195|411:227,1,200
275,278,27703,6,0,L|181:334,2,100
300,203,28346,2,0,L|404:138,2,100
216,230,28989,2,0,L|116:288,2,100
300,203,29631,5,0,0:3:0:0:
320,216,29739,1,0,0:3:0:0:
343,226,29846,1,0,0:3:0:0:
368,231,29953,1,0,0:3:0:0:
393,232,30060,5,0,0:3:0:0:
417,229,30167,1,0,0:3:0:0:
441,221,30274,1,0,0:3:0:0:
463,209,30381,1,0,0:3:0:0:
479,195,30489,2,0,L|483:174,15,12.5
483,153,30917,6,8,L|471:100,3,50,0|8|8|0,0:0|0:0|0:0|0:0,0:0:0:0:
395,116,31346,6,0,P|385:58|314:1,1,135.000000514984
276,219,31774,2,0,P|286:277|358:333,1,135.000000514984
166,157,32203,1,0,0:0:0:0:
313,158,32631,6,0,P|392:172|488:139,1,135.000000514984
212,98,33060,2,0,P|126:69|39:89,1,135.000000514984
228,178,33489,2,0,P|213:283|268:349,1,135.000000514984
311,248,33917,2,0,P|408:243|454:164,2,135.000000514984,0|0|0,0:0|0:0|0:0,0:0:0:0:
459,331,34560,1,0,0:0:0:0:
225,269,34774,6,0,P|255:198|260:102,1,135.000000514984
117,194,35203,2,0,P|125:118|196:33,1,135.000000514984
326,330,35631,1,0,0:0:0:0:
459,108,36060,6,0,P|399:52|321:34,1,135.000000514984
196,340,36489,2,0,P|262:349|342:321,1,135.000000514984
133,41,36917,2,0,P|83:85|53:165,1,135.000000514984
402,292,37346,6,0,P|467:234|472:157,1,135.000000514984,0|0,0:0|0:0,0:0:0:0:
342,205,37774,2,0,P|289:252|272:332,1,135.000000514984
124,72,38203,6,0,P|87:134|83:211,1,135.000000514984
219,77,38631,2,0,P|254:133|262:200,1,135.000000514984
51,282,39060,1,0,0:0:0:0:
351,156,39489,6,0,P|398:73|396:-12,1,135.000000514984
225,95,39917,2,0,P|178:178|180:263,1,135.000000514984
356,262,40346,2,0,P|324:362|272:413,1,135.000000514984
386,68,40774,1,0,0:0:0:0:
221,202,40989,1,0,0:0:0:0:
434,142,41203,1,0,0:0:0:0:
246,78,41417,1,0,0:0:0:0:
425,231,41631,1,0,0:0:0:0:
115,138,41846,1,0,0:0:0:0:
460,83,42060,1,0,0:0:0:0:
211,232,42274,1,0,0:0:0:0:
314,84,42489,1,0,0:0:0:0:
345,157,42917,6,0,P|392:74|390:-11,1,135.000000514984
141,127,43346,2,0,P|127:183|158:308,1,135.000000514984,0|0,0:3|0:3,0:3:0:0:
280,220,43774,2,0,P|266:285|229:341,1,135.000000514984
184,77,44203,1,0,0:0:0:0:
391,280,44417,1,0,0:0:0:0:
378,169,44631,2,0,P|288:137|227:181,1,135.000000514984
463,326,45060,1,0,0:0:0:0:
271,285,45489,6,0,P|212:252|133:264,2,135.000000514984
411,65,46346,1,0,0:0:0:0:
316,148,46560,1,0,0:0:0:0:
479,121,46774,1,0,0:0:0:0:
243,83,46989,1,0,0:0:0:0:
441,216,47203,1,0,0:0:0:0:
175,175,47417,1,0,0:0:0:0:
345,23,47631,1,0,0:0:0:0:
313,277,47846,1,0,0:0:0:0:
511,184,48060,2,0,P|430:155|331:175,1,135.000000514984
96,280,48489,5,0,0:0:0:0:
195,180,48703,1,0,0:0:0:0:
12,284,48917,1,0,0:0:0:0:
271,255,49131,1,0,0:0:0:0:
47,113,49346,1,0,0:0:0:0:
362,6,49774,6,0,B|396:-2|396:-2|341:69|412:97|412:97|398:59,1,135.000000514984
278,163,50203,1,0,0:0:0:0:
472,147,50417,1,0,0:0:0:0:
184,72,50631,1,0,0:0:0:0:
364,224,50846,1,0,0:0:0:0:
347,94,51060,2,0,B|254:50|254:50|246:82|271:117,1,135.000000514984
116,195,51489,2,0,B|209:239|209:239|217:207|192:172,1,135.000000514984
397,78,51917,5,0,0:0:0:0:
208,207,52131,1,0,0:0:0:0:
472,152,52346,1,0,0:0:0:0:
113,157,52560,1,0,0:0:0:0:
396,262,52774,1,0,0:0:0:0:
260,87,53203,5,0,0:0:0:0:
151,273,53417,1,0,0:0:0:0:
354,133,53631,1,0,0:0:0:0:
96,214,53846,1,0,0:0:0:0:
283,71,54060,1,0,0:0:0:0:
42,144,54274,2,0,P|129:73|207:63,1,135.000000514984
177,151,54703,2,0,P|232:98|294:68,1,135.000000514984
353,88,55131,1,0,0:0:0:0:
93,303,55346,5,0,0:0:0:0:
380,164,55560,1,0,0:0:0:0:
111,115,55774,1,0,0:0:0:0:
353,289,55989,1,0,0:0:0:0:
59,230,56203,1,0,0:0:0:0:
326,122,56631,5,0,0:0:0:0:
141,300,56846,1,0,0:0:0:0:
352,235,57060,1,0,0:0:0:0:
228,74,57274,1,0,0:0:0:0:
242,300,57489,1,0,0:0:0:0:
348,132,57703,2,0,P|316:53|257:21,1,135.000000514984
252,131,58131,2,0,P|194:204|227:285,1,135.000000514984
