osu file format v14

[General]
AudioFilename: audio.mp3
AudioLeadIn: 0
PreviewTime: 63289
Countdown: 0
SampleSet: Soft
StackLeniency: 0.7
Mode: 0
LetterboxInBreaks: 0
WidescreenStoryboard: 0

[Editor]
Bookmarks: 109918
DistanceSpacing: 1
BeatDivisor: 4
GridSize: 8
TimelineZoom: 1.9

[Metadata]
Title:City Needs Sleep (Fox Stevenson Remix)
TitleUnicode:City Needs Sleep (Fox Stevenson Remix)
Artist:Priority One & TwoThirds
ArtistUnicode:Priority One & TwoThirds
Creator:SquareTude
Version:Ready For Takeoff
Source:
Tags:RVMathew Minorsonek dnb drum and bass Stan SB liquicity
BeatmapID:1720982
BeatmapSetID:821050

[Difficulty]
HPDrainRate:6
CircleSize:4
OverallDifficulty:9
ApproachRate:9.2
SliderMultiplier:2
SliderTickRate:1

[Events]
//Background and Video events
0,0,"http___www.wallpaperbetter.com_wallpaper_251_166_435_girl-back-pigeons-birds-sky-night-free-fantasy-1080P-wallpaper.jpg",0,0
//Break Periods
2,22346,31691
//Storyboard Layer 0 (Background)
//Storyboard Layer 1 (Fail)
//Storyboard Layer 2 (Pass)
//Storyboard Layer 3 (Foreground)
//Storyboard Sound Samples

[TimingPoints]
204,342.857142857143,4,2,0,55,1,0
204,-133.333333333333,4,2,0,55,0,0
22146,-222.222222222222,4,2,0,55,0,0
32261,-153.846153846154,4,2,0,45,0,0
33118,-133.333333333333,4,2,0,55,0,0
44089,-133.333333333333,4,3,0,35,0,0
49575,-133.333333333333,4,3,0,45,0,0
55061,-133.333333333333,4,2,0,60,0,0
55318,-133.333333333333,4,2,0,5,0,0
55404,-133.333333333333,4,2,0,60,0,0
56004,-133.333333333333,4,2,0,5,0,0
56089,-133.333333333333,4,2,0,60,0,0
56689,-133.333333333333,4,2,0,5,0,0
56775,-133.333333333333,4,2,0,60,0,0
57375,-133.333333333333,4,2,0,5,0,0
57461,-133.333333333333,4,2,0,60,0,0
58061,-133.333333333333,4,2,0,5,0,0
58146,-133.333333333333,4,2,0,60,0,0
58746,-133.333333333333,4,2,0,5,0,0
58832,-133.333333333333,4,2,0,60,0,0
59432,-133.333333333333,4,2,0,5,0,0
59518,-133.333333333333,4,2,0,60,0,0
60118,-133.333333333333,4,2,0,5,0,0
60204,-133.333333333333,4,2,0,60,0,0
63289,-133.333333333333,4,2,0,55,0,0
66032,-80,4,2,0,80,0,1
85232,-80,4,2,0,80,0,0
85489,-80,4,2,0,5,0,0
85575,-80,4,2,0,80,0,0
85832,-80,4,2,0,5,0,0
85918,-80,4,2,0,80,0,0
86175,-80,4,2,0,5,0,0
86261,-80,4,2,0,80,0,0
86518,-80,4,2,0,5,0,0
86604,-80,4,2,0,80,0,0
87718,-80,4,2,0,5,0,0
87975,-80,4,2,0,80,0,1
107175,-200,4,2,0,80,0,0
109918,-100,4,3,0,60,0,0
130489,-100,4,3,0,40,0,0
130832,-133.333333333333,4,3,0,30,0,0
131175,-133.333333333333,4,3,0,20,0,0

[Colours]
Combo1 : 51,142,255
Combo2 : 187,119,255

[HitObjects]
440,349,204,6,0,P|479:336|528:342,2,75.0000028610231,6|0|8,0:0|0:0|0:0,0:0:0:0:
358,300,718,2,0,P|320:286|256:297,1,75.0000028610231,0|0,0:0|0:0,0:0:0:0:
432,250,1061,1,2,0:0:0:0:
357,185,1232,2,0,L|364:91,1,75.0000028610231,8|0,0:0|0:0,0:0:0:0:
461,141,1575,1,0,0:0:0:0:
441,240,1746,1,2,0:0:0:0:
366,175,1918,2,0,L|373:81,1,75.0000028610231,8|0,0:0|0:0,0:0:0:0:
470,129,2261,1,0,0:0:0:0:
450,230,2432,1,2,0:0:0:0:
375,165,2604,2,0,L|382:71,1,75.0000028610231,8|0,0:0|0:0,0:0:0:0:
438,10,2946,6,0,L|512:4,2,75.0000028610231,2|0|8,0:0|0:0|0:0,0:0:0:0:
336,18,3461,2,0,L|261:12,1,75.0000028610231,0|0,0:0|0:0,0:0:0:0:
190,83,3804,1,2,0:0:0:0:
241,167,3975,2,0,P|226:207|188:243,1,75.0000028610231,8|0,0:0|0:0,0:0:0:0:
132,166,4318,1,0,0:0:0:0:
196,97,4489,1,2,0:0:0:0:
247,181,4661,2,0,P|232:221|194:257,2,75.0000028610231,8|2|0,0:0|0:0|0:0,0:0:0:0:
202,111,5175,1,2,0:0:0:0:
253,195,5346,2,0,P|238:235|200:271,1,75.0000028610231,8|0,0:0|0:0,0:0:0:0:
56,163,5689,6,0,L|130:154,2,75.0000028610231,2|0|8,0:0|0:0|0:0,0:0:0:0:
118,239,6204,2,0,P|144:271|152:308,1,75.0000028610231,0|0,0:0|0:0,0:0:0:0:
55,308,6546,1,2,0:0:0:0:
110,384,6718,2,0,L|204:377,1,75.0000028610231,8|0,0:0|0:0,0:0:0:0:
158,281,7061,1,0,0:0:0:0:
65,298,7232,1,2,0:0:0:0:
121,366,7404,2,0,L|215:359,1,75.0000028610231,8|0,0:0|0:0,0:0:0:0:
168,272,7746,1,0,0:0:0:0:
75,289,7918,1,2,0:0:0:0:
131,357,8089,2,0,L|225:350,1,75.0000028610231,8|0,0:0|0:0,0:0:0:0:
366,358,8432,6,0,L|440:363,2,75.0000028610231,2|0|8,0:0|0:0|0:0,0:0:0:0:
283,315,8946,2,0,P|273:272|294:222,1,75.0000028610231,0|0,0:0|0:0,0:0:0:0:
352,174,9289,1,2,0:0:0:0:
424,107,9461,2,0,P|434:64|413:14,1,75.0000028610231,8|0,0:0|0:0,0:0:0:0:
338,76,9804,1,0,0:0:0:0:
361,173,9975,1,2,0:0:0:0:
433,106,10146,2,0,P|443:63|422:13,2,75.0000028610231,8|2|0,0:0|0:0|0:0,0:0:0:0:
370,172,10661,1,2,0:0:0:0:
442,105,10832,2,0,P|452:62|431:12,1,75.0000028610231,8|0,0:0|0:0,0:0:0:0:
337,70,11175,6,0,P|252:83|194:45,1,150.000005722046,6|8,0:0|0:0,0:0:0:0:
78,1,11689,2,0,L|85:81,1,75.0000028610231,0|0,0:0|0:0,0:0:0:0:
6,149,12032,1,2,0:0:0:0:
86,212,12204,2,0,L|79:292,1,75.0000028610231,8|0,0:0|0:0,0:0:0:0:
0,235,12546,1,0,0:0:0:0:
19,139,12718,1,2,0:0:0:0:
98,202,12889,2,0,L|91:282,1,75.0000028610231,8|0,0:0|0:0,0:0:0:0:
13,224,13232,1,0,0:0:0:0:
31,129,13404,1,2,0:0:0:0:
111,191,13575,2,0,L|104:271,1,75.0000028610231,8|0,0:0|0:0,0:0:0:0:
147,355,13918,6,0,B|195:371|195:371|296:349,1,150.000005722046,2|8,0:0|0:0,0:0:0:0:
386,300,14432,2,0,P|435:293|468:302,1,75.0000028610231,0|0,0:0|0:0,0:0:0:0:
347,208,14775,1,2,0:0:0:0:
412,133,14946,2,0,P|428:89|417:44,1,75.0000028610231,8|0,0:0|0:0,0:0:0:0:
328,91,15289,1,0,0:0:0:0:
341,193,15461,1,2,0:0:0:0:
407,121,15632,2,0,P|419:75|405:31,2,75.0000028610231,8|2|0,0:0|0:0|0:0,0:0:0:0:
335,178,16146,1,2,0:0:0:0:
401,108,16318,2,0,P|409:62|392:19,1,75.0000028610231,8|0,0:0|0:0,0:0:0:0:
303,7,16661,6,0,B|149:30,1,150.000005722046,2|8,0:0|0:0,0:0:0:0:
86,103,17175,2,0,L|95:195,1,75.0000028610231,0|0,0:0|0:0,0:0:0:0:
65,271,17518,1,2,0:0:0:0:
143,363,17689,2,0,L|156:260,1,75.0000028610231,8|0,0:0|0:0,0:0:0:0:
132,191,18032,1,0,0:0:0:0:
72,263,18204,1,2,0:0:0:0:
150,355,18375,2,0,L|163:252,1,75.0000028610231,8|0,0:0|0:0,0:0:0:0:
139,178,18718,1,0,0:0:0:0:
79,255,18889,1,2,0:0:0:0:
157,347,19061,2,0,L|170:244,1,75.0000028610231,8|0,0:0|0:0,0:0:0:0:
208,192,19404,6,0,P|253:186|295:202,1,75.0000028610231,2|0,0:0|0:0,0:0:0:0:
354,192,19746,2,0,P|309:186|267:202,1,75.0000028610231,2|0,0:0|0:0,0:0:0:0:
135,193,20089,6,0,P|180:199|222:183,1,75.0000028610231,2|0,0:0|0:0,0:0:0:0:
426,193,20432,2,0,P|381:199|339:183,1,75.0000028610231,2|0,0:0|0:0,0:0:0:0:
273,54,20775,5,2,0:0:0:0:
273,54,22146,5,4,0:0:0:0:
65,319,32261,5,0,0:0:0:0:
65,319,32432,2,0,P|28:281|20:257,1,64.9999970245363,0|0,3:0|0:0,0:0:0:0:
166,258,32775,2,0,P|163:290|150:319,1,64.9999970245363,0|0,3:0|0:0,0:0:0:0:
59,191,33118,6,0,P|119:181|156:187,2,75.0000028610231,0|0|0,3:0|0:0|0:0,0:0:0:0:
188,239,33632,2,0,P|210:173|196:144,1,75.0000028610231,0|0,3:0|0:0,0:0:0:0:
99,41,33975,1,0,0:0:0:0:
79,116,34146,1,0,3:0:0:0:
404,336,35004,5,0,0:0:0:0:
433,268,35175,1,0,3:0:0:0:
444,186,35346,1,0,0:0:0:0:
433,268,35518,1,0,3:0:0:0:
464,111,35689,1,0,0:0:0:0:
433,268,35861,6,0,P|373:278|336:272,2,75.0000028610231,0|0|0,3:0|0:0|0:0,0:0:0:0:
324,145,36375,2,0,P|302:211|316:240,1,75.0000028610231,0|0,3:0|0:0,0:0:0:0:
413,343,36718,1,0,0:0:0:0:
433,268,36889,1,0,3:0:0:0:
474,105,37746,5,0,0:0:0:0:
399,125,37918,1,0,3:0:0:0:
324,145,38089,1,0,0:0:0:0:
249,165,38261,1,0,3:0:0:0:
128,200,38432,1,0,0:0:0:0:
249,165,38604,6,0,P|259:105|253:68,2,75.0000028610231,0|0|0,3:0|0:0|0:0,0:0:0:0:
201,36,39118,2,0,P|267:14|296:28,1,75.0000028610231,0|0,3:0|0:0,0:0:0:0:
399,125,39461,1,0,0:0:0:0:
324,145,39632,1,0,3:0:0:0:
85,90,40489,5,0,0:0:0:0:
161,74,40661,1,0,3:0:0:0:
235,50,40832,1,0,0:0:0:0:
161,74,41004,1,0,3:0:0:0:
310,30,41175,1,0,0:0:0:0:
235,50,41346,6,0,P|225:110|231:147,2,75.0000028610231,0|0|0,3:0|0:0|0:0,0:0:0:0:
207,203,41861,2,0,P|150:227|111:215,1,75.0000028610231,0|0,3:0|0:0,0:0:0:0:
10,110,42204,1,0,0:0:0:0:
85,90,42375,1,0,3:0:0:0:
354,5,43232,5,0,0:0:0:0:
361,80,43404,1,0,3:0:0:0:
370,157,43575,1,0,0:0:0:0:
378,234,43746,1,0,3:0:0:0:
388,361,43918,1,0,0:0:0:0:
378,234,44089,6,0,L|465:218,2,75.0000028610231,4|0|8,0:2|0:0|0:0,0:0:0:0:
311,304,44604,2,0,P|243:320|163:286,1,150.000005722046,0|2,0:0|0:0,0:0:0:0:
115,213,45118,1,8,0:0:0:0:
124,202,45461,5,2,0:0:0:0:
23,333,45804,1,8,0:0:0:0:
132,195,46318,5,2,0:0:0:0:
31,322,46489,1,8,0:0:0:0:
142,186,46661,1,0,0:0:0:0:
136,354,46832,6,0,P|183:368|221:363,2,75.0000028610231,2|0|8,0:0|0:0|0:0,0:0:0:0:
218,283,47346,2,0,P|283:320|284:397,1,150.000005722046,0|2,0:0|0:0,0:0:0:0:
372,308,47861,1,8,0:0:0:0:
366,298,48204,5,2,0:0:0:0:
289,164,48546,1,8,0:0:0:0:
362,290,49061,1,2,0:0:0:0:
283,152,49232,1,8,0:0:0:0:
357,281,49575,6,0,L|438:279,2,75.0000028610231,2|0|8,0:0|0:0|0:0,0:0:0:0:
329,203,50089,2,0,L|478:199,1,150.000005722046,0|2,0:0|0:0,0:0:0:0:
286,135,50604,1,8,0:0:0:0:
297,128,50946,5,2,0:0:0:0:
384,17,51289,1,8,0:0:0:0:
305,122,51804,5,2,0:0:0:0:
392,12,51975,1,8,0:0:0:0:
312,116,52146,1,0,0:0:0:0:
224,6,52318,6,0,P|177:-7|128:19,2,75.0000028610231,2|0|8,0:0|0:0|0:0,0:0:0:0:
153,191,52832,2,0,P|138:112|209:60,1,150.000005722046,0|2,0:0|0:0,0:0:0:0:
216,144,53346,1,8,0:0:0:0:
216,144,53689,5,2,0:0:0:0:
188,278,54032,2,0,P|224:286|261:282,1,75.0000028610231,8|0,0:0|0:0,0:0:0:0:
222,138,54546,1,2,0:0:0:0:
184,267,54718,2,0,P|237:269|264:260,1,75.0000028610231,8|0,0:0|0:0,0:0:0:0:
86,149,55061,6,0,L|97:285,1,112.500004291535,2|0,0:0|0:0,0:0:0:0:
103,337,55404,1,2,0:0:0:0:
165,115,55746,2,0,L|176:260,1,112.500004291535,2|0,0:0|0:0,0:0:0:0:
182,303,56089,1,2,0:0:0:0:
244,81,56432,6,0,L|255:226,1,112.500004291535,2|0,0:0|0:0,0:0:0:0:
261,269,56775,1,2,0:0:0:0:
323,47,57118,2,0,L|334:192,1,112.500004291535,2|0,0:0|0:0,0:0:0:0:
340,235,57461,1,2,0:0:0:0:
185,35,57804,6,0,P|130:36|89:73,1,112.500004291535,2|0,0:0|0:0,0:0:0:0:
62,147,58146,1,2,0:0:0:0:
284,228,58489,2,0,P|228:226|187:190,1,112.500004291535,2|0,0:0|0:0,0:0:0:0:
161,116,58832,1,2,0:0:0:0:
387,34,59175,6,0,P|331:35|290:71,1,112.500004291535,2|0,0:0|0:0,0:0:0:0:
264,146,59518,1,2,0:0:0:0:
486,227,59861,2,0,P|430:225|389:189,1,112.500004291535,2|0,0:0|0:0,0:0:0:0:
363,115,60204,1,2,0:0:0:0:
363,115,60546,5,2,0:0:0:0:
177,79,60718,1,2,0:0:0:0:
342,116,60889,1,2,0:0:0:0:
192,193,61061,1,2,0:0:0:0:
353,31,61232,5,2,0:0:0:0:
311,228,61404,1,2,0:0:0:0:
237,0,61575,1,2,0:0:0:0:
306,207,61746,1,2,0:0:0:0:
109,62,61918,5,2,0:0:0:0:
342,121,62089,1,2,0:0:0:0:
87,192,62261,1,2,0:0:0:0:
324,127,62432,1,2,0:0:0:0:
151,327,62604,5,2,0:0:0:0:
191,74,62775,1,2,0:0:0:0:
368,338,62946,1,2,0:0:0:0:
435,61,63117,1,2,0:0:0:0:
284,285,63289,5,6,0:0:0:0:
252,171,63461,1,0,0:0:0:0:
284,57,63632,1,0,0:0:0:0:
252,171,63804,1,2,0:0:0:0:
252,171,64146,1,0,0:0:0:0:
284,285,64318,1,2,0:0:0:0:
178,172,64661,5,2,1:0:0:0:
178,172,65004,1,2,1:0:0:0:
178,172,65346,1,2,1:0:0:0:
384,77,65689,1,10,1:0:0:0:
122,103,66032,6,0,P|90:174|129:250,1,125,6|0,0:2|0:2,0:0:0:0:
274,328,66375,1,8,0:2:0:0:
286,167,66546,2,0,P|223:144|174:176,1,125,0|0,0:2|0:2,0:0:0:0:
64,354,66889,1,2,0:2:0:0:
233,219,67061,2,0,B|245:28|245:28|280:81,1,250,8|0,0:2|0:2,0:0:0:0:
357,259,67575,5,2,0:2:0:0:
364,64,67746,1,8,0:2:0:0:
432,268,67918,1,0,0:2:0:0:
358,53,68089,1,0,0:2:0:0:
506,249,68261,1,2,0:2:0:0:
351,44,68432,1,8,0:2:0:0:
288,290,68604,1,0,0:2:0:0:
464,66,68775,5,2,0:2:0:0:
286,167,68946,1,0,0:2:0:0:
512,142,69118,1,8,0:2:0:0:
265,83,69289,2,0,P|210:125|207:204,1,125,0|0,0:2|0:2,0:0:0:0:
239,359,69632,1,2,0:2:0:0:
60,199,69804,2,0,B|15:154|15:154|125:177|125:177|219:176,1,250,8|0,0:2|0:2,0:0:0:0:
372,196,70318,5,2,0:2:0:0:
180,93,70489,1,8,0:2:0:0:
352,192,70661,2,0,L|323:332,1,125,2|0,0:2|0:2,0:0:0:0:
160,89,71004,1,2,0:2:0:0:
336,188,71175,2,0,L|310:310,1,125,8|0,0:2|0:2,0:0:0:0:
138,82,71518,5,2,0:2:0:0:
187,292,71689,1,0,0:2:0:0:
52,143,71861,1,8,0:2:0:0:
130,355,72032,2,0,P|216:374|261:328,1,125,0|0,0:2|0:2,0:0:0:0:
151,196,72375,1,2,0:2:0:0:
372,268,72546,2,0,P|423:196|301:108,1,250,8|0,0:2|0:2,0:0:0:0:
157,215,73061,5,2,0:2:0:0:
124,25,73232,1,8,0:2:0:0:
160,226,73404,1,0,0:2:0:0:
208,23,73575,1,0,0:2:0:0:
163,237,73746,1,2,0:2:0:0:
44,46,73918,1,8,0:2:0:0:
248,203,74089,1,0,0:2:0:0:
42,147,74261,5,2,0:2:0:0:
274,112,74432,1,0,0:2:0:0:
58,247,74604,1,8,0:2:0:0:
206,58,74775,2,0,P|271:27|350:75,1,125,0|0,0:2|0:2,0:0:0:0:
501,198,75118,1,2,0:2:0:0:
274,112,75289,1,8,0:2:0:0:
367,280,75461,2,0,P|373:313|363:353,1,62.5,0|0,0:2|0:2,0:0:0:0:
191,145,75632,2,0,P|187:114|193:84,1,62.5,0|0,0:2|0:2,0:0:0:0:
168,354,75804,5,2,0:2:0:0:
271,148,75975,1,8,0:2:0:0:
34,202,76146,2,0,P|19:137|59:69,1,125,2|0,0:2|0:2,0:0:0:0:
278,186,76489,1,2,0:2:0:0:
46,203,76661,2,0,P|31:143|54:87,1,125,8|0,0:2|0:2,0:0:0:0:
274,112,77004,5,6,0:2:0:0:
118,303,77175,1,0,0:2:0:0:
341,145,77346,1,8,0:2:0:0:
120,149,77518,2,0,L|104:305,1,125,0|0,0:2|0:2,0:0:0:0:
300,363,77861,1,2,0:2:0:0:
259,162,78032,2,0,P|312:69|425:147,1,250,8|0,0:2|0:2,0:0:0:0:
389,348,78546,5,2,0:2:0:0:
341,145,78718,1,8,0:2:0:0:
394,359,78889,1,0,0:2:0:0:
259,162,79061,1,0,0:2:0:0:
400,372,79232,1,2,0:2:0:0:
196,233,79404,1,8,0:2:0:0:
455,230,79575,1,0,0:2:0:0:
192,325,79746,5,2,0:2:0:0:
341,145,79918,1,0,0:2:0:0:
271,383,80089,1,8,0:2:0:0:
259,162,80261,2,0,P|184:138|135:160,1,125,0|0,0:2|0:2,0:0:0:0:
18,296,80604,1,2,0:2:0:0:
104,85,80775,2,0,B|155:66|155:66|208:90|208:90|260:157|203:222,1,250,8|0,0:2|0:2,0:0:0:0:
0,173,81289,5,2,0:2:0:0:
128,329,81461,1,8,0:2:0:0:
15,156,81632,2,0,L|32:18,1,125,2|0,0:2|0:2,0:0:0:0:
139,305,81975,1,2,0:2:0:0:
39,144,82146,2,0,L|54:19,1,125,8|0,0:2|0:2,0:0:0:0:
247,58,82489,5,2,0:2:0:0:
68,132,82661,1,0,0:2:0:0:
260,161,82832,1,8,0:2:0:0:
63,240,83004,2,0,P|39:315|67:375,1,125,0|0,0:2|0:2,0:0:0:0:
141,166,83346,1,2,0:2:0:0:
313,282,83518,2,0,B|306:265|325:226|325:226|273:261|225:245|225:245|183:230|140:249,1,250,8|0,0:2|0:2,0:0:0:0:
163,384,84032,5,2,0:2:0:0:
260,161,84204,1,8,0:2:0:0:
168,363,84375,1,0,0:2:0:0:
362,329,84546,5,0,0:2:0:0:
141,248,84718,1,2,0:2:0:0:
357,305,84889,1,8,0:2:0:0:
155,225,85061,1,0,0:2:0:0:
352,275,85232,6,0,L|322:71,1,187.5,2|0,1:1|0:2,0:0:0:0:
292,78,85575,2,0,L|320:263,1,187.5,2|0,1:1|0:2,0:0:0:0:
287,251,85918,2,0,L|260:65,1,187.5,2|0,1:1|0:2,0:0:0:0:
227,55,86261,2,0,L|255:240,1,187.5,2|0,1:1|0:2,0:0:0:0:
136,324,86604,5,2,1:2:0:0:
15,86,86775,1,0,1:0:0:0:
40,68,86860,1,0,1:0:0:0:
70,59,86946,1,8,1:0:0:0:
209,154,87118,1,0,1:0:0:0:
184,172,87203,1,0,1:0:0:0:
154,181,87289,1,8,1:0:0:0:
200,28,87461,1,0,1:0:0:0:
225,10,87546,1,0,1:0:0:0:
255,0,87632,2,0,P|280:-2|317:1,1,62.5,8|0,1:0|0:0,0:0:0:0:
480,280,87975,6,0,L|355:292,1,125,6|0,0:2|0:2,0:0:0:0:
205,231,88318,1,8,0:2:0:0:
308,371,88489,2,0,P|367:387|426:356,1,125,0|0,0:2|0:2,0:0:0:0:
210,343,88832,1,2,0:2:0:0:
112,168,89004,2,0,B|140:-2|140:-2|165:71,1,250,8|0,0:2|0:2,0:0:0:0:
267,280,89518,5,2,0:2:0:0:
298,69,89689,1,8,0:2:0:0:
262,292,89861,1,0,0:2:0:0:
392,88,90032,1,0,0:2:0:0:
254,300,90204,1,2,0:2:0:0:
472,169,90375,1,8,0:2:0:0:
220,179,90546,1,0,0:2:0:0:
501,269,90718,5,2,0:2:0:0:
303,230,90889,1,0,0:2:0:0:
471,85,91061,1,8,0:2:0:0:
419,267,91232,2,0,P|436:325|491:349,1,125,0|0,0:2|0:2,0:0:0:0:
389,100,91575,1,2,0:2:0:0:
339,322,91746,2,0,P|225:295|221:178,1,250,8|0,0:2|0:2,0:0:0:0:
379,195,92261,5,2,0:2:0:0:
231,52,92432,1,8,0:2:0:0:
396,178,92604,2,0,L|406:53,1,125,2|0,0:2|0:2,0:0:0:0:
213,61,92946,1,2,0:2:0:0:
417,164,93118,2,0,L|427:39,1,125,8|0,0:2|0:2,0:0:0:0:
290,298,93461,5,2,0:2:0:0:
166,110,93632,1,0,0:2:0:0:
192,358,93804,1,8,0:2:0:0:
247,102,93975,2,0,P|199:32|133:32,1,125,0|0,0:2|0:2,0:0:0:0:
6,147,94318,1,2,0:2:0:0:
212,179,94489,2,0,B|233:275|190:357|190:357|192:308|176:274,1,250,8|0,0:2|0:2,0:0:0:0:
104,165,95004,5,2,0:2:0:0:
20,319,95175,1,8,0:2:0:0:
107,152,95346,1,0,0:2:0:0:
99,357,95518,1,0,0:2:0:0:
114,135,95689,1,2,0:2:0:0:
188,369,95861,1,8,0:2:0:0:
214,142,96032,1,0,0:2:0:0:
0,225,96204,5,2,0:2:0:0:
273,211,96375,1,0,0:2:0:0:
42,109,96546,1,8,0:2:0:0:
226,282,96718,2,0,P|304:296|347:251,1,125,0|0,0:2|0:2,0:0:0:0:
427,106,97061,1,2,0:2:0:0:
273,211,97232,1,8,0:2:0:0:
347,67,97404,2,0,P|342:97|350:128,1,62.5,0|0,0:2|0:2,0:0:0:0:
410,310,97575,2,0,P|417:279|412:249,1,62.5,0|0,0:2|0:2,0:0:0:0:
266,119,97746,5,2,0:2:0:0:
462,187,97918,1,8,0:2:0:0:
251,100,98089,2,0,L|239:248,1,125,2|0,0:2|0:2,0:0:0:0:
443,174,98432,1,2,0:2:0:0:
234,84,98604,2,0,L|223:208,1,125,8|0,0:2|0:2,0:0:0:0:
111,362,98946,5,6,0:2:0:0:
162,112,99118,1,0,0:2:0:0:
249,332,99289,1,8,0:2:0:0:
56,258,99461,2,0,P|49:196|85:146,1,125,0|0,0:2|0:2,0:0:0:0:
212,46,99804,1,2,0:2:0:0:
319,212,99975,2,0,B|234:243|234:243|131:216|131:216|205:187,1,250,8|0,0:2|0:2,0:0:0:0:
354,91,100489,5,2,0:2:0:0:
111,75,100661,1,8,0:2:0:0:
349,74,100832,1,0,0:2:0:0:
83,147,101004,1,0,0:2:0:0:
344,55,101175,1,2,0:2:0:0:
77,5,101346,1,8,0:2:0:0:
275,169,101518,1,0,0:2:0:0:
23,69,101689,5,2,0:2:0:0:
74,238,101861,1,0,0:2:0:0:
248,80,102032,1,8,0:2:0:0:
17,187,102204,2,0,P|1:266|51:313,1,125,0|0,0:2|0:2,0:0:0:0:
143,127,102546,1,2,0:2:0:0:
238,340,102718,2,0,P|160:355|221:254,1,250,8|0,0:2|0:2,0:0:0:0:
361,348,103232,5,2,0:2:0:0:
406,156,103404,1,8,0:2:0:0:
362,327,103575,2,0,L|223:341,1,125,2|0,0:2|0:2,0:0:0:0:
406,137,103918,1,2,0:2:0:0:
366,303,104089,2,0,L|241:315,1,125,8|0,0:2|0:2,0:0:0:0:
159,202,104432,5,2,0:2:0:0:
417,219,104604,1,0,0:2:0:0:
235,359,104775,1,8,0:2:0:0:
176,128,104946,2,0,P|192:48|249:18,1,125,0|0,0:2|0:2,0:0:0:0:
240,215,105289,1,2,0:2:0:0:
356,39,105461,2,0,B|426:68|426:68|236:105,1,250,8|0,0:0|0:0,0:0:0:0:
450,77,105975,5,2,0:2:0:0:
240,215,106146,1,8,0:2:0:0:
478,87,106318,1,0,0:2:0:0:
254,101,106489,5,0,0:2:0:0:
451,247,106661,1,2,0:2:0:0:
272,118,106832,1,8,0:2:0:0:
460,264,107004,1,0,0:2:0:0:
287,148,107175,6,0,P|207:133|286:223,1,300,6|0,0:2|0:2,0:0:0:0:
285,223,108546,5,2,1:0:0:0:
298,221,108889,1,2,1:0:0:0:
311,218,109232,1,2,1:0:0:0:
481,230,109575,1,10,1:0:0:0:
481,230,109918,6,0,B|464:166|464:166|492:107|492:107|477:35,1,200,2|8,0:3|0:0,0:0:0:0:
481,230,110432,2,0,L|510:346,1,100,0|0,0:0|0:0,0:0:0:0:
491,108,110775,1,2,0:2:0:0:
399,238,110946,2,0,P|356:273|209:236,1,200,8|0,0:0|0:0,0:0:0:0:
124,143,111461,5,2,0:2:0:0:
305,171,111632,1,8,0:0:0:0:
207,95,111804,1,0,0:0:0:0:
196,72,111889,1,0,0:0:0:0:
193,47,111975,1,0,0:0:0:0:
196,22,112061,1,0,0:0:0:0:
207,0,112146,1,2,0:2:0:0:
377,55,112318,2,0,L|244:43,1,100,8|0,0:0|0:0,0:0:0:0:
124,143,112661,6,0,B|-5:152|-5:152|61:111,1,200,2|8,0:2|0:0,0:0:0:0:
223,135,113175,2,0,L|107:144,1,100,0|0,0:0|0:0,0:0:0:0:
276,43,113518,1,2,0:2:0:0:
384,136,113689,2,0,L|376:348,1,200,8|0,0:0|0:0,0:0:0:0:
281,185,114204,5,2,0:2:0:0:
375,353,114375,1,8,0:0:0:0:
273,178,114546,2,0,L|267:301,1,100,2|0,0:2|0:0,0:0:0:0:
373,377,114889,1,2,0:2:0:0:
263,166,115061,2,0,L|257:289,1,100,8|0,0:0|0:0,0:0:0:0:
169,353,115404,6,0,P|171:250|87:179,1,200,2|8,0:2|0:0,0:0:0:0:
0,354,115918,2,0,P|60:368|96:354,1,100,0|0,0:0|0:0,0:0:0:0:
17,166,116261,1,2,0:2:0:0:
45,268,116432,2,0,B|131:307|169:240|261:285,1,200,8|0,0:0|0:0,0:0:0:0:
352,358,116946,5,2,0:2:0:0:
386,231,117118,1,8,0:0:0:0:
241,276,117289,1,0,0:0:0:0:
237,251,117375,1,0,0:0:0:0:
233,226,117461,1,0,0:0:0:0:
230,201,117546,1,0,0:0:0:0:
226,177,117632,1,2,0:2:0:0:
256,374,117804,2,0,L|238:262,1,100,8|0,0:0|0:0,0:0:0:0:
386,231,118146,6,0,P|454:253|499:231,2,100,2|0|8,0:2|0:0|0:0,0:0:0:0:
430,71,118661,2,0,L|444:191,1,100,0|0,0:0|0:0,0:0:0:0:
335,25,119004,1,2,0:2:0:0:
295,189,119175,1,8,0:0:0:0:
233,5,119346,2,0,P|232:28|245:75,1,50,0|0,0:0|0:0,0:0:0:0:
197,202,119518,2,0,P|205:179|201:152,1,50,0|0,0:0|0:0,0:0:0:0:
55,23,119689,5,2,0:2:0:0:
128,169,119861,1,8,0:0:0:0:
42,13,120032,2,0,P|25:70|37:119,1,100,2|0,0:2|0:0,0:0:0:0:
137,182,120375,1,2,0:2:0:0:
33,1,120546,2,0,P|16:58|28:107,1,100,8|0,0:0|0:0,0:0:0:0:
146,193,120889,6,0,B|178:263|178:263|144:388,1,200,2|8,0:2|0:0,0:0:0:0:
177,264,121404,2,0,P|235:242|281:256,1,100,0|0,0:0|0:0,0:0:0:0:
382,323,121746,1,2,0:2:0:0:
426,203,121918,2,0,P|385:158|370:250,1,200,8|0,0:0|0:0,0:0:0:0:
489,130,122432,5,2,0:2:0:0:
470,277,122604,1,8,0:0:0:0:
390,88,122775,1,0,0:0:0:0:
365,85,122861,1,0,0:0:0:0:
340,89,122946,1,0,0:0:0:0:
318,100,123032,1,0,0:0:0:0:
299,116,123118,1,2,0:2:0:0:
201,212,123289,2,0,L|90:218,1,100,8|0,0:0|0:0,0:0:0:0:
295,280,123632,6,0,L|63:294,1,200,2|8,0:2|0:0,0:0:0:0:
300,206,124146,2,0,L|189:212,1,100,0|0,0:0|0:0,0:0:0:0:
301,292,124489,1,2,0:2:0:0:
255,129,124661,2,0,P|365:147|383:239,1,200,8|0,0:0|0:0,0:0:0:0:
382,329,125175,5,2,0:2:0:0:
300,206,125346,1,8,0:0:0:0:
386,341,125518,2,0,L|496:353,1,100,2|0,0:2|0:0,0:0:0:0:
295,199,125861,1,2,0:2:0:0:
389,351,126032,2,0,L|499:363,1,100,8|0,0:0|0:0,0:0:0:0:
284,351,126375,6,0,L|82:372,1,200,2|8,0:2|0:0,0:0:0:0:
279,269,126889,2,0,L|179:278,1,100,0|0,0:0|0:0,0:0:0:0:
273,188,127232,1,2,0:2:0:0:
111,157,127404,2,0,P|88:73|182:4,1,200,8|0,0:0|0:0,0:0:0:0:
302,85,127918,5,2,0:2:0:0:
170,91,128089,1,8,0:0:0:0:
270,187,128261,1,0,0:0:0:0:
265,211,128346,1,0,0:0:0:0:
260,236,128432,1,0,0:0:0:0:
255,260,128518,1,0,0:0:0:0:
250,285,128604,1,2,0:2:0:0:
275,162,128775,2,0,P|324:161|363:192,1,100,8|0,0:0|0:0,0:0:0:0:
250,285,129118,6,0,L|135:294,2,100,2|0|0,0:2|0:0|0:0,0:0:0:0:
118,361,129632,2,0,P|80:320|84:259,1,100,0|0,0:0|0:0,0:0:0:0:
137,170,129975,1,0,0:0:0:0:
13,193,130146,1,0,0:0:0:0:
121,93,130318,2,0,P|152:92|192:107,1,50
49,35,130489,2,0,P|18:34|-22:49,1,50
123,15,130661,1,0,0:0:0:0:
48,111,130832,2,0,L|60:269,1,150.000005722046
