osu file format v14

[General]
AudioFilename: audio.mp3
AudioLeadIn: 0
PreviewTime: 63289
Countdown: 0
SampleSet: None
StackLeniency: 0.6
Mode: 0
LetterboxInBreaks: 0
WidescreenStoryboard: 0

[Editor]
Bookmarks: 93461,109918
DistanceSpacing: 1
BeatDivisor: 4
GridSize: 8
TimelineZoom: 1

[Metadata]
Title:City Needs Sleep (Fox Stevenson Remix)
TitleUnicode:City Needs Sleep (Fox Stevenson Remix)
Artist:Priority One & TwoThirds
ArtistUnicode:Priority One & TwoThirds
Creator:SquareTude
Version:Minorsonek's Normal
Source:
Tags:RVMathew Minorsonek dnb drum and bass Stan SB liquicity
BeatmapID:1720981
BeatmapSetID:821050

[Difficulty]
HPDrainRate:3
CircleSize:3
OverallDifficulty:3
ApproachRate:5
SliderMultiplier:0.999999999999999
SliderTickRate:1

[Events]
//Background and Video events
0,0,"http___www.wallpaperbetter.com_wallpaper_251_166_435_girl-back-pigeons-birds-sky-night-free-fantasy-1080P-wallpaper.jpg",0,0
//Break Periods
2,22146,31918
//Storyboard Layer 0 (Background)
//Storyboard Layer 1 (Fail)
//Storyboard Layer 2 (Pass)
//Storyboard Layer 3 (Foreground)
//Storyboard Sound Samples

[TimingPoints]
204,342.857142857143,4,2,0,55,1,0
204,-100,4,2,0,55,0,0
32261,-100,4,2,0,45,0,0
33118,-100,4,2,0,45,0,0
44089,-100,4,3,0,35,0,0
49575,-100,4,3,0,45,0,0
55061,-100,4,2,0,60,0,0
55318,-100,4,2,0,5,0,0
55404,-100,4,2,0,60,0,0
56004,-100,4,2,0,5,0,0
56089,-100,4,2,0,60,0,0
56689,-100,4,2,0,5,0,0
56775,-100,4,2,0,60,0,0
57375,-100,4,2,0,5,0,0
57461,-100,4,2,0,60,0,0
58061,-100,4,2,0,5,0,0
58146,-100,4,2,0,60,0,0
58746,-100,4,2,0,5,0,0
58832,-100,4,2,0,60,0,0
59432,-100,4,2,0,5,0,0
59518,-100,4,2,0,60,0,0
60118,-100,4,2,0,5,0,0
60204,-100,4,2,0,60,0,0
63289,-100,4,2,0,55,0,0
66032,-100,4,2,0,80,0,1
85232,-100,4,2,0,80,0,0
85489,-100,4,2,0,5,0,0
85575,-100,4,2,0,80,0,0
85832,-100,4,2,0,5,0,0
85918,-100,4,2,0,80,0,0
86175,-100,4,2,0,5,0,0
86261,-100,4,2,0,80,0,0
86518,-100,4,2,0,5,0,0
86604,-100,4,2,0,80,0,0
87718,-100,4,2,0,5,0,0
87975,-100,4,2,0,80,0,1
107175,-100,4,2,0,80,0,0
109918,-100,4,3,0,60,0,0
130318,-100,4,3,0,60,0,0
130489,-100,4,3,0,40,0,0
130832,-100,4,3,0,30,0,0
131175,-100,4,3,0,20,0,0

[Colours]
Combo1 : 51,142,255
Combo2 : 187,119,255

[HitObjects]
57,41,204,5,6,0:0:0:0:
117,120,546,2,0,L|99:281,1,150,8|2,0:0|0:0,0:0:0:0:
93,318,1232,1,8,0:0:0:0:
233,266,1746,1,2,0:0:0:0:
267,302,1918,2,0,L|416:318,1,150,8|2,0:0|0:0,0:0:0:0:
465,325,2604,1,8,0:0:0:0:
435,229,2946,5,2,0:0:0:0:
467,134,3289,2,0,L|317:150,1,150,8|2,0:0|0:0,0:0:0:0:
268,158,3975,1,8,0:0:0:0:
144,72,4489,2,0,L|137:132,1,50,2|8,0:0|0:0,0:0:0:0:
131,170,4832,2,0,L|118:290,1,99.9999999999999,2|2,0:0|0:0,0:0:0:0:
114,319,5346,1,8,0:0:0:0:
211,296,5689,5,2,0:0:0:0:
290,355,6032,2,0,L|451:337,1,150,8|2,0:0|0:0,0:0:0:0:
488,331,6718,1,8,0:0:0:0:
363,247,7232,1,2,0:0:0:0:
327,213,7404,2,0,L|311:64,1,150,8|2,0:0|0:0,0:0:0:0:
304,18,8089,1,8,0:0:0:0:
220,73,8432,5,2,0:0:0:0:
131,26,8775,2,0,L|115:176,1,150,8|2,0:0|0:0,0:0:0:0:
107,225,9461,1,8,0:0:0:0:
202,340,9975,2,0,L|262:333,1,50,2|8,0:0|0:0,0:0:0:0:
300,327,10318,2,0,L|420:314,1,99.9999999999999,2|2,0:0|0:0,0:0:0:0:
449,310,10832,1,8,0:0:0:0:
484,216,11175,6,0,L|472:99,1,99.9999999999999,6|8,0:0|0:0,0:0:0:0:
345,39,12032,1,2,0:0:0:0:
339,87,12204,2,0,L|323:238,1,150,8|2,0:0|0:0,0:0:0:0:
317,286,12889,2,0,L|166:301,1,150,8|2,0:0|0:0,0:0:0:0:
118,309,13575,1,8,0:0:0:0:
50,235,13918,6,0,L|62:118,1,99.9999999999999,2|8,0:0|0:0,0:0:0:0:
185,52,14775,1,2,0:0:0:0:
191,101,14946,2,0,L|206:251,1,150,8|2,0:0|0:0,0:0:0:0:
213,299,15632,2,0,L|362:314,1,150,8|2,0:0|0:0,0:0:0:0:
412,320,16318,2,0,L|401:213,1,99.9999999999999,8|2,0:0|0:0,0:0:0:0:
392,120,17004,5,8,0:0:0:0:
263,43,17518,1,2,0:0:0:0:
213,51,17689,2,0,L|63:66,1,150,8|2,0:0|0:0,0:0:0:0:
13,71,18375,1,8,0:0:0:0:
95,196,18889,1,2,0:0:0:0:
129,232,19061,2,0,L|136:336,1,99.9999999999999,8|2,0:0|0:0,0:0:0:0:
256,192,19575,12,2,20775,0:0:0:0:
76,79,33118,6,0,L|128:71,1,50,0|0,3:0|0:0,0:0:0:0:
174,62,33461,2,0,L|226:54,1,50,0|0,0:0|3:0,0:0:0:0:
319,83,33975,1,0,0:0:0:0:
319,83,34146,1,0,3:0:0:0:
441,301,35004,1,0,0:0:0:0:
406,336,35175,2,0,L|304:348,1,99.9999999999999,0|0,3:0|3:0,0:0:0:0:
206,358,35861,6,0,L|214:306,1,50,0|0,3:0|0:0,0:0:0:0:
223,260,36204,2,0,L|231:208,1,50,0|0,0:0|3:0,0:0:0:0:
202,115,36718,1,0,0:0:0:0:
202,115,36889,1,0,3:0:0:0:
440,39,37746,1,0,0:0:0:0:
417,83,37918,2,0,L|426:139,2,50,0|0|0,3:0|0:0|3:0,0:0:0:0:
328,35,38604,6,0,L|276:43,1,50,0|0,3:0|0:0,0:0:0:0:
230,52,38946,2,0,L|178:60,1,50,0|0,0:0|3:0,0:0:0:0:
102,121,39461,1,0,0:0:0:0:
102,121,39632,1,0,3:0:0:0:
73,369,40489,1,0,0:0:0:0:
108,334,40661,2,0,L|210:322,1,99.9999999999999,0|0,3:0|3:0,0:0:0:0:
300,358,41346,6,0,L|308:306,1,50,0|0,3:0|0:0,0:0:0:0:
317,260,41689,2,0,L|325:208,1,50,0|0,0:0|3:0,0:0:0:0:
395,139,42204,1,0,0:0:0:0:
395,139,42375,1,0,3:0:0:0:
171,25,43232,1,0,0:0:0:0:
153,71,43404,2,0,L|158:120,1,50,0|0,3:0|0:0,0:0:0:0:
136,165,43746,2,0,L|141:214,1,50,0|0,3:0|0:0,0:0:0:0:
177,249,44089,6,0,P|246:241|333:250,2,150,4|0|8,0:2|0:0|0:0,0:0:0:0:
325,248,46318,1,2,0:0:0:0:
296,288,46489,2,0,L|309:351,1,50,8|0,0:0|0:0,0:0:0:0:
366,345,46832,6,0,P|412:311|422:214,2,150,2|0|8,0:0|0:0|0:0,0:0:0:0:
413,79,49575,6,0,B|344:79|362:156|283:157,2,150,2|0|8,0:0|0:0|0:0,0:0:0:0:
292,156,51804,1,2,0:0:0:0:
256,121,51975,2,0,L|195:127,1,50,8|0,0:0|0:0,0:0:0:0:
168,159,52318,6,0,P|184:226|140:301,2,150,2|0|8,0:0|0:0|0:0,0:0:0:0:
41,55,55061,6,0,L|140:68,1,99.9999999999999,2|2,0:0|0:0,0:0:0:0:
230,111,55746,2,0,L|329:97,1,99.9999999999999,2|2,0:0|0:0,0:0:0:0:
421,57,56432,2,0,L|407:156,1,99.9999999999999,2|2,0:0|0:0,0:0:0:0:
365,246,57118,2,0,L|378:345,1,99.9999999999999,2|2,0:0|0:0,0:0:0:0:
282,314,57804,6,0,L|182:300,1,99.9999999999999,2|2,0:0|0:0,0:0:0:0:
133,212,58489,2,0,L|232:198,1,99.9999999999999,2|2,0:0|0:0,0:0:0:0:
311,136,59175,2,0,L|410:149,1,99.9999999999999,2|2,0:0|0:0,0:0:0:0:
456,238,59861,2,0,L|356:251,1,99.9999999999999,2|2,0:0|0:0,0:0:0:0:
277,312,60546,5,2,0:0:0:0:
256,192,60718,12,6,63289,0:0:0:0:
10,160,65689,5,10,1:0:0:0:
79,87,66032,6,0,P|127:74|175:86,1,99.9999999999999,6|8,0:2|0:2,0:0:0:0:
217,112,66546,1,0,0:2:0:0:
289,43,66889,1,2,0:2:0:0:
331,69,67061,2,0,P|379:81|427:68,2,99.9999999999999,8|0|8,0:2|0:2|0:2,0:0:0:0:
454,226,68432,1,8,0:2:0:0:
502,313,68775,6,0,P|453:325|405:313,1,99.9999999999999,2|8,0:2|0:2,0:0:0:0:
364,288,69289,1,0,0:2:0:0:
292,357,69632,1,2,0:2:0:0:
250,331,69804,2,0,P|201:318|153:331,1,99.9999999999999,8|0,0:2|0:2,0:0:0:0:
67,382,70489,2,0,P|54:333|66:285,1,99.9999999999999,8|0,0:2|0:2,0:0:0:0:
122,202,71175,2,0,L|108:140,1,50,8|0,0:2|0:2,0:0:0:0:
97,104,71518,6,0,P|145:117|193:105,1,99.9999999999999,2|8,0:2|0:2,0:0:0:0:
235,79,72032,1,0,0:2:0:0:
323,125,72375,1,2,0:2:0:0:
358,89,72546,2,0,L|475:76,2,99.9999999999999,8|0|8,0:2|0:2|0:2,0:0:0:0:
211,225,73918,1,8,0:2:0:0:
120,181,74261,6,0,P|108:229|120:277,1,99.9999999999999,2|8,0:2|0:2,0:0:0:0:
145,320,74775,1,0,0:2:0:0:
231,369,75118,1,2,0:2:0:0:
264,332,75289,2,0,P|313:319|361:332,1,99.9999999999999,8|0,0:2|0:2,0:0:0:0:
447,378,75975,2,0,P|458:329|445:282,1,99.9999999999999,8|0,0:2|0:2,0:0:0:0:
391,195,76661,2,0,L|405:133,1,50,8|0,0:2|0:2,0:0:0:0:
415,97,77004,6,0,P|367:84|319:96,1,99.9999999999999,6|8,0:2|0:2,0:0:0:0:
277,122,77518,1,0,0:2:0:0:
205,53,77861,1,2,0:2:0:0:
163,79,78032,2,0,P|115:91|67:78,2,99.9999999999999,8|0|8,0:2|0:2|0:2,0:0:0:0:
55,247,79404,1,8,0:2:0:0:
6,334,79746,6,0,P|54:345|102:333,1,99.9999999999999,2|8,0:2|0:2,0:0:0:0:
148,315,80261,1,0,0:2:0:0:
226,377,80604,1,2,0:2:0:0:
268,351,80775,2,0,L|369:339,1,99.9999999999999,8|0,0:2|0:2,0:0:0:0:
465,318,81461,2,0,L|476:218,1,99.9999999999999,8|0,0:2|0:2,0:0:0:0:
379,193,82146,2,0,L|372:143,1,50,8|0,0:2|0:2,0:0:0:0:
364,94,82489,6,0,P|316:107|268:95,1,99.9999999999999,2|8,0:2|0:2,0:0:0:0:
226,69,83004,1,0,0:2:0:0:
134,28,83346,1,2,0:2:0:0:
107,70,83518,2,0,L|89:181,2,99.9999999999999,8|0|8,0:2|0:2|0:2,0:0:0:0:
167,260,84889,1,8,0:2:0:0:
234,334,85232,6,0,L|284:338,2,50,2|0|2,1:1|0:0|1:1,0:0:0:0:
191,361,85746,2,0,P|143:343|83:356,1,99.9999999999999
60,313,86261,2,0,P|47:264|60:216,1,99.9999999999999,2|2,1:1|1:2,0:0:0:0:
114,133,86946,5,8,1:0:0:0:
208,166,87289,1,8,1:0:0:0:
302,199,87632,1,8,1:0:0:0:
390,152,87975,6,0,L|403:211,2,50,6|0|8,0:2|0:2|0:2,0:0:0:0:
374,104,88489,1,0,0:2:0:0:
299,37,88832,1,2,0:2:0:0:
257,63,89004,2,0,P|209:75|161:62,1,99.9999999999999,8|0,0:2|0:2,0:0:0:0:
72,108,89689,1,8,0:2:0:0:
90,307,90375,1,8,0:2:0:0:
189,285,90718,6,0,L|202:226,2,50,2|0|8,0:2|0:2|0:2,0:0:0:0:
216,326,91232,1,0,0:2:0:0:
314,308,91575,1,2,0:2:0:0:
356,334,91746,2,0,P|405:347|453:334,1,99.9999999999999,8|0,0:2|0:2,0:0:0:0:
403,247,92432,2,0,P|390:198|402:150,1,99.9999999999999,8|0,0:2|0:2,0:0:0:0:
456,66,93118,1,8,0:2:0:0:
357,50,93461,6,0,L|345:1,2,50,2|0|8,0:2|0:2|0:2,0:0:0:0:
333,94,93975,1,0,0:2:0:0:
246,44,94318,1,2,0:2:0:0:
204,70,94489,2,0,P|155:81|108:69,1,99.9999999999999,8|0,0:2|0:2,0:0:0:0:
21,18,95175,1,8,0:2:0:0:
115,194,95861,1,8,0:2:0:0:
134,292,96204,6,0,L|75:279,2,50,2|0|8,0:2|0:2|0:2,0:0:0:0:
183,305,96718,1,0,0:2:0:0:
269,254,97061,1,2,0:2:0:0:
311,280,97232,2,0,P|360:293|408:280,1,99.9999999999999,8|0,0:2|0:2,0:0:0:0:
493,329,97918,2,0,P|506:280|494:232,1,99.9999999999999,8|0,0:2|0:2,0:0:0:0:
436,151,98604,1,8,0:2:0:0:
457,53,98946,6,0,L|516:40,2,50,6|0|8,0:2|0:2|0:2,0:0:0:0:
412,30,99461,1,0,0:2:0:0:
340,99,99804,1,2,0:2:0:0:
298,73,99975,2,0,L|185:60,1,99.9999999999999,8|0,0:2|0:2,0:0:0:0:
99,48,100661,1,8,0:2:0:0:
8,225,101346,1,8,0:2:0:0:
65,306,101689,6,0,L|6:319,2,50,2|0|8,0:2|0:2|0:2,0:0:0:0:
110,329,102204,1,0,0:2:0:0:
187,266,102546,1,2,0:2:0:0:
229,292,102718,2,0,L|333:307,1,99.9999999999999,8|0,0:2|0:2,0:0:0:0:
412,360,103404,2,0,P|425:311|413:263,1,99.9999999999999,8|0,0:2|0:2,0:0:0:0:
358,180,104089,1,8,0:2:0:0:
257,178,104432,6,0,L|270:118,2,50,2|0|8,0:2|0:2|0:2,0:0:0:0:
242,225,104946,1,0,0:2:0:0:
162,164,105289,1,2,0:2:0:0:
129,125,105461,2,0,P|117:77|130:29,1,99.9999999999999,8|0,0:0|0:0,0:0:0:0:
215,80,106146,1,8,0:2:0:0:
407,27,106832,1,8,0:2:0:0:
467,106,107175,6,0,B|407:151|407:272|468:331|468:331|397:292|319:321,1,400,6|2,0:2|1:0,0:0:0:0:
229,355,108889,5,2,1:0:0:0:
142,304,109232,1,2,1:0:0:0:
59,247,109575,1,10,1:0:0:0:
149,204,109918,6,0,L|138:103,1,99.9999999999999,2|8,0:3|0:0,0:0:0:0:
271,39,110775,1,2,0:2:0:0:
265,88,110946,2,0,L|247:250,1,150,8|2,0:0|0:2,0:0:0:0:
243,287,111632,1,8,0:0:0:0:
366,371,112146,1,2,0:2:0:0:
361,321,112318,2,0,L|356:271,1,50,8|0,0:0|0:0,0:0:0:0:
353,221,112661,6,0,L|454:232,1,99.9999999999999,2|8,0:2|0:0,0:0:0:0:
500,89,113518,1,2,0:2:0:0:
451,95,113689,2,0,L|288:112,1,150,8|2,0:0|0:2,0:0:0:0:
252,117,114375,1,8,0:0:0:0:
203,126,114546,2,0,L|103:136,1,99.9999999999999,2|2,0:2|0:2,0:0:0:0:
53,144,115061,1,8,0:0:0:0:
85,238,115404,6,0,L|74:339,1,99.9999999999999,2|8,0:2|0:0,0:0:0:0:
220,371,116261,1,2,0:2:0:0:
214,322,116432,2,0,L|196:160,1,150,8|2,0:0|0:2,0:0:0:0:
192,123,117118,1,8,0:0:0:0:
324,52,117632,1,2,0:2:0:0:
319,102,117804,2,0,L|314:152,1,50,8|0,0:0|0:0,0:0:0:0:
308,201,118146,6,0,L|409:190,1,99.9999999999999,2|8,0:2|0:0,0:0:0:0:
479,322,119004,1,2,0:2:0:0:
430,316,119175,2,0,L|267:299,1,150,8|2,0:0|0:2,0:0:0:0:
231,294,119861,1,8,0:0:0:0:
182,285,120032,2,0,L|82:275,1,99.9999999999999,2|2,0:2|0:2,0:0:0:0:
35,267,120546,1,8,0:0:0:0:
86,181,120889,6,0,L|75:80,1,99.9999999999999,2|8,0:2|0:0,0:0:0:0:
217,33,121746,1,2,0:2:0:0:
211,82,121918,2,0,L|193:244,1,150,8|2,0:0|0:2,0:0:0:0:
189,281,122604,1,8,0:0:0:0:
318,355,123118,1,2,0:2:0:0:
313,305,123289,2,0,L|308:255,1,50,8|0,0:0|0:0,0:0:0:0:
305,205,123632,6,0,L|406:216,1,99.9999999999999,2|8,0:2|0:0,0:0:0:0:
475,83,124489,1,2,0:2:0:0:
426,89,124661,2,0,L|263:106,1,150,8|2,0:0|0:2,0:0:0:0:
227,111,125346,1,8,0:0:0:0:
178,120,125518,2,0,L|78:130,1,99.9999999999999,2|2,0:2|0:2,0:0:0:0:
28,138,126032,1,8,0:0:0:0:
96,210,126375,6,0,L|106:309,1,99.9999999999999,2|8,0:2|0:0,0:0:0:0:
242,374,127232,1,2,0:2:0:0:
248,325,127404,2,0,L|266:163,1,150,8|2,0:0|0:2,0:0:0:0:
270,126,128089,1,8,0:0:0:0:
139,52,128604,1,2,0:2:0:0:
144,102,128775,2,0,L|149:152,1,50,8|0,0:0|0:0,0:0:0:0:
152,202,129118,6,0,L|51:191,1,99.9999999999999,2|0,0:2|0:0,0:0:0:0:
2,277,129804,1,0,0:0:0:0:
131,351,130318,1,0,0:0:0:0:
180,344,130489,2,0,L|280:333,2,99.9999999999999,0|0|0,0:0|0:0|0:0,0:0:0:0:
