osu file format v14

[General]
AudioFilename: imba.mp3
AudioLeadIn: 0
PreviewTime: 78693
Countdown: 0
SampleSet: None
StackLeniency: 0.4
Mode: 0
LetterboxInBreaks: 0
WidescreenStoryboard: 1

[Editor]
Bookmarks: 18205,26010,33815,43571,59181,70888,78693,86498,93327,94303,102108,109913,119669,135279,146986,154791,162596,169425,170401,178205,197718,207474,222108,223084,238693,253327
DistanceSpacing: 1.1
BeatDivisor: 4
GridSize: 8
TimelineZoom: 1.3

[Metadata]
Title:UNBALANCED LOVE
TitleUnicode:UNBALANCED LOVE
Artist:Printemps
ArtistUnicode:Printemps
Creator:DT-sama
Version:
Source:ラブライブ! School idol project
Tags:高坂穂乃果 Kousaka Honoka 新田恵海 Nitta Emi 南ことり Minami Kotori 内田彩 Uchida Aya 小泉花陽 Koizumi Hanayo 久保ユリカ Kubo Yurika school idol project muse LL lovelive
BeatmapID:1971391
BeatmapSetID:943974

[Difficulty]
HPDrainRate:5
CircleSize:4
OverallDifficulty:7.5
ApproachRate:8
SliderMultiplier:2.6
SliderTickRate:1

[Events]
//Background and Video events
0,0,"bg.jpg",0,0
//Break Periods
2,34015,42577
2,110113,118675
2,170601,176968
2,197962,204773
//Storyboard Layer 0 (Background)
//Storyboard Layer 1 (Fail)
//Storyboard Layer 2 (Pass)
//Storyboard Layer 3 (Foreground)
//Storyboard Sound Samples

[TimingPoints]
0,500,4,2,1,100,1,0
645,487.80487804878,4,2,1,80,1,0
18205,-100,4,2,1,80,0,1
33815,-100,4,2,1,80,0,0
78693,-100,4,2,1,80,0,1
93327,-100,4,2,1,80,0,0
94303,-100,4,2,1,80,0,1
109913,-100,4,2,1,80,0,0
154791,-100,4,2,1,80,0,1
169425,-100,4,2,1,80,0,0
170401,-100,4,2,1,80,0,0
207474,-100,4,2,1,80,0,1
222108,-100,4,2,1,80,0,0
223084,-100,4,2,1,80,0,1
238693,-100,4,2,1,80,0,0
259473,487.80487804878,4,2,1,40,1,0

[Colours]
Combo1 : 254,154,239
Combo2 : 254,207,160
Combo3 : 247,253,121
Combo4 : 237,225,184

[HitObjects]
256,192,16254,12,0,17718,0:0:0:0:
35,60,18205,5,8,0:0:0:0:
66,140,18327,1,0,0:0:0:0:
147,169,18449,1,0,0:0:0:0:
229,149,18571,1,8,0:0:0:0:
318,128,18693,1,0,0:0:0:0:
392,168,18815,1,0,0:0:0:0:
422,249,18937,1,8,0:0:0:0:
379,321,19059,1,0,0:0:0:0:
291,314,19181,6,8,P|276:282|286:222,2,65
466,310,19547,2,0,P|481:342|468:400,2,65,8|8|0,0:0|0:0|0:0,0:0:0:0:
374,294,19913,1,2,0:0:0:0:
387,205,20035,1,0,0:0:0:0:
463,154,20157,6,0,P|493:118|498:72,2,65,8|0|0,0:0|0:0|0:0,0:0:0:0:
397,75,20523,2,0,P|409:45|432:22,2,65,8|0|0,0:0|0:0|0:0,0:0:0:0:
338,157,20888,1,8,0:0:0:0:
255,166,21010,1,0,0:0:0:0:
190,121,21132,1,8,0:0:0:0:
111,93,21254,1,0,0:0:0:0:
51,143,21376,1,0,0:0:0:0:
71,221,21498,1,0,0:0:0:0:
152,244,21620,6,0,P|187:240|244:209,1,65,12|0,0:0|0:0,0:0:0:0:
331,78,21864,2,0,P|296:82|239:113,1,65,8|0,0:0|0:0,0:0:0:0:
319,193,22108,6,8,P|376:230|392:229,2,65,12|8|8,0:0|0:0|0:0,0:0:0:0:
419,152,22474,2,0,P|448:164|469:188,2,65,8|8|0,0:0|0:0|0:0,0:0:0:0:
334,103,22840,1,8,0:0:0:0:
250,99,22962,1,0,0:0:0:0:
205,173,23084,1,8,0:0:0:0:
175,251,23205,1,0,0:0:0:0:
99,292,23327,1,8,0:0:0:0:
15,266,23449,1,8,0:0:0:0:
1,181,23571,1,0,0:0:0:0:
59,122,23693,1,0,0:0:0:0:
141,136,23815,1,8,0:0:0:0:
216,105,23937,1,0,0:0:0:0:
263,39,24059,6,0,P|291:13|325:0,2,65,8|0|0,0:0|0:0|0:0,0:0:0:0:
486,16,24425,2,0,P|458:42|424:55,2,65,8|0|0,0:0|0:0|0:0,0:0:0:0:
344,94,24791,1,8,0:0:0:0:
417,137,24913,1,0,0:0:0:0:
495,139,25035,1,12,0:0:0:0:
443,204,25157,1,0,0:0:0:0:
452,286,25279,1,0,0:0:0:0:
391,345,25401,1,0,0:0:0:0:
293,344,25523,1,4,0:0:0:0:
235,282,25644,1,0,0:0:0:0:
243,202,25766,1,0,0:0:0:0:
314,170,25888,1,0,0:0:0:0:
393,144,26010,6,0,P|426:123|446:74,2,65,8|0|0,0:0|0:0|0:0,0:0:0:0:
403,7,26376,2,0,P|370:28|350:77,2,65,8|0|0,0:0|0:0|0:0,0:0:0:0:
501,33,26742,1,8,0:0:0:0:
512,106,26864,1,0,0:0:0:0:
455,162,26986,6,8,P|440:130|450:70,2,65
497,247,27352,2,0,P|512:279|499:337,2,65,8|8|0,0:0|0:0|0:0,0:0:0:0:
397,236,27718,5,2,0:0:0:0:
324,182,27840,1,0,0:0:0:0:
225,160,27962,6,0,P|195:124|190:78,2,65,8|0|0,0:0|0:0|0:0,0:0:0:0:
291,81,28328,2,0,P|279:51|256:28,2,65,8|0|0,0:0|0:0|0:0,0:0:0:0:
324,182,28693,1,8,0:0:0:0:
241,173,28815,1,0,0:0:0:0:
176,218,28937,1,8,0:0:0:0:
97,246,29059,1,0,0:0:0:0:
37,196,29181,1,8,0:0:0:0:
57,118,29303,1,0,0:0:0:0:
135,87,29425,1,8,0:0:0:0:
210,132,29547,1,0,0:0:0:0:
295,113,29669,1,8,0:0:0:0:
371,151,29791,1,0,0:0:0:0:
462,149,29913,6,0,P|510:113|524:88,2,65,8|8|8,0:0|0:0|0:0,0:0:0:0:
479,13,30279,2,0,P|431:49|417:74,2,65,8|8|0,0:0|0:0|0:0,0:0:0:0:
372,127,30644,1,8,0:0:0:0:
298,167,30766,1,0,0:0:0:0:
217,141,30888,1,8,0:0:0:0:
136,120,31010,1,0,0:0:0:0:
62,157,31132,1,8,0:0:0:0:
49,235,31254,1,8,0:0:0:0:
108,291,31376,1,0,0:0:0:0:
192,285,31498,1,0,0:0:0:0:
244,221,31620,1,8,0:0:0:0:
217,141,31742,1,0,0:0:0:0:
220,55,31864,5,8,0:0:0:0:
296,32,31986,1,0,0:0:0:0:
366,78,32108,1,0,0:0:0:0:
360,161,32230,1,8,0:0:0:0:
416,227,32352,1,0,0:0:0:0:
501,219,32474,1,0,0:0:0:0:
469,117,32596,5,8,0:0:0:0:
388,177,32718,1,0,0:0:0:0:
471,206,32840,5,8,0:0:0:0:
390,266,32962,1,8,0:0:0:0:
289,269,33083,1,8,0:0:0:0:
208,209,33205,1,8,0:0:0:0:
106,187,33327,1,8,0:0:0:0:
24,239,33449,1,8,0:0:0:0:
31,336,33571,1,8,0:0:0:0:
126,380,33693,1,8,0:0:0:0:
218,332,33815,5,4,0:0:0:0:
157,68,43327,5,8,0:0:0:0:
97,118,43449,1,0,0:0:0:0:
98,196,43571,6,0,P|124:248|208:285,1,130,4|0,0:0|0:0,0:0:0:0:
391,282,44059,2,0,P|365:230|281:193,1,130,8|0,0:0|0:0,0:0:0:0:
318,265,44547,1,0,0:0:0:0:
420,224,44669,1,8,0:0:0:0:
272,116,44913,1,0,0:0:0:0:
329,46,45035,2,0,P|411:63|464:107,1,130,8|0,0:0|0:0,0:0:0:0:
318,296,45523,6,0,P|240:296|163:253,1,130,4|0,0:0|0:0,0:0:0:0:
194,88,46010,2,0,P|272:88|349:131,1,130,4|0,0:0|0:0,0:0:0:0:
401,220,46498,1,2,0:0:0:0:
378,283,46620,1,8,0:0:0:0:
153,312,46864,1,0,0:0:0:0:
115,260,46986,1,8,0:0:0:0:
257,100,47230,1,8,0:0:0:0:
421,251,47474,6,0,P|346:297|301:299,1,130,4|0,0:0|0:0,0:0:0:0:
91,133,47962,2,0,P|166:87|211:85,1,130,4|0,0:0|0:0,0:0:0:0:
350,200,48449,1,8,0:0:0:0:
286,246,48571,1,2,0:0:0:0:
135,307,48815,1,8,0:0:0:0:
195,247,48937,1,2,0:0:0:0:
124,164,49181,1,8,0:0:0:0:
124,164,49303,1,0,0:0:0:0:
124,164,49425,5,4,0:0:0:0:
187,118,49547,1,0,0:0:0:0:
263,124,49669,1,0,0:0:0:0:
321,180,49791,1,0,0:0:0:0:
399,197,49913,1,4,0:0:0:0:
475,167,50035,1,0,0:0:0:0:
483,81,50157,1,0,0:0:0:0:
416,31,50279,1,0,0:0:0:0:
337,53,50401,5,8,0:0:0:0:
313,127,50523,1,0,0:0:0:0:
356,190,50644,1,0,0:0:0:0:
426,222,50766,1,8,0:0:0:0:
465,288,50888,1,4,0:0:0:0:
437,358,51010,1,0,0:0:0:0:
360,372,51132,1,8,0:0:0:0:
297,325,51254,1,0,0:0:0:0:
239,272,51376,6,0,P|166:261|83:283,1,130,4|0,0:0|0:0,0:0:0:0:
336,189,51864,2,0,P|409:200|492:178,1,130,4|0,0:0|0:0,0:0:0:0:
354,74,52352,1,2,0:0:0:0:
265,68,52474,1,8,0:0:0:0:
177,150,52718,1,0,0:0:0:0:
88,144,52840,1,8,0:0:0:0:
0,235,53084,1,8,0:0:0:0:
36,315,53205,1,0,0:0:0:0:
127,340,53327,6,0,P|198:327|223:252,2,130,4|0|4,0:0|0:0|0:0,0:0:0:0:
107,235,54303,5,8,0:0:0:0:
116,198,54425,1,0,0:0:0:0:
142,158,54547,1,8,0:0:0:0:
176,133,54669,1,0,0:0:0:0:
224,116,54791,1,8,0:0:0:0:
280,115,54913,1,0,0:0:0:0:
334,141,55035,1,8,0:0:0:0:
416,118,55157,1,0,0:0:0:0:
440,33,55279,6,8,P|468:108|398:211,2,195
320,139,56254,5,8,0:0:0:0:
181,213,56620,1,8,0:0:0:0:
46,132,56986,1,8,0:0:0:0:
190,36,57230,5,4,0:0:0:0:
254,71,57352,1,0,0:0:0:0:
280,136,57474,1,0,0:0:0:0:
264,200,57596,1,0,0:0:0:0:
288,265,57718,1,4,0:0:0:0:
354,298,57840,1,0,0:0:0:0:
416,278,57962,1,0,0:0:0:0:
437,217,58084,1,0,0:0:0:0:
389,169,58205,5,4,0:0:0:0:
326,187,58327,1,8,0:0:0:0:
309,247,58449,1,0,0:0:0:0:
354,298,58571,1,0,0:0:0:0:
416,278,58693,1,12,0:0:0:0:
437,217,58815,1,0,0:0:0:0:
381,160,58937,1,8,0:0:0:0:
379,81,59059,1,0,0:0:0:0:
446,34,59181,6,4,P|365:65|250:33,2,195
467,331,60157,5,4,0:0:0:0:
255,161,60523,1,4,0:0:0:0:
100,334,60888,1,4,0:0:0:0:
165,252,61132,5,8,0:0:0:0:
231,283,61254,1,2,0:0:0:0:
385,218,61498,1,8,0:0:0:0:
402,153,61620,1,2,0:0:0:0:
226,64,61864,1,10,0:0:0:0:
80,251,62108,6,0,P|115:323|221:368,2,195,8|8|8,0:0|0:0|0:0,0:0:0:0:
432,204,63084,5,6,0:0:0:0:
191,195,63449,1,2,0:0:0:0:
353,48,63815,1,10,0:0:0:0:
349,272,64059,5,6,0:0:0:0:
230,63,64425,1,10,0:0:0:0:
511,113,64791,1,2,0:0:0:0:
464,314,65035,5,10,0:0:0:0:
393,322,65157,1,0,0:0:0:0:
320,296,65279,1,0,0:0:0:0:
300,220,65401,1,10,0:0:0:0:
271,145,65523,1,0,0:0:0:0:
172,122,65644,1,0,0:0:0:0:
91,185,65766,1,10,0:0:0:0:
104,280,65888,1,0,0:0:0:0:
195,326,66010,5,6,0:0:0:0:
251,280,66132,1,8,0:0:0:0:
227,203,66254,1,0,0:0:0:0:
145,202,66376,1,0,0:0:0:0:
114,278,66498,1,8,0:0:0:0:
151,342,66620,1,0,0:0:0:0:
253,355,66742,1,8,0:0:0:0:
341,307,66864,1,0,0:0:0:0:
375,181,66986,5,4,0:0:0:0:
149,325,67352,1,8,0:0:0:0:
76,97,67718,5,8,0:0:0:0:
183,142,67962,1,4,0:0:0:0:
183,142,68084,1,8,0:0:0:0:
303,117,68327,1,2,0:0:0:0:
303,117,68449,1,8,0:0:0:0:
406,157,68693,1,10,0:0:0:0:
252,350,68937,5,4,0:0:0:0:
147,52,69303,1,8,0:0:0:0:
477,228,69669,1,8,0:0:0:0:
374,256,69913,1,12,0:0:0:0:
298,263,70035,1,2,0:0:0:0:
233,225,70157,1,0,0:0:0:0:
156,203,70279,1,8,0:0:0:0:
84,225,70401,1,2,0:0:0:0:
76,303,70523,1,0,0:0:0:0:
138,349,70644,1,10,0:0:0:0:
211,316,70766,1,0,0:0:0:0:
226,241,70888,5,0,0:0:0:0:
162,165,71132,1,2,0:0:0:0:
65,171,71376,1,0,0:0:0:0:
30,255,71620,1,2,0:0:0:0:
30,255,71742,1,2,0:0:0:0:
30,255,71864,2,0,P|85:308|246:254,1,260
281,140,72596,5,2,0:0:0:0:
281,140,72718,1,0,0:0:0:0:
286,143,72840,1,2,0:0:0:0:
350,215,73084,1,0,0:0:0:0:
446,206,73327,1,2,0:0:0:0:
482,129,73572,1,2,0:0:0:0:
482,129,73694,1,2,0:0:0:0:
482,129,73815,6,4,P|406:81|194:112,1,260
257,195,74791,5,4,0:0:0:0:
424,325,75766,5,2,0:0:0:0:
256,192,76742,12,0,78205,0:0:0:0:
476,315,78693,5,8,0:0:0:0:
393,335,78815,1,0,0:0:0:0:
330,277,78937,1,0,0:0:0:0:
310,193,79059,1,8,0:0:0:0:
248,134,79181,1,0,0:0:0:0:
163,139,79303,1,0,0:0:0:0:
116,210,79425,1,8,0:0:0:0:
133,294,79547,1,0,0:0:0:0:
212,327,79668,1,8,0:0:0:0:
296,307,79790,1,0,0:0:0:0:
332,228,79912,1,0,0:0:0:0:
409,190,80034,1,0,0:0:0:0:
490,220,80156,1,8,0:0:0:0:
495,305,80278,1,0,0:0:0:0:
438,369,80401,6,0,P|402:352|371:305,1,65,4|0,0:0|0:0,0:0:0:0:
406,247,80644,5,8,0:0:0:0:
406,247,80766,1,0,0:0:0:0:
438,369,80888,6,0,P|402:352|371:305,1,65,8|0,0:0|0:0,0:0:0:0:
260,216,81132,2,0,P|289:230|310:253,1,65,8|0,0:0|0:0,0:0:0:0:
278,344,81376,5,2,0:0:0:0:
196,321,81498,1,0,0:0:0:0:
112,335,81620,1,10,0:0:0:0:
68,261,81742,1,2,0:0:0:0:
111,186,81864,1,2,0:0:0:0:
193,193,81986,1,2,0:0:0:0:
252,255,82108,6,0,P|282:266|314:269,1,65,12|0,0:0|0:0,0:0:0:0:
250,122,82352,2,0,P|219:110|187:107,1,65,8|0,0:0|0:0,0:0:0:0:
97,193,82596,6,8,P|40:230|24:229,2,65,12|8|8,0:0|0:0|0:0,0:0:0:0:
53,108,82962,2,0,P|73:83|103:70,2,65,8|8|0,0:0|0:0|0:0,0:0:0:0:
247,204,83327,2,0,P|282:200|339:169,1,65,8|0,0:0|0:0,0:0:0:0:
415,193,83571,6,8,P|472:230|488:229,2,65,12|8|8,0:0|0:0|0:0,0:0:0:0:
459,108,83937,2,0,P|438:83|408:70,2,65,8|8|0,0:0|0:0|0:0,0:0:0:0:
338,111,84303,5,8,0:0:0:0:
255,130,84425,1,0,0:0:0:0:
207,199,84546,5,8,0:0:0:0:
140,152,84668,1,0,0:0:0:0:
57,178,84790,1,0,0:0:0:0:
33,263,84912,1,8,0:0:0:0:
97,321,85034,1,0,0:0:0:0:
184,301,85156,1,0,0:0:0:0:
267,336,85278,1,8,0:0:0:0:
354,327,85400,1,0,0:0:0:0:
401,258,85522,1,8,0:0:0:0:
391,173,85644,1,0,0:0:0:0:
320,134,85766,1,2,0:0:0:0:
238,145,85888,1,0,0:0:0:0:
151,118,86010,6,4,P|102:61|94:49,3,65
231,48,86498,6,0,P|305:39|351:57,2,65,12|0|0,0:0|0:0|0:0,0:0:0:0:
196,190,86864,2,0,P|122:199|76:181,2,65,8|0|0,0:0|0:0|0:0,0:0:0:0:
156,109,87229,1,8,0:0:0:0:
244,123,87351,1,0,0:0:0:0:
305,208,87473,6,0,P|346:223|398:205,2,65,8|0|0,0:0|0:0|0:0,0:0:0:0:
470,77,87839,1,0,0:0:0:0:
419,137,87961,2,0,P|390:150|358:150,1,65,12|0,0:0|0:0,0:0:0:0:
465,227,88205,5,2,0:0:0:0:
426,296,88327,1,0,0:0:0:0:
446,368,88449,5,12,0:0:0:0:
368,338,88571,1,0,0:0:0:0:
289,341,88693,1,8,0:0:0:0:
207,355,88815,1,0,0:0:0:0:
132,328,88937,1,8,0:0:0:0:
96,259,89059,1,0,0:0:0:0:
136,182,89181,1,8,0:0:0:0:
221,178,89303,1,8,0:0:0:0:
298,228,89425,6,0,P|336:236|397:211,3,65,4|0|0|0,0:0|0:0|0:0|0:0,0:0:0:0:
253,97,89912,2,0,P|215:89|154:114,1,65,4|0,0:0|0:0,0:0:0:0:
76,151,90156,5,8,0:0:0:0:
138,209,90278,1,0,0:0:0:0:
136,294,90400,5,8,0:0:0:0:
206,342,90522,1,8,0:0:0:0:
281,301,90644,1,8,0:0:0:0:
279,215,90766,1,8,0:0:0:0:
211,162,90888,2,0,P|198:135|212:67,1,65,8|0,0:0|0:0,0:0:0:0:
107,158,91132,5,8,0:0:0:0:
169,216,91254,1,0,0:0:0:0:
167,301,91376,5,8,0:0:0:0:
237,349,91498,1,8,0:0:0:0:
312,308,91620,1,8,0:0:0:0:
310,222,91742,1,8,0:0:0:0:
241,168,91864,1,0,0:0:0:0:
224,83,91986,1,0,0:0:0:0:
280,15,92107,1,8,0:0:0:0:
367,16,92229,1,0,0:0:0:0:
422,81,92351,5,12,0:0:0:0:
415,171,92473,1,0,0:0:0:0:
351,226,92595,1,0,0:0:0:0:
262,213,92717,1,12,0:0:0:0:
190,167,92839,1,0,0:0:0:0:
110,187,92961,1,0,0:0:0:0:
82,270,93083,1,12,0:0:0:0:
124,342,93205,1,0,0:0:0:0:
207,353,93327,5,12,0:0:0:0:
276,312,93449,1,0,0:0:0:0:
293,226,93571,1,0,0:0:0:0:
261,149,93693,1,0,0:0:0:0:
186,118,93815,1,4,0:0:0:0:
108,141,93937,1,0,0:0:0:0:
60,209,94059,1,0,0:0:0:0:
65,287,94181,1,0,0:0:0:0:
124,342,94303,5,12,0:0:0:0:
209,347,94425,1,0,0:0:0:0:
266,283,94547,1,0,0:0:0:0:
252,198,94669,1,8,0:0:0:0:
281,117,94791,1,0,0:0:0:0:
365,100,94913,1,0,0:0:0:0:
424,161,95035,1,8,0:0:0:0:
509,150,95157,1,0,0:0:0:0:
466,74,95279,6,8,P|451:45|449:12,2,65
492,241,95645,2,0,P|507:273|494:331,2,65,8|8|0,0:0|0:0|0:0,0:0:0:0:
449,154,96011,1,2,0:0:0:0:
367,184,96133,1,0,0:0:0:0:
288,146,96255,6,0,P|258:182|253:228,2,65,8|0|0,0:0|0:0|0:0,0:0:0:0:
325,264,96621,2,0,P|337:294|360:317,2,65,8|0|0,0:0|0:0|0:0,0:0:0:0:
419,255,96986,1,8,0:0:0:0:
367,184,97108,1,0,0:0:0:0:
282,167,97230,1,8,0:0:0:0:
216,221,97352,1,0,0:0:0:0:
132,240,97474,1,0,0:0:0:0:
60,191,97596,1,0,0:0:0:0:
49,105,97718,6,0,P|74:84|103:70,1,65,12|0,0:0|0:0,0:0:0:0:
263,127,97962,2,0,P|228:123|171:92,1,65,8|0,0:0|0:0,0:0:0:0:
263,45,98206,6,8,P|320:8|336:9,2,65,12|8|8,0:0|0:0|0:0,0:0:0:0:
502,48,98572,2,0,P|481:72|451:85,2,65,8|8|0,0:0|0:0|0:0,0:0:0:0:
386,47,98938,1,8,0:0:0:0:
322,92,99060,1,0,0:0:0:0:
322,170,99182,1,8,0:0:0:0:
387,211,99303,1,0,0:0:0:0:
446,260,99425,1,8,0:0:0:0:
440,337,99547,1,8,0:0:0:0:
382,384,99669,1,0,0:0:0:0:
307,360,99791,1,0,0:0:0:0:
259,297,99913,1,8,0:0:0:0:
181,290,100035,1,0,0:0:0:0:
115,332,100157,6,0,P|80:348|43:349,2,65,8|0|0,0:0|0:0|0:0,0:0:0:0:
68,248,100523,2,0,P|96:222|130:209,2,65,8|0|0,0:0|0:0|0:0,0:0:0:0:
192,277,100889,1,8,0:0:0:0:
269,284,101011,1,0,0:0:0:0:
319,343,101133,1,12,0:0:0:0:
347,270,101255,1,0,0:0:0:0:
419,240,101377,1,0,0:0:0:0:
475,186,101499,1,0,0:0:0:0:
461,109,101621,1,4,0:0:0:0:
392,73,101742,1,0,0:0:0:0:
328,118,101864,1,0,0:0:0:0:
332,195,101986,1,0,0:0:0:0:
393,240,102108,6,0,P|426:261|446:310,2,65,8|0|0,0:0|0:0|0:0,0:0:0:0:
403,377,102474,2,0,P|370:356|350:307,2,65,8|0|0,0:0|0:0|0:0,0:0:0:0:
501,351,102840,1,8,0:0:0:0:
512,278,102962,1,0,0:0:0:0:
454,222,103084,6,8,P|440:250|438:283,2,65
497,137,103450,2,0,P|512:105|499:47,2,65,8|8|0,0:0|0:0|0:0,0:0:0:0:
397,148,103816,5,2,0:0:0:0:
324,202,103938,1,0,0:0:0:0:
225,224,104060,6,0,P|195:260|190:306,2,65,8|0|0,0:0|0:0|0:0,0:0:0:0:
291,303,104426,2,0,P|279:333|256:356,2,65,8|0|0,0:0|0:0|0:0,0:0:0:0:
324,202,104791,1,8,0:0:0:0:
241,211,104913,1,0,0:0:0:0:
176,166,105035,1,8,0:0:0:0:
97,138,105157,1,0,0:0:0:0:
37,188,105279,1,8,0:0:0:0:
57,266,105401,1,0,0:0:0:0:
135,297,105523,1,8,0:0:0:0:
210,252,105645,1,0,0:0:0:0:
295,271,105767,1,8,0:0:0:0:
371,233,105889,1,0,0:0:0:0:
462,235,106011,6,0,P|510:271|524:296,2,65,8|8|8,0:0|0:0|0:0,0:0:0:0:
479,371,106377,2,0,P|431:335|417:310,2,65,8|8|0,0:0|0:0|0:0,0:0:0:0:
372,257,106742,1,8,0:0:0:0:
298,217,106864,1,0,0:0:0:0:
217,243,106986,1,8,0:0:0:0:
136,264,107108,1,0,0:0:0:0:
62,227,107230,1,8,0:0:0:0:
49,149,107352,1,8,0:0:0:0:
108,93,107474,1,0,0:0:0:0:
192,99,107596,1,0,0:0:0:0:
244,163,107718,1,8,0:0:0:0:
217,243,107840,1,0,0:0:0:0:
220,329,107962,5,8,0:0:0:0:
296,352,108084,1,0,0:0:0:0:
366,306,108206,1,0,0:0:0:0:
360,223,108328,1,8,0:0:0:0:
416,157,108450,1,0,0:0:0:0:
501,165,108572,1,0,0:0:0:0:
469,267,108694,5,8,0:0:0:0:
388,207,108816,1,0,0:0:0:0:
471,178,108938,5,8,0:0:0:0:
390,118,109060,1,8,0:0:0:0:
289,115,109181,1,8,0:0:0:0:
208,175,109303,1,8,0:0:0:0:
106,197,109425,1,8,0:0:0:0:
24,145,109547,1,8,0:0:0:0:
31,48,109669,1,8,0:0:0:0:
126,4,109791,1,8,0:0:0:0:
218,52,109913,5,4,0:0:0:0:
355,68,119425,5,8,0:0:0:0:
415,118,119547,1,0,0:0:0:0:
414,196,119669,6,0,P|388:248|304:285,1,130,4|0,0:0|0:0,0:0:0:0:
81,268,120157,1,4,0:0:0:0:
194,230,120401,1,8,0:0:0:0:
306,268,120644,1,2,0:0:0:0:
340,233,120766,1,8,0:0:0:0:
242,157,121010,1,2,0:0:0:0:
233,108,121132,1,8,0:0:0:0:
389,45,121376,1,12,0:0:0:0:
461,271,121621,6,0,P|383:271|306:228,1,130,4|0,0:0|0:0,0:0:0:0:
89,68,122108,2,0,P|167:68|244:111,1,130,4|0,0:0|0:0,0:0:0:0:
378,335,122596,1,2,0:0:0:0:
378,335,122718,1,8,0:0:0:0:
97,256,122962,1,0,0:0:0:0:
97,256,123084,1,10,0:0:0:0:
292,64,123328,1,10,0:0:0:0:
374,108,123449,1,8,0:0:0:0:
402,202,123571,5,0,0:0:0:0:
63,200,123937,5,10,0:0:0:0:
177,268,124181,1,0,0:0:0:0:
207,267,124303,1,10,0:0:0:0:
246,249,124425,1,0,0:0:0:0:
306,287,124547,1,8,0:0:0:0:
377,77,124913,5,10,0:0:0:0:
318,102,125035,1,0,0:0:0:0:
388,220,125279,1,10,0:0:0:0:
388,220,125401,1,0,0:0:0:0:
388,220,125523,5,4,0:0:0:0:
325,266,125645,1,0,0:0:0:0:
249,260,125767,1,0,0:0:0:0:
191,204,125889,1,0,0:0:0:0:
113,187,126011,1,4,0:0:0:0:
37,217,126133,1,0,0:0:0:0:
29,303,126255,1,0,0:0:0:0:
96,353,126377,1,0,0:0:0:0:
175,331,126499,5,8,0:0:0:0:
199,257,126621,1,0,0:0:0:0:
156,194,126742,1,0,0:0:0:0:
86,162,126864,1,8,0:0:0:0:
47,96,126986,1,4,0:0:0:0:
75,26,127108,1,0,0:0:0:0:
152,12,127230,1,8,0:0:0:0:
215,59,127352,1,0,0:0:0:0:
273,112,127474,6,0,P|346:123|429:101,1,130,4|0,0:0|0:0,0:0:0:0:
176,195,127962,2,0,P|103:184|20:206,1,130,4|0,0:0|0:0,0:0:0:0:
158,310,128449,1,8,0:0:0:0:
247,316,128572,1,0,0:0:0:0:
335,234,128816,1,8,0:0:0:0:
424,240,128938,1,0,0:0:0:0:
512,149,129182,1,8,0:0:0:0:
476,69,129303,1,0,0:0:0:0:
385,44,129425,6,0,P|314:57|289:132,2,130,4|0|4,0:0|0:0|0:0,0:0:0:0:
405,149,130401,5,8,0:0:0:0:
396,186,130523,1,0,0:0:0:0:
370,226,130645,1,8,0:0:0:0:
336,251,130767,1,0,0:0:0:0:
288,268,130889,1,8,0:0:0:0:
232,269,131011,1,0,0:0:0:0:
178,243,131133,1,8,0:0:0:0:
96,266,131255,1,0,0:0:0:0:
72,351,131377,6,8,P|44:276|114:173,2,195
320,245,132352,5,8,0:0:0:0:
181,171,132718,1,8,0:0:0:0:
46,252,133084,1,8,0:0:0:0:
190,348,133328,5,4,0:0:0:0:
254,313,133450,1,0,0:0:0:0:
280,248,133572,1,0,0:0:0:0:
264,184,133694,1,0,0:0:0:0:
288,119,133816,1,4,0:0:0:0:
354,86,133938,1,0,0:0:0:0:
416,106,134060,1,0,0:0:0:0:
437,167,134182,1,0,0:0:0:0:
389,215,134303,5,4,0:0:0:0:
326,197,134425,1,8,0:0:0:0:
309,137,134547,1,0,0:0:0:0:
354,86,134669,1,0,0:0:0:0:
416,106,134791,1,12,0:0:0:0:
437,167,134913,1,0,0:0:0:0:
381,224,135035,1,8,0:0:0:0:
379,303,135157,1,0,0:0:0:0:
446,350,135279,6,4,P|365:319|250:351,2,195
467,53,136255,5,4,0:0:0:0:
255,223,136621,1,4,0:0:0:0:
100,50,136986,1,4,0:0:0:0:
165,252,137230,5,12,0:0:0:0:
385,218,137596,1,12,0:0:0:0:
226,64,137962,1,14,0:0:0:0:
80,251,138206,6,0,P|115:323|221:368,2,195,8|8|8,0:0|0:0|0:0,0:0:0:0:
329,67,139182,5,6,0:0:0:0:
88,76,139547,1,6,0:0:0:0:
250,223,139913,1,14,0:0:0:0:
225,62,140157,5,6,0:0:0:0:
106,271,140523,1,14,0:0:0:0:
387,221,140889,1,6,0:0:0:0:
463,355,141132,5,14,0:0:0:0:
267,308,141377,1,0,0:0:0:0:
244,233,141498,1,14,0:0:0:0:
280,160,141621,1,0,0:0:0:0:
399,222,141864,1,14,0:0:0:0:
354,296,141986,1,0,0:0:0:0:
275,293,142108,5,6,0:0:0:0:
240,222,142230,1,8,0:0:0:0:
287,160,142352,1,0,0:0:0:0:
362,180,142474,1,4,0:0:0:0:
377,256,142596,1,8,0:0:0:0:
290,300,142718,1,0,0:0:0:0:
196,273,142840,1,12,0:0:0:0:
149,187,142962,1,0,0:0:0:0:
169,91,143084,5,4,0:0:0:0:
140,246,143327,1,0,0:0:0:0:
149,325,143450,1,8,0:0:0:0:
76,97,143693,1,0,0:0:0:0:
76,97,143816,5,8,0:0:0:0:
183,142,144060,1,4,0:0:0:0:
183,142,144182,1,8,0:0:0:0:
303,117,144425,1,2,0:0:0:0:
303,117,144547,1,8,0:0:0:0:
406,157,144791,1,10,0:0:0:0:
252,350,145035,5,4,0:0:0:0:
147,52,145279,1,0,0:0:0:0:
147,52,145401,1,8,0:0:0:0:
449,96,145644,1,0,0:0:0:0:
449,96,145767,1,8,0:0:0:0:
355,226,146011,1,12,0:0:0:0:
279,219,146133,1,2,0:0:0:0:
214,257,146255,1,0,0:0:0:0:
137,279,146377,1,8,0:0:0:0:
65,257,146499,1,2,0:0:0:0:
57,179,146621,1,0,0:0:0:0:
119,133,146742,1,10,0:0:0:0:
192,166,146864,1,0,0:0:0:0:
226,241,146986,5,0,0:0:0:0:
162,165,147230,1,2,0:0:0:0:
65,171,147474,1,0,0:0:0:0:
50,200,147596,1,2,0:0:0:0:
30,255,147840,1,2,0:0:0:0:
30,255,147962,1,0,0:0:0:0:
65,283,148084,1,2,0:0:0:0:
112,287,148205,1,0,0:0:0:0:
112,287,148327,1,0,0:0:0:0:
126,300,148449,2,0,P|209:299|250:253,1,130,8|0,0:0|0:0,0:0:0:0:
286,143,148937,5,2,0:0:0:0:
350,215,149182,1,2,0:0:0:0:
403,170,149425,1,0,0:0:0:0:
447,183,149669,1,2,0:0:0:0:
462,170,149791,1,0,0:0:0:0:
311,144,150035,1,2,0:0:0:0:
311,144,150157,1,0,0:0:0:0:
252,122,150279,1,0,0:0:0:0:
197,158,150401,1,10,0:0:0:0:
174,260,150644,1,0,0:0:0:0:
242,259,150766,1,0,0:0:0:0:
257,195,150889,5,4,0:0:0:0:
105,318,151254,1,0,0:0:0:0:
259,269,151620,1,2,0:0:0:0:
401,358,151864,5,8,0:0:0:0:
275,227,152108,1,0,0:0:0:0:
123,247,152352,1,8,0:0:0:0:
283,129,152596,1,2,0:0:0:0:
327,145,152718,1,0,0:0:0:0:
360,216,152840,5,0,0:0:0:0:
256,192,153084,12,0,154303,0:0:0:0:
35,60,154791,5,8,0:0:0:0:
66,140,154913,1,0,0:0:0:0:
147,169,155035,1,0,0:0:0:0:
229,149,155157,1,8,0:0:0:0:
318,128,155279,1,0,0:0:0:0:
392,168,155401,1,0,0:0:0:0:
422,249,155523,1,8,0:0:0:0:
379,321,155645,1,0,0:0:0:0:
289,336,155766,1,8,0:0:0:0:
207,308,155888,1,0,0:0:0:0:
178,227,156010,1,0,0:0:0:0:
229,158,156132,1,0,0:0:0:0:
313,145,156254,1,8,0:0:0:0:
354,70,156376,1,0,0:0:0:0:
294,7,156498,1,4,0:0:0:0:
211,28,156620,1,0,0:0:0:0:
190,121,156743,6,0,P|202:150|225:173,2,65,8|0|8,0:0|0:0|0:0,0:0:0:0:
253,21,157108,1,0,0:0:0:0:
291,88,157230,2,0,P|320:74|342:50,1,65,8|0,0:0|0:0,0:0:0:0:
338,157,157474,5,8,0:0:0:0:
255,166,157596,1,8,0:0:0:0:
190,121,157718,1,4,0:0:0:0:
111,93,157840,1,0,0:0:0:0:
51,143,157962,1,0,0:0:0:0:
71,221,158084,1,0,0:0:0:0:
152,244,158206,6,0,P|187:240|244:209,1,65,12|0,0:0|0:0,0:0:0:0:
331,78,158450,2,0,P|296:82|239:113,1,65,8|0,0:0|0:0,0:0:0:0:
319,193,158694,6,8,P|376:230|392:229,2,65,12|8|8,0:0|0:0|0:0,0:0:0:0:
419,152,159060,2,0,P|448:164|469:188,2,65,8|8|0,0:0|0:0|0:0,0:0:0:0:
181,78,159425,2,0,P|216:82|273:113,1,65,8|0,0:0|0:0,0:0:0:0:
193,193,159669,6,8,P|136:230|120:229,2,65,12|8|8,0:0|0:0|0:0,0:0:0:0:
93,152,160035,2,0,P|64:164|43:188,2,65,8|8|0,0:0|0:0|0:0,0:0:0:0:
174,111,160401,5,8,0:0:0:0:
257,130,160523,1,0,0:0:0:0:
305,199,160644,5,8,0:0:0:0:
372,152,160766,1,0,0:0:0:0:
455,178,160888,1,0,0:0:0:0:
479,263,161010,1,8,0:0:0:0:
415,321,161132,1,0,0:0:0:0:
328,301,161254,1,0,0:0:0:0:
245,336,161376,1,8,0:0:0:0:
158,327,161498,1,0,0:0:0:0:
111,258,161620,1,8,0:0:0:0:
121,173,161742,1,0,0:0:0:0:
192,134,161864,1,2,0:0:0:0:
274,145,161986,1,0,0:0:0:0:
361,118,162108,6,4,P|410:61|418:49,3,65
281,48,162596,6,0,P|207:39|161:57,2,65,12|0|0,0:0|0:0|0:0,0:0:0:0:
316,190,162962,2,0,P|390:199|436:181,2,65,8|0|0,0:0|0:0|0:0,0:0:0:0:
356,109,163327,1,8,0:0:0:0:
268,123,163449,1,0,0:0:0:0:
207,208,163571,6,0,P|166:223|114:205,2,65,8|0|0,0:0|0:0|0:0,0:0:0:0:
42,77,163937,1,0,0:0:0:0:
93,137,164059,2,0,P|122:150|154:150,1,65,12|0,0:0|0:0,0:0:0:0:
47,227,164303,5,2,0:0:0:0:
86,296,164425,1,0,0:0:0:0:
66,368,164547,5,12,0:0:0:0:
144,338,164669,1,0,0:0:0:0:
223,341,164791,1,8,0:0:0:0:
305,355,164913,1,0,0:0:0:0:
380,328,165035,1,8,0:0:0:0:
416,259,165157,1,0,0:0:0:0:
376,182,165279,1,8,0:0:0:0:
291,178,165401,1,8,0:0:0:0:
214,228,165523,6,0,P|176:236|115:211,3,65,4|0|0|0,0:0|0:0|0:0|0:0,0:0:0:0:
259,97,166010,2,0,P|297:89|358:114,1,65,4|0,0:0|0:0,0:0:0:0:
408,167,166254,5,8,0:0:0:0:
340,207,166376,1,0,0:0:0:0:
343,291,166498,5,8,0:0:0:0:
258,301,166620,1,8,0:0:0:0:
179,273,166742,1,8,0:0:0:0:
149,197,166864,1,8,0:0:0:0:
162,114,166986,2,0,P|175:87|161:19,1,65,8|0,0:0|0:0,0:0:0:0:
408,167,167230,5,8,0:0:0:0:
340,207,167352,1,0,0:0:0:0:
343,291,167474,5,8,0:0:0:0:
258,301,167596,1,8,0:0:0:0:
179,273,167718,1,8,0:0:0:0:
149,197,167840,1,8,0:0:0:0:
162,114,167962,1,8,0:0:0:0:
102,53,168084,1,0,0:0:0:0:
22,75,168205,1,8,0:0:0:0:
10,157,168327,1,0,0:0:0:0:
76,215,168449,5,12,0:0:0:0:
158,231,168571,1,0,0:0:0:0:
235,195,168693,1,0,0:0:0:0:
316,168,168815,1,12,0:0:0:0:
395,204,168937,1,0,0:0:0:0:
418,285,169059,1,0,0:0:0:0:
359,346,169181,1,12,0:0:0:0:
275,335,169303,1,0,0:0:0:0:
242,257,169425,5,12,0:0:0:0:
245,168,169547,1,8,0:0:0:0:
181,105,169669,1,8,0:0:0:0:
94,114,169791,1,8,0:0:0:0:
32,173,169913,1,12,0:0:0:0:
29,262,170035,1,8,0:0:0:0:
93,325,170157,1,8,0:0:0:0:
180,316,170279,1,8,0:0:0:0:
242,257,170401,5,12,0:0:0:0:
127,155,177718,5,2,0:0:0:0:
236,214,177962,1,2,0:0:0:0:
295,193,178084,1,0,0:0:0:0:
303,129,178205,6,0,P|269:88|185:74,1,130,8|0,0:0|0:0,0:0:0:0:
169,195,178693,2,0,P|106:209|65:258,1,130,8|0,0:0|0:0,0:0:0:0:
229,308,179181,1,0,0:0:0:0:
229,308,179303,1,8,0:0:0:0:
329,285,179547,1,0,0:0:0:0:
329,285,179669,1,8,0:0:0:0:
377,190,179913,1,8,0:0:0:0:
415,99,180157,6,10,P|458:51|588:37,2,195,10|14|10,0:0|0:0|0:0,0:0:0:0:
470,193,181376,5,4,0:0:0:0:
413,248,181498,1,0,0:0:0:0:
342,253,181620,1,4,0:0:0:0:
277,215,181742,1,0,0:0:0:0:
204,194,181864,1,4,0:0:0:0:
140,230,181986,1,0,0:0:0:0:
121,326,182108,2,0,P|49:290|35:151,1,195,4|8,0:0|0:0,0:0:0:0:
231,91,182840,5,8,0:0:0:0:
286,264,183205,1,8,0:0:0:0:
328,255,183327,1,0,0:0:0:0:
373,223,183449,1,0,0:0:0:0:
372,170,183571,1,8,0:0:0:0:
303,148,183693,1,0,0:0:0:0:
258,218,183815,1,0,0:0:0:0:
309,287,183937,1,0,0:0:0:0:
396,299,184059,6,4,P|472:240|469:103,2,195
200,65,185279,5,8,0:0:0:0:
157,92,185401,1,0,0:0:0:0:
133,139,185523,1,0,0:0:0:0:
138,194,185644,1,0,0:0:0:0:
164,239,185767,1,8,0:0:0:0:
155,295,185888,1,0,0:0:0:0:
112,333,186010,6,0,P|25:314|3:212,1,195,4|0,0:0|0:0,0:0:0:0:
46,184,186498,1,8,0:0:0:0:
190,99,186864,5,0,0:0:0:0:
173,136,186986,1,2,0:0:0:0:
262,123,187230,1,8,0:0:0:0:
306,128,187352,1,0,0:0:0:0:
351,157,187474,1,8,0:0:0:0:
370,200,187596,1,0,0:0:0:0:
388,243,187718,1,8,0:0:0:0:
426,270,187840,1,0,0:0:0:0:
468,207,187962,6,4,P|463:302|405:379,2,195
351,110,188937,1,2,0:0:0:0:
160,146,189303,5,8,0:0:0:0:
160,146,189425,1,6,0:0:0:0:
321,314,189669,1,8,0:0:0:0:
375,237,189913,5,8,0:0:0:0:
331,222,190035,1,0,0:0:0:0:
285,223,190157,1,0,0:0:0:0:
244,250,190279,1,4,0:0:0:0:
226,288,190401,1,0,0:0:0:0:
205,324,190523,1,0,0:0:0:0:
162,335,190644,1,4,0:0:0:0:
117,304,190766,1,0,0:0:0:0:
108,257,190888,5,0,0:0:0:0:
138,212,191010,1,8,0:0:0:0:
192,206,191132,1,0,0:0:0:0:
248,226,191254,1,0,0:0:0:0:
300,237,191376,1,8,0:0:0:0:
353,210,191498,1,0,0:0:0:0:
364,148,191620,1,8,0:0:0:0:
320,99,191742,1,0,0:0:0:0:
240,86,191864,6,0,P|201:33|201:32,2,65,4|0|0,0:0|0:0|0:0,0:0:0:0:
371,34,192230,2,0,P|410:87|410:88,2,65,4|0|0,0:0|0:0|0:0,0:0:0:0:
315,126,192596,1,4,0:0:0:0:
379,173,192718,1,0,0:0:0:0:
463,175,192840,5,0,0:0:0:0:
479,244,192962,1,8,0:0:0:0:
442,305,193084,1,8,0:0:0:0:
375,330,193205,1,0,0:0:0:0:
307,307,193327,1,8,0:0:0:0:
266,247,193449,1,0,0:0:0:0:
277,176,193571,1,4,0:0:0:0:
248,110,193693,1,0,0:0:0:0:
174,87,193815,6,0,P|135:34|135:33,2,65,8|0|0,0:0|0:0|0:0,0:0:0:0:
30,151,194181,2,0,P|69:204|69:205,2,65,8|0|0,0:0|0:0|0:0,0:0:0:0:
200,230,194547,2,0,P|288:217|326:102,1,195,8|0,0:0|0:0,0:0:0:0:
281,5,195035,1,2,0:0:0:0:
236,34,195157,1,0,0:0:0:0:
218,91,195279,2,0,P|144:121|143:121,1,65,8|0,0:0|0:0,0:0:0:0:
50,72,195522,1,4,0:0:0:0:
93,145,195644,1,0,0:0:0:0:
60,224,195766,5,8,0:0:0:0:
143,203,195888,1,0,0:0:0:0:
223,232,196010,1,0,0:0:0:0:
269,304,196132,1,8,0:0:0:0:
342,347,196254,1,0,0:0:0:0:
424,324,196376,1,0,0:0:0:0:
458,245,196498,1,8,0:0:0:0:
406,176,196620,1,0,0:0:0:0:
321,160,196742,5,8,0:0:0:0:
259,219,196864,1,0,0:0:0:0:
232,300,196986,1,0,0:0:0:0:
155,338,197108,1,8,0:0:0:0:
69,330,197230,1,0,0:0:0:0:
25,255,197352,1,8,0:0:0:0:
33,169,197474,1,8,0:0:0:0:
104,122,197596,1,8,0:0:0:0:
188,137,197718,5,4,0:0:0:0:
256,192,205523,12,0,206986,0:0:0:0:
476,69,207474,5,8,0:0:0:0:
393,49,207596,1,0,0:0:0:0:
330,107,207718,1,0,0:0:0:0:
310,191,207840,1,8,0:0:0:0:
248,250,207962,1,0,0:0:0:0:
163,245,208084,1,0,0:0:0:0:
116,174,208206,1,8,0:0:0:0:
133,90,208328,1,0,0:0:0:0:
212,57,208449,1,8,0:0:0:0:
296,77,208571,1,0,0:0:0:0:
332,156,208693,1,0,0:0:0:0:
409,194,208815,1,0,0:0:0:0:
490,164,208937,1,8,0:0:0:0:
495,79,209059,1,0,0:0:0:0:
438,15,209182,6,0,P|402:32|371:79,1,65,4|0,0:0|0:0,0:0:0:0:
406,137,209425,5,8,0:0:0:0:
406,137,209547,1,0,0:0:0:0:
438,15,209669,6,0,P|402:32|371:79,1,65,4|0,0:0|0:0,0:0:0:0:
260,168,209913,2,0,P|289:154|310:131,1,65,8|0,0:0|0:0,0:0:0:0:
278,40,210157,5,8,0:0:0:0:
196,63,210279,1,0,0:0:0:0:
112,49,210401,1,8,0:0:0:0:
68,123,210523,1,2,0:0:0:0:
111,198,210645,1,2,0:0:0:0:
193,191,210767,1,2,0:0:0:0:
252,129,210889,6,0,P|282:118|314:115,1,65,12|0,0:0|0:0,0:0:0:0:
250,262,211133,2,0,P|219:274|187:277,1,65,8|0,0:0|0:0,0:0:0:0:
97,191,211377,6,8,P|40:154|24:155,2,65,12|8|8,0:0|0:0|0:0,0:0:0:0:
53,276,211743,2,0,P|73:301|103:314,2,65,8|8|0,0:0|0:0|0:0,0:0:0:0:
247,180,212108,2,0,P|282:184|339:215,1,65,8|0,0:0|0:0,0:0:0:0:
415,191,212352,6,8,P|472:154|488:155,2,65,12|8|8,0:0|0:0|0:0,0:0:0:0:
459,276,212718,2,0,P|438:301|408:314,2,65,8|8|0,0:0|0:0|0:0,0:0:0:0:
338,273,213084,5,8,0:0:0:0:
255,254,213206,1,0,0:0:0:0:
207,185,213327,5,8,0:0:0:0:
140,232,213449,1,0,0:0:0:0:
57,206,213571,1,0,0:0:0:0:
33,121,213693,1,8,0:0:0:0:
97,63,213815,1,0,0:0:0:0:
184,83,213937,1,0,0:0:0:0:
267,48,214059,1,8,0:0:0:0:
354,57,214181,1,0,0:0:0:0:
401,126,214303,1,8,0:0:0:0:
391,211,214425,1,0,0:0:0:0:
320,250,214547,1,2,0:0:0:0:
238,239,214669,1,0,0:0:0:0:
151,266,214791,6,4,P|102:323|94:335,3,65
231,336,215279,6,0,P|305:345|351:327,2,65,12|0|0,0:0|0:0|0:0,0:0:0:0:
196,194,215645,2,0,P|122:185|76:203,2,65,8|0|0,0:0|0:0|0:0,0:0:0:0:
156,275,216010,1,8,0:0:0:0:
244,261,216132,1,0,0:0:0:0:
305,176,216254,6,0,P|346:161|398:179,2,65,8|0|0,0:0|0:0|0:0,0:0:0:0:
470,307,216620,1,0,0:0:0:0:
419,247,216742,2,0,P|390:234|358:234,1,65,12|0,0:0|0:0,0:0:0:0:
465,157,216986,5,2,0:0:0:0:
426,88,217108,1,0,0:0:0:0:
446,16,217230,5,12,0:0:0:0:
368,46,217352,1,0,0:0:0:0:
289,43,217474,1,8,0:0:0:0:
207,29,217596,1,0,0:0:0:0:
132,56,217718,1,8,0:0:0:0:
96,125,217840,1,0,0:0:0:0:
136,202,217962,1,8,0:0:0:0:
221,206,218084,1,8,0:0:0:0:
298,156,218206,6,0,P|336:148|397:173,3,65,4|0|0|0,0:0|0:0|0:0|0:0,0:0:0:0:
253,287,218693,2,0,P|215:295|154:270,1,65,4|0,0:0|0:0,0:0:0:0:
76,233,218937,5,8,0:0:0:0:
138,175,219059,1,0,0:0:0:0:
136,90,219181,5,8,0:0:0:0:
206,42,219303,1,8,0:0:0:0:
281,83,219425,1,8,0:0:0:0:
279,169,219547,1,8,0:0:0:0:
211,222,219669,2,0,P|198:249|212:317,1,65,8|0,0:0|0:0,0:0:0:0:
107,226,219913,5,8,0:0:0:0:
169,168,220035,1,0,0:0:0:0:
167,83,220157,5,8,0:0:0:0:
237,35,220279,1,8,0:0:0:0:
312,76,220401,1,8,0:0:0:0:
310,162,220523,1,8,0:0:0:0:
241,216,220645,1,0,0:0:0:0:
224,301,220767,1,0,0:0:0:0:
280,369,220888,1,8,0:0:0:0:
367,368,221010,1,0,0:0:0:0:
422,303,221132,5,12,0:0:0:0:
415,213,221254,1,0,0:0:0:0:
351,158,221376,1,0,0:0:0:0:
262,171,221498,1,12,0:0:0:0:
190,217,221620,1,0,0:0:0:0:
110,197,221742,1,0,0:0:0:0:
82,114,221864,1,12,0:0:0:0:
124,42,221986,1,0,0:0:0:0:
207,31,222108,5,12,0:0:0:0:
276,72,222230,1,0,0:0:0:0:
293,158,222352,1,0,0:0:0:0:
261,235,222474,1,0,0:0:0:0:
186,266,222596,1,4,0:0:0:0:
108,243,222718,1,0,0:0:0:0:
60,175,222840,1,0,0:0:0:0:
65,97,222962,1,0,0:0:0:0:
124,42,223084,5,12,0:0:0:0:
209,37,223206,1,0,0:0:0:0:
266,101,223328,1,0,0:0:0:0:
252,186,223450,1,8,0:0:0:0:
281,267,223572,1,0,0:0:0:0:
365,284,223694,1,0,0:0:0:0:
424,223,223816,1,8,0:0:0:0:
509,234,223938,1,0,0:0:0:0:
466,310,224060,6,8,P|451:339|449:372,2,65
492,143,224426,2,0,P|507:111|494:53,2,65,8|8|0,0:0|0:0|0:0,0:0:0:0:
449,230,224792,1,2,0:0:0:0:
367,200,224914,1,0,0:0:0:0:
288,238,225036,6,0,P|258:202|253:156,2,65,8|0|0,0:0|0:0|0:0,0:0:0:0:
325,120,225402,2,0,P|337:90|360:67,2,65,8|0|0,0:0|0:0|0:0,0:0:0:0:
419,129,225767,1,8,0:0:0:0:
367,200,225889,1,0,0:0:0:0:
282,217,226011,1,8,0:0:0:0:
216,163,226133,1,0,0:0:0:0:
132,144,226255,1,0,0:0:0:0:
60,193,226377,1,0,0:0:0:0:
49,279,226499,6,0,P|74:300|103:314,1,65,12|0,0:0|0:0,0:0:0:0:
209,304,226742,2,0,P|234:325|263:339,1,65,12|0,0:0|0:0,0:0:0:0:
357,290,226987,6,8,P|414:327|430:326,2,65,12|8|8,0:0|0:0|0:0,0:0:0:0:
511,295,227353,2,0,P|490:271|460:258,2,65,8|8|0,0:0|0:0|0:0,0:0:0:0:
386,337,227719,1,8,0:0:0:0:
322,292,227841,1,0,0:0:0:0:
322,214,227963,1,8,0:0:0:0:
387,173,228084,1,0,0:0:0:0:
446,124,228206,1,8,0:0:0:0:
440,47,228328,1,8,0:0:0:0:
382,0,228450,1,0,0:0:0:0:
307,24,228572,1,0,0:0:0:0:
259,87,228694,1,8,0:0:0:0:
181,94,228816,1,0,0:0:0:0:
115,52,228938,6,0,P|80:36|43:35,2,65,8|0|0,0:0|0:0|0:0,0:0:0:0:
68,136,229304,2,0,P|96:162|130:175,2,65,8|0|0,0:0|0:0|0:0,0:0:0:0:
192,107,229670,1,8,0:0:0:0:
269,100,229792,1,0,0:0:0:0:
319,41,229914,1,12,0:0:0:0:
347,114,230036,1,0,0:0:0:0:
419,144,230158,1,0,0:0:0:0:
475,198,230280,1,0,0:0:0:0:
461,275,230402,1,4,0:0:0:0:
392,311,230523,1,0,0:0:0:0:
328,266,230645,1,0,0:0:0:0:
332,189,230767,1,0,0:0:0:0:
393,144,230889,6,0,P|426:123|446:74,2,65,8|0|0,0:0|0:0|0:0,0:0:0:0:
403,7,231255,2,0,P|370:28|350:77,2,65,8|0|0,0:0|0:0|0:0,0:0:0:0:
501,33,231621,1,8,0:0:0:0:
512,106,231743,1,0,0:0:0:0:
454,162,231865,6,8,P|440:134|438:101,2,65
497,247,232231,2,0,P|512:279|499:337,2,65,8|8|0,0:0|0:0|0:0,0:0:0:0:
397,236,232597,5,2,0:0:0:0:
324,182,232719,1,0,0:0:0:0:
225,160,232841,6,0,P|195:124|190:78,2,65,8|0|0,0:0|0:0|0:0,0:0:0:0:
291,81,233207,2,0,P|279:51|256:28,2,65,8|0|0,0:0|0:0|0:0,0:0:0:0:
324,182,233572,1,8,0:0:0:0:
241,173,233694,1,0,0:0:0:0:
176,218,233816,1,8,0:0:0:0:
97,246,233938,1,0,0:0:0:0:
37,196,234060,1,8,0:0:0:0:
57,118,234182,1,0,0:0:0:0:
135,87,234304,1,8,0:0:0:0:
210,132,234426,1,0,0:0:0:0:
295,113,234548,1,8,0:0:0:0:
371,151,234670,1,0,0:0:0:0:
462,149,234792,6,0,P|510:113|524:88,2,65,8|8|8,0:0|0:0|0:0,0:0:0:0:
479,13,235158,2,0,P|431:49|417:74,2,65,8|8|0,0:0|0:0|0:0,0:0:0:0:
372,127,235523,1,8,0:0:0:0:
298,167,235645,1,0,0:0:0:0:
217,141,235767,1,8,0:0:0:0:
136,120,235889,1,0,0:0:0:0:
62,157,236011,1,8,0:0:0:0:
49,235,236133,1,8,0:0:0:0:
108,291,236255,1,0,0:0:0:0:
192,285,236377,1,0,0:0:0:0:
244,221,236499,1,8,0:0:0:0:
217,141,236621,1,0,0:0:0:0:
220,55,236743,5,8,0:0:0:0:
296,32,236865,1,0,0:0:0:0:
366,78,236987,1,0,0:0:0:0:
360,161,237109,1,8,0:0:0:0:
416,227,237231,1,0,0:0:0:0:
501,219,237353,1,0,0:0:0:0:
469,117,237475,5,8,0:0:0:0:
388,177,237597,1,0,0:0:0:0:
431,273,237719,5,8,0:0:0:0:
512,208,237841,1,8,0:0:0:0:
484,117,237962,1,8,0:0:0:0:
393,84,238084,1,8,0:0:0:0:
316,154,238206,1,8,0:0:0:0:
214,170,238328,1,8,0:0:0:0:
144,96,238450,1,8,0:0:0:0:
185,7,238572,1,8,0:0:0:0:
295,16,238694,5,4,0:0:0:0:
