osu file format v14

[General]
AudioFilename: audio.mp3
AudioLeadIn: 0
PreviewTime: 42843
Countdown: 0
SampleSet: Soft
StackLeniency: 0.7
Mode: 0
LetterboxInBreaks: 0
WidescreenStoryboard: 1

[Editor]
Bookmarks: 7904,13389,19974,31685,37538,40096,66807,71194,72660,78331,87840,93145,95523,96807,97721,98087,117112,117660,120953
DistanceSpacing: 1.6
BeatDivisor: 4
GridSize: 32
TimelineZoom: 2.599999

[Metadata]
Title:NO EXIT ORION
TitleUnicode:NO EXIT ORION
Artist:Printemps
ArtistUnicode:Printemps
Creator:Slyme
Version:Tuffiii's Insane
Source:ラブライブ! School idol project
Tags:anime video game mari_0hara Tuffiii Minslime Lequack pop Kousaka Honoka 高坂穂乃果 新田恵海 Nitta Emi Minami Kotori 南ことり 内田彩 Uchida Aya Koizumi Hanayo 小泉花陽 久保ユリカ Kubo Yurika Muse u's Christmas Winter Lovelive jpop j-pop japanese Akane-_ Synaelle Dora- mari 0hara µ's love live! school idol festival
BeatmapID:3333030
BeatmapSetID:1632876

[Difficulty]
HPDrainRate:5.2
CircleSize:4.3
OverallDifficulty:8.4
ApproachRate:8.7
SliderMultiplier:1.6
SliderTickRate:1

[Events]
//Background and Video events
0,0,"BG.jpg",0,0
Video,250,"Video.mp4"
//Break Periods
2,78714,79881
//Storyboard Layer 0 (Background)
//Storyboard Layer 1 (Fail)
//Storyboard Layer 2 (Pass)
//Storyboard Layer 3 (Foreground)
//Storyboard Layer 4 (Overlay)
//Storyboard Sound Samples

[TimingPoints]
2417,365.853658536585,4,2,1,30,1,0
2417,-100,4,2,1,30,0,0
3057,-100,4,2,1,5,0,0
3148,-100,4,2,1,30,0,0
3788,-100,4,2,1,5,0,0
3880,-100,4,2,1,30,0,0
4520,-100,4,2,1,5,0,0
4612,-100,4,2,1,30,0,0
5252,-100,4,2,1,5,0,0
5343,-100,4,2,1,30,0,0
5984,-100,4,2,1,5,0,0
6075,-100,4,2,1,30,0,0
6715,-100,4,2,1,5,0,0
6807,-100,4,2,1,30,0,0
7356,-100,4,2,1,5,0,0
7447,-100,4,2,1,5,0,0
7538,-166.666666666667,4,2,2,50,0,0
7813,-166.666666666667,4,2,2,5,0,0
7904,-166.666666666667,4,2,1,60,0,0
8087,-125,4,2,1,60,0,0
8270,-125,4,2,1,60,0,0
8819,-125,4,2,3,60,0,0
9734,-125,4,2,1,60,0,0
10648,-125,4,2,3,60,0,0
11197,-125,4,2,1,60,0,0
11379,-125,4,2,1,60,0,0
11563,-125,4,2,3,60,0,0
11928,-125,4,2,1,60,0,0
12112,-125,4,2,3,60,0,0
12660,-125,4,2,1,60,0,0
14673,-125,4,2,1,60,0,0
14856,-125,4,2,3,60,0,0
15587,-125,4,2,1,60,0,0
16502,-125,4,2,3,60,0,0
17051,-125,4,2,1,60,0,0
17233,-125,4,2,1,60,0,0
17416,-125,4,2,3,60,0,0
17781,-125,4,2,1,60,0,0
17965,-125,4,2,3,60,0,0
18331,-125,4,2,1,60,0,0
19977,-117.647058823529,4,2,2,70,0,0
20526,-117.647058823529,4,2,3,70,0,0
20709,-117.647058823529,4,2,4,70,0,0
20892,-117.647058823529,4,2,3,70,0,0
21258,-117.647058823529,4,2,4,70,0,0
22356,-117.647058823529,4,2,3,70,0,0
22904,-117.647058823529,4,2,4,70,0,0
23270,-117.647058823529,4,2,3,70,0,0
23453,-117.647058823529,4,2,4,70,0,0
24185,-117.647058823529,4,2,3,70,0,0
25831,-117.647058823529,4,2,4,70,0,0
26197,-117.647058823529,4,2,3,70,0,0
26380,-117.647058823529,4,2,4,70,0,0
27112,-117.647058823529,4,2,3,70,0,0
28758,-117.647058823529,4,2,5,70,0,0
29490,-117.647058823529,4,2,4,70,0,0
29673,-117.647058823529,4,2,1,70,0,0
30038,-117.647058823529,4,2,4,70,0,0
31319,-117.647058823529,4,2,2,70,0,0
31685,-133.333333333333,4,2,1,60,0,0
32051,-133.333333333333,4,2,3,60,0,0
34612,-133.333333333333,4,2,1,60,0,0
35526,-133.333333333333,4,2,3,60,0,0
35892,-133.333333333333,4,2,1,60,0,0
37538,-111.111111111111,4,2,4,75,0,0
40465,-66.6666666666667,4,2,4,75,0,0
42295,-66.6666666666667,4,2,1,75,0,0
42846,-66.6666666666667,4,2,1,75,0,0
43026,-66.6666666666667,4,2,4,75,0,0
43392,-90.9090909090909,4,2,6,85,0,1
43574,-90.9090909090909,4,2,6,5,0,1
43758,-90.9090909090909,4,2,4,85,0,1
46501,-90.9090909090909,4,2,4,5,0,1
46685,-90.9090909090909,4,2,4,85,0,1
49246,-90.9090909090909,4,2,5,85,0,1
49428,-90.9090909090909,4,2,5,5,0,1
49612,-90.9090909090909,4,2,5,85,0,1
51989,-90.9090909090909,4,2,5,5,0,1
52173,-90.9090909090909,4,2,5,85,0,1
53451,-90.9090909090909,4,2,5,5,0,1
53636,-90.9090909090909,4,2,4,85,0,1
54551,-90.9090909090909,4,2,1,85,0,1
54596,-90.9090909090909,4,2,3,85,0,1
54734,-90.9090909090909,4,2,1,85,0,1
55465,-90.9090909090909,4,2,6,85,0,1
56196,-90.9090909090909,4,2,4,85,0,1
58208,-90.9090909090909,4,2,4,5,0,1
58392,-90.9090909090909,4,2,4,85,0,1
60587,-90.9090909090909,4,2,2,85,0,1
60953,-90.9090909090909,4,2,5,85,0,1
61135,-90.9090909090909,4,2,5,5,0,1
61319,-90.9090909090909,4,2,5,85,0,1
63696,-90.9090909090909,4,2,5,5,0,1
63880,-90.9090909090909,4,2,7,85,0,1
64246,-90.9090909090909,4,2,4,85,0,1
65159,-90.9090909090909,4,2,4,5,0,1
65343,-90.9090909090909,4,2,4,85,0,1
66807,-90.9090909090909,4,2,5,85,0,1
67539,-83.3333333333333,4,2,5,85,0,1
69735,-83.3333333333333,4,2,4,85,0,1
71746,-83.3333333333333,4,2,1,85,0,1
72660,-83.3333333333333,4,2,7,85,0,1
73026,-83.3333333333333,4,2,4,85,0,1
75587,-83.3333333333333,4,2,1,50,0,0
79977,-83.3333333333333,4,2,2,70,0,0
80709,-86.9565217391304,4,2,2,70,0,0
80892,-86.9565217391304,4,2,1,70,0,0
81441,-86.9565217391304,4,2,6,85,0,1
81623,-86.9565217391304,4,2,6,5,0,1
81807,-86.9565217391304,4,2,4,85,0,1
84550,-86.9565217391304,4,2,4,5,0,1
84734,-86.9565217391304,4,2,4,85,0,1
87295,-86.9565217391304,4,2,5,85,0,1
87477,-86.9565217391304,4,2,5,5,0,1
87660,-86.9565217391304,4,2,5,85,0,1
90038,-86.9565217391304,4,2,5,5,0,1
90221,-86.9565217391304,4,2,5,85,0,1
91501,-86.9565217391304,4,2,5,5,0,1
91685,-86.9565217391304,4,2,4,85,0,1
92645,-86.9565217391304,4,2,3,85,0,1
92782,-86.9565217391304,4,2,4,85,0,1
93514,-86.9565217391304,4,2,7,85,0,1
93696,-86.9565217391304,4,2,7,5,0,1
93880,-86.9565217391304,4,2,7,85,0,1
94063,-86.9565217391304,4,2,2,85,0,1
94429,-86.9565217391304,4,2,8,85,0,0
95526,-86.9565217391304,4,2,4,85,0,0
96075,-117.647058823529,4,2,1,85,0,0
96807,-105.263157894737,4,2,1,85,0,0
97904,-95.2380952380952,4,2,1,85,0,0
98087,-95.2380952380952,4,2,8,85,0,0
98453,-95.2380952380952,4,2,1,85,0,0
98819,-86.9565217391304,4,2,1,85,0,0
99002,-86.9565217391304,4,2,6,85,0,1
99184,-86.9565217391304,4,2,6,5,0,1
99368,-86.9565217391304,4,2,4,85,0,1
101744,-86.9565217391304,4,2,4,5,0,1
101928,-86.9565217391304,4,2,7,85,0,1
102294,-86.9565217391304,4,2,4,85,0,1
103208,-86.9565217391304,4,2,4,5,0,1
103392,-86.9565217391304,4,2,4,85,0,1
104856,-86.9565217391304,4,2,5,85,0,1
105587,-80,4,2,5,85,0,1
107782,-80,4,2,4,85,0,1
109428,-80,4,2,4,5,0,1
109612,-80,4,2,4,85,0,1
109795,-80,4,2,1,85,0,1
110708,-80,4,2,7,85,0,1
111075,-80,4,2,4,85,0,1
113636,-80,4,2,1,85,0,0
115648,-80,4,2,1,5,0,0
115831,-100,4,2,1,85,0,0
116563,-142.857142857143,4,2,2,85,0,0
117112,-111.111111111111,4,2,3,85,0,0
117660,-111.111111111111,4,2,1,85,0,0
120953,-111.111111111111,4,2,99,5,0,0

[Colours]
Combo1 : 24,30,248
Combo2 : 172,106,57
Combo3 : 215,0,0
Combo4 : 38,123,36

[HitObjects]
166,217,2416,6,0,B|153:199|153:199|67:315|67:315|205:289|205:289|197:271,1,320,2|10,2:0|2:0,2:0:0:0:
291,138,3880,2,0,B|312:136|312:136|255:3|255:3|208:136|208:136|227:137,1,320,2|10,2:0|2:0,2:0:0:0:
295,286,5343,2,0,B|286:305|286:305|429:322|429:322|337:215|337:215|326:231,1,320,2|10,2:0|2:0,2:0:0:0:
256,192,6807,5,2,2:0:0:0:
222,205,7538,6,0,B|258:191|258:191|311:203,1,71.9999978027344,2|0,2:0|2:0,2:0:0:0:
282,286,7904,1,8,2:3:0:0:
282,286,7996,1,8,2:3:0:0:
282,286,8087,2,0,B|263:290|263:290|237:276,1,32,4|4,2:3|2:3,0:0:0:0:
123,346,8270,6,0,B|117:290|117:290|118:282|118:282|112:211,1,128,4|0,3:2|3:0,2:0:0:0:
57,69,8819,1,2,2:0:0:0:
111,189,9002,1,2,3:2:0:0:
142,64,9185,1,2,2:0:0:0:
39,152,9368,1,2,3:2:0:0:
174,139,9551,1,2,2:0:0:0:
177,310,9734,6,0,P|121:338|62:317,2,128,2|2|0,3:2|3:2|3:0,2:0:0:0:
261,197,10648,1,2,2:0:0:0:
195,292,10831,1,2,3:2:0:0:
170,184,11014,1,2,2:0:0:0:
322,304,11197,6,0,L|386:301,1,64,2|0,3:2|0:0,2:0:0:0:
501,250,11563,1,2,3:2:0:0:
498,375,11746,2,0,L|434:372,1,64,2|2,2:0|3:2,2:0:0:0:
353,219,12112,2,0,B|385:205|385:205|430:225,1,64,2|0,2:0|3:0,2:0:0:0:
386,364,12477,1,2,2:0:0:0:
255,197,12660,6,0,L|266:58,1,128,2|2,3:2|3:2,2:0:0:0:
140,270,13392,2,0,L|254:349,1,128,2|0,3:2|3:0,0:0:0:0:
134,133,14124,2,0,L|8:192,1,128,10|0,3:2|3:0,2:0:0:0:
107,61,14673,5,2,2:0:0:0:
169,200,14856,1,2,3:2:0:0:
201,47,15038,1,2,2:0:0:0:
247,146,15221,1,2,3:2:0:0:
134,133,15404,1,2,2:0:0:0:
301,60,15587,6,0,B|360:32|360:32|432:62,2,128,2|0|0,3:2|3:0|0:0,2:0:0:0:
407,166,16502,1,2,2:0:0:0:
361,34,16685,1,2,3:2:0:0:
315,165,16868,1,2,2:0:0:0:
503,122,17051,6,0,L|495:37,1,64,2|0,3:2|0:0,2:0:0:0:
360,164,17416,1,2,3:2:0:0:
497,263,17599,2,0,L|489:178,1,64,2|2,2:0|3:2,2:0:0:0:
465,346,17965,2,0,B|502:358|502:358|542:343,1,64,2|0,2:0|3:0,2:0:0:0:
491,199,18331,1,2,2:0:0:0:
340,245,18514,6,0,B|345:304|345:304|342:311|342:311|349:400,1,128,0|0,3:0|3:0,2:0:0:0:
337,166,19063,1,2,2:0:0:0:
337,166,19154,1,2,2:0:0:0:
337,166,19246,1,2,3:2:0:0:
255,270,19429,1,0,1:0:0:0:
419,199,19612,1,4,2:3:0:0:
243,154,19795,1,8,2:3:0:0:
392,52,19977,6,0,P|333:27|263:56,1,136.000002593994,12|8,3:2|1:2,2:0:0:0:
74,14,20526,1,2,2:0:0:0:
242,62,20709,1,10,3:2:0:0:
78,128,20892,1,2,3:2:0:0:
174,0,21075,1,10,1:2:0:0:
199,172,21258,5,2,2:0:0:0:
199,172,21349,1,2,2:0:0:0:
199,172,21441,2,0,L|205:261,1,68.0000012969971,8|0,3:2|0:0,2:0:0:0:
251,376,21807,1,10,1:2:0:0:
84,351,21990,2,0,L|88:281,1,68.0000012969971,2|8,3:2|2:0,2:0:0:0:
93,107,22356,1,2,3:2:0:0:
185,238,22538,1,10,1:2:0:0:
33,211,22721,1,2,2:0:0:0:
249,120,22904,6,0,B|282:107|282:107|336:131,1,68.0000012969971,10|0,3:2|2:0,2:0:0:0:
420,209,23270,1,10,1:2:0:0:
455,66,23453,2,0,B|422:53|422:53|368:77,1,68.0000012969971,2|8,2:0|3:2,2:0:0:0:
282,190,23819,2,0,L|287:261,1,68.0000012969971,2|8,3:2|1:2,2:0:0:0:
294,363,24185,1,2,2:0:0:0:
283,155,24368,5,10,3:2:0:0:
193,258,24551,1,2,3:2:0:0:
106,162,24734,1,10,1:2:0:0:
0,276,24916,2,0,B|33:288|33:288|72:273,1,68.0000012969971,2|0,3:2|0:0,2:0:0:0:
187,169,25282,1,2,3:2:0:0:
34,199,25465,1,10,1:2:0:0:
87,66,25648,1,2,2:0:0:0:
130,249,25831,6,0,L|150:338,1,68.0000012969971,14|0,3:2|2:0,2:0:0:0:
276,212,26197,1,10,1:2:0:0:
139,170,26380,2,0,B|105:162|105:162|77:181,1,68.0000012969971,2|8,2:0|3:2,2:0:0:0:
276,212,26746,6,0,L|256:123,1,68.0000012969971,2|8,3:2|1:2,2:0:0:0:
130,249,27112,1,2,2:0:0:0:
260,292,27295,2,0,B|296:299|296:299|321:280,1,68.0000012969971,8|0,3:2|3:0,2:0:0:0:
377,135,27660,1,10,1:2:0:0:
440,281,27843,2,0,B|465:299|465:299|501:292,1,68.0000012969971,2|8,3:2|2:0,2:0:0:0:
377,162,28209,1,2,3:2:0:0:
380,339,28392,1,10,1:2:0:0:
440,126,28575,5,2,2:0:0:0:
440,126,28666,1,2,2:0:0:0:
440,126,28758,2,0,B|378:162|378:162|309:113,1,136.000002593994,14|8,3:2|1:2,2:0:0:0:
245,50,29307,1,0,2:0:0:0:
284,192,29490,1,6,1:2:0:0:
372,60,29673,1,10,2:3:0:0:
209,123,29856,1,6,2:3:0:0:
379,161,30038,1,6,1:2:0:0:
379,161,30404,5,0,1:0:0:0:
303,264,30587,1,0,1:0:0:0:
215,204,30770,1,4,3:2:0:0:
215,204,30862,1,0,3:0:0:0:
215,204,30953,1,0,1:0:0:0:
134,246,31136,1,0,1:0:0:0:
51,221,31319,1,4,3:2:0:0:
21,242,31502,1,0,0:0:0:0:
7,128,31685,6,0,P|38:114|78:131,1,60.0000022888184,6|0,3:2|2:0,2:0:0:0:
140,81,32051,2,0,P|167:100|172:143,1,60.0000022888184,2|0,2:0|3:0,2:0:0:0:
187,263,32416,2,0,P|218:277|258:260,1,60.0000022888184,2|0,1:2|2:0,2:0:0:0:
320,310,32782,2,0,P|347:290|352:247,1,60.0000022888184,2|0,2:0|2:0,2:0:0:0:
342,129,33148,2,0,P|373:115|413:132,1,60.0000022888184,2|0,2:0|2:0,2:0:0:0:
475,82,33514,2,0,P|502:101|507:144,1,60.0000022888184,2|0,2:0|3:0,2:0:0:0:
512,211,33880,2,0,L|483:204,3,30.0000011444092,2|0|0|0,1:2|0:0|2:0|0:0,2:0:0:0:
446,277,34246,2,0,L|417:284,3,30.0000011444092,2|0|0|0,2:0|0:0|2:0|0:0,2:0:0:0:
386,250,34612,6,0,B|352:238|352:238|302:256|302:256|247:237,1,120.000004577637,2|0,3:2|0:0,2:0:0:0:
198,145,35160,1,0,3:0:0:0:
163,133,35343,1,0,0:0:0:0:
275,108,35526,1,2,2:0:0:0:
236,227,35709,1,2,2:0:0:0:
330,192,35892,1,2,2:0:0:0:
306,343,36075,5,0,3:0:0:0:
341,355,36258,1,0,1:0:0:0:
151,231,36624,1,0,3:0:0:0:
112,350,36807,1,0,1:0:0:0:
55,259,36990,1,0,1:0:0:0:
199,312,37173,1,8,2:3:0:0:
199,312,37264,1,8,2:3:0:0:
199,312,37356,2,0,L|238:325,1,30.0000011444092,4|4,2:3|2:3,0:0:0:0:
326,384,37538,6,0,L|340:306,1,71.9999978027344,6|0,3:2|2:0,2:0:0:0:
375,120,37904,2,0,L|361:198,1,71.9999978027344,2|0,1:2|2:0,2:0:0:0:
199,312,38270,6,0,L|185:234,1,71.9999978027344,2|0,1:2|2:0,0:0:0:0:
151,75,38636,1,2,1:2:0:0:
10,283,38819,5,0,2:0:0:0:
10,283,38910,1,0,0:0:0:0:
10,283,39002,2,0,L|24:205,1,71.9999978027344,2|0,1:2|2:0,2:0:0:0:
63,1,39368,2,0,L|49:79,1,71.9999978027344,2|0,1:2|2:0,2:0:0:0:
220,148,39734,6,0,P|253:160|287:150,1,71.9999978027344,2|0,1:2|2:0,0:0:0:0:
329,351,40099,1,2,1:2:0:0:
293,348,40190,1,0,1:0:0:0:
257,345,40281,1,0,1:0:0:0:
221,342,40373,1,0,1:0:0:0:
185,336,40465,6,0,L|118:330,1,60.0000022888184,6|0,3:2|2:0,2:0:0:0:
76,124,40831,5,2,1:2:0:0:
138,190,41014,2,0,P|168:172|186:137,1,60.0000022888184,6|0,1:2|2:0,2:0:0:0:
299,81,41380,6,0,P|299:115|320:149,1,60.0000022888184,6|0,1:2|2:0,2:0:0:0:
312,274,41746,6,0,P|281:256|242:258,1,60.0000022888184,6|0,1:2|2:0,2:0:0:0:
311,138,42295,1,8,2:0:0:0:
311,138,42843,5,2,3:2:0:0:
311,138,42935,1,0,3:0:0:0:
311,138,43026,1,6,1:2:0:0:
146,172,43209,1,2,2:0:0:0:
278,348,43392,6,0,L|252:251,1,88.000002685547,14|0,3:2|0:0,2:0:0:0:
207,97,43758,1,10,1:2:0:0:
94,269,43941,2,0,B|137:283|137:283|186:256,1,88.000002685547,2|8,2:0|3:2,2:0:0:0:
325,214,44307,2,0,B|362:193|362:193|405:207,1,88.000002685547,2|8,3:2|1:2,2:0:0:0:
278,348,44673,6,0,L|255:263,1,88.000002685547,2|0,2:0|0:0,0:0:0:0:
205,95,45038,2,0,L|228:181,1,88.000002685547,2|8,2:0|1:2,2:0:0:0:
198,310,45404,2,0,B|278:348|278:348|332:268,1,176.000005371094,2|0,3:2|3:0,2:0:0:0:
360,130,45953,2,0,B|406:128|406:128|433:160,1,88.000002685547,10|0,1:2|2:0,2:0:0:0:
485,359,46319,6,0,L|405:317,1,88.000002685547,14|0,3:2|0:0,2:0:0:0:
243,234,46685,2,0,L|165:193,1,88.000002685547,10|0,1:2|2:0,2:0:0:0:
276,344,47051,1,14,3:2:0:0:
388,171,47234,1,2,3:2:0:0:
243,234,47416,1,10,1:2:0:0:
407,318,47599,1,2,2:0:0:0:
458,112,47782,6,0,B|457:63|457:63|377:187,1,176.000005371094,14|8,3:2|1:2,2:0:0:0:
323,269,48331,2,0,L|276:344,1,88.000002685547,0|8,3:0|2:0,2:0:0:0:
200,193,48697,1,2,3:2:0:0:
121,338,48880,1,10,1:2:0:0:
121,338,48972,1,0,1:0:0:0:
121,338,49063,2,0,L|84:280,1,44.0000013427735,2|0,1:2|1:0,0:0:0:0:
161,214,49246,6,0,B|200:193|200:193|252:223,1,88.000002685547,14|0,3:2|0:0,2:0:0:0:
62,238,49612,1,10,1:2:0:0:
201,110,49795,2,0,L|204:12,1,88.000002685547,2|8,2:0|3:2,2:0:0:0:
163,287,50160,2,0,B|200:308|200:308|239:287,1,88.000002685547,2|8,3:2|1:2,2:0:0:0:
201,110,50526,1,2,2:0:0:0:
400,208,50709,6,0,B|439:229|439:229|477:208,1,88.000002685547,10|0,3:2|2:0,2:0:0:0:
365,96,51075,1,10,1:2:0:0:
440,229,51258,2,0,L|442:316,1,88.000002685547,2|0,3:2|0:0,2:0:0:0:
512,98,51624,1,0,3:0:0:0:
363,271,51807,2,0,B|324:250|324:250|286:271,1,88.000002685547,10|0,1:2|0:0,2:0:0:0:
94,85,52173,6,0,L|101:180,1,88.000002685547,10|0,3:2|2:0,2:0:0:0:
114,359,52538,2,0,L|107:264,1,88.000002685547,10|0,1:2|2:0,0:0:0:0:
273,23,52904,6,0,L|266:118,1,88.000002685547,10|0,1:2|3:0,0:0:0:0:
248,350,53269,2,0,L|255:255,1,88.000002685547,10|0,1:2|0:0,0:0:0:0:
389,119,53636,5,14,1:2:0:0:
254,262,53819,1,0,1:0:0:0:
168,147,54002,1,8,1:2:0:0:
43,224,54185,1,6,3:2:0:0:
437,198,54551,6,0,L|466:195,6,22.0000006713867,2|2|2|2|10|2|0,3:0|2:0|2:0|2:0|2:0|2:0|1:0,2:0:0:0:
356,207,54916,1,2,1:2:0:0:
356,207,55008,1,0,1:0:0:0:
356,207,55099,1,2,2:0:0:0:
156,222,55465,5,6,3:2:0:0:
218,339,55648,2,0,P|260:346|306:329,1,88.000002685547
246,174,56014,2,0,L|253:261,1,88.000002685547,2|8,3:2|1:2,2:0:0:0:
284,99,56380,2,0,P|243:89|198:106,1,88.000002685547,2|0,3:2|0:0,2:0:0:0:
70,232,56746,2,0,L|166:223,1,88.000002685547,2|8,3:2|1:2,2:0:0:0:
19,164,57112,2,0,P|-14:246|39:312,1,176.000005371094,2|0,2:0|3:0,2:0:0:0:
143,266,57660,2,0,B|157:222|157:222|135:178,1,88.000002685547,10|0,1:2|2:0,2:0:0:0:
325,70,58026,6,0,B|307:108|307:108|321:152,1,88.000002685547,14|0,3:2|0:0,2:0:0:0:
308,328,58392,2,0,L|263:221,1,88.000002685547,10|0,1:2|2:0,2:0:0:0:
170,84,58758,1,14,3:2:0:0:
197,265,58941,1,2,3:2:0:0:
245,50,59124,1,10,1:2:0:0:
341,208,59307,1,2,3:2:0:0:
121,104,59490,6,0,B|201:74|201:74|204:65|204:65|282:33,2,176.000005371094,14|8|8,2:0|1:2|2:0,2:0:0:0:
126,286,60404,1,2,1:2:0:0:
12,162,60587,1,10,2:3:0:0:
12,162,60679,1,8,2:3:0:0:
12,162,60770,2,0,B|0:146|0:146|0:122,1,44.0000013427735,6|4,2:3|2:3,0:0:0:0:
92,67,60953,2,0,B|122:104|122:104|123:165,1,88.000002685547,14|0,3:2|0:0,2:0:0:0:
45,291,61319,5,10,1:2:0:0:
208,277,61502,2,0,L|310:272,1,88.000002685547,2|8,3:2|1:2,2:0:0:0:
510,260,61868,2,0,L|408:265,1,88.000002685547,2|8,3:2|1:2,2:0:0:0:
355,384,62234,1,2,3:2:0:0:
309,175,62416,6,0,B|354:158|354:158|390:173,1,88.000002685547,10|0,1:2|2:0,2:0:0:0:
512,198,62782,1,10,1:2:0:0:
427,103,62965,2,0,B|350:72|350:72|265:107,1,176.000005371094,2|0,3:2|3:0,2:0:0:0:
93,212,63514,2,0,B|54:230|54:230|12:210,1,88.000002685547,10|0,1:2|0:0,2:0:0:0:
172,344,63880,6,0,L|159:248,1,88.000002685547,14|0,3:2|2:0,2:0:0:0:
132,63,64246,2,0,L|145:159,1,88.000002685547,10|0,1:2|2:0,2:0:0:0:
298,347,64612,6,0,L|285:251,1,88.000002685547,10|0,1:2|3:0,0:0:0:0:
253,19,64978,2,0,L|266:115,1,88.000002685547,10|0,1:2|0:0,0:0:0:0:
459,98,65343,5,14,1:2:0:0:
389,255,65526,1,0,1:0:0:0:
290,137,65709,1,8,1:2:0:0:
174,192,65892,1,6,1:2:0:0:
174,192,66258,5,0,1:0:0:0:
357,197,66441,1,8,1:2:0:0:
357,197,66532,2,0,L|384:195,4,22.0000006713867,0|0|0|0|0,1:0|0:0|1:0|0:0|1:0,0:0:0:0:
250,214,66807,5,14,1:2:0:0:
282,77,66991,1,2,2:0:0:0:
444,244,67174,5,2,1:2:0:0:
422,107,67357,1,2,3:2:0:0:
294,283,67539,6,0,P|335:304|381:293,1,95.9999970703126,2|0,1:2|3:0,2:0:0:0:
501,153,67905,5,2,1:2:0:0:
331,144,68088,1,2,1:2:0:0:
475,273,68271,5,2,1:2:0:0:
294,283,68454,1,2,3:2:0:0:
422,107,68637,6,0,L|414:206,1,95.9999970703126,2|0,1:2|2:0,2:0:0:0:
389,375,69003,5,2,1:2:0:0:
306,202,69186,1,2,3:2:0:0:
205,360,69369,5,2,1:2:0:0:
236,240,69552,1,2,3:2:0:0:
104,333,69735,5,6,3:2:0:0:
47,152,69916,1,2,2:0:0:0:
154,211,70100,5,2,1:2:0:0:
0,262,70283,1,2,2:0:0:0:
263,265,70466,5,2,3:2:0:0:
196,56,70649,1,2,3:2:0:0:
319,124,70831,5,2,1:2:0:0:
143,182,71013,1,2,1:2:0:0:
291,356,71197,6,0,L|259:254,1,95.9999970703126,6|0,3:2|0:0,2:0:0:0:
215,128,71563,1,2,1:2:0:0:
262,264,71746,1,6,3:2:0:0:
262,264,72112,5,0,3:0:0:0:
201,46,72295,2,0,L|188:-1,3,47.9999985351563,0|0|0|0,1:0|1:0|1:0|1:0,0:0:0:0:
142,98,72660,5,6,3:2:0:0:
294,165,72843,1,2,2:0:0:0:
148,238,73026,1,2,1:2:0:0:
329,164,73209,1,2,2:0:0:0:
175,121,73392,2,0,B|153:166|153:166|170:224,1,95.9999970703126,2|0,3:2|3:0,2:0:0:0:
380,246,73758,5,2,1:2:0:0:
242,310,73941,1,2,1:2:0:0:
365,384,74124,1,2,3:2:0:0:
209,312,74307,1,2,3:2:0:0:
345,268,74490,2,0,B|364:314|364:314|344:371,1,95.9999970703126,2|0,1:2|2:0,2:0:0:0:
256,192,74856,5,6,3:2:0:0:
256,192,75221,1,6,3:2:0:0:
256,192,75587,1,6,3:2:0:0:
256,192,75679,12,4,78514,3:2:0:0:
255,266,80526,5,0,1:0:0:0:
119,293,80709,2,0,L|122:339,3,46.0000008773804,0|0|2|0,1:0|1:0|3:2|3:0,2:0:0:0:
37,262,81075,2,0,L|37:195,1,46.0000008773804,2|0,1:2|1:0,0:0:0:0:
134,178,81258,2,0,L|131:115,1,46.0000008773804,2|0,1:2|1:0,0:0:0:0:
85,46,81441,6,0,B|129:26|129:26|176:42,1,92.0000017547608,14|0,3:2|0:0,2:0:0:0:
252,188,81807,1,10,1:2:0:0:
341,40,81990,2,0,B|383:26|383:26|427:46,1,92.0000017547608,2|8,2:0|3:2,2:0:0:0:
377,206,82356,2,0,L|376:110,1,92.0000017547608,2|8,3:2|1:2,2:0:0:0:
378,310,82721,5,2,2:0:0:0:
378,310,82813,1,2,2:0:0:0:
378,310,82904,1,0,0:0:0:0:
337,127,83087,2,0,B|378:112|378:112|422:132,1,92.0000017547608,2|8,2:0|1:2,2:0:0:0:
464,281,83453,2,0,B|376:310|376:310|283:268,1,184.000003509522,2|0,3:2|3:0,2:0:0:0:
161,163,84002,2,0,L|175:265,1,92.0000017547608,10|0,1:2|2:0,0:0:0:0:
313,114,84368,6,0,B|297:86|297:86|229:105,1,92.0000017547608,14|0,3:2|0:0,2:0:0:0:
73,146,84734,2,0,B|14:161|14:161|0:134,1,92.0000017547608,10|0,1:2|2:0,2:0:0:0:
136,1,85099,1,14,3:2:0:0:
161,163,85282,1,2,3:2:0:0:
220,11,85465,1,10,1:2:0:0:
59,37,85648,1,2,2:0:0:0:
85,229,85831,6,0,B|174:252|174:252|263:203,1,184.000003509522,14|8,3:2|1:2,2:0:0:0:
354,76,86380,2,0,L|417:168,1,92.0000017547608,0|8,3:0|2:0,2:0:0:0:
275,195,86746,1,2,3:2:0:0:
439,56,86929,1,10,1:2:0:0:
439,56,87020,1,0,1:0:0:0:
439,56,87112,2,0,L|466:98,1,46.0000008773804,2|0,1:2|1:0,0:0:0:0:
492,196,87295,6,0,B|475:238|475:238|426:248,1,92.0000017547608,14|0,3:2|0:0,2:0:0:0:
254,215,87660,1,10,1:2:0:0:
354,76,87843,2,0,L|417:168,1,92.0000017547608,2|8,2:0|3:2,2:0:0:0:
335,264,88209,6,0,B|318:306|318:306|269:316,1,92.0000017547608,2|8,3:2|1:2,2:0:0:0:
216,140,88575,1,2,2:0:0:0:
102,278,88758,6,0,L|154:354,1,92.0000017547608,10|0,3:2|2:0,2:0:0:0:
254,215,89124,1,10,1:2:0:0:
82,185,89307,2,0,B|38:191|38:191|18:238,1,92.0000017547608,2|0,3:2|0:0,2:0:0:0:
154,354,89673,1,0,3:0:0:0:
254,215,89856,2,0,B|227:180|227:180|230:174|230:174|206:139,1,92.0000017547608,10|0,1:2|0:0,2:0:0:0:
400,163,90221,6,0,L|446:245,1,92.0000017547608,10|0,3:2|2:0,2:0:0:0:
350,76,90587,2,0,L|302:-8,1,92.0000017547608,10|0,1:2|2:0,0:0:0:0:
280,251,90953,6,0,L|326:333,1,92.0000017547608,10|0,1:2|3:0,0:0:0:0:
190,107,91319,2,0,L|145:25,1,92.0000017547608,10|0,1:2|0:0,0:0:0:0:
81,311,91685,1,14,1:2:0:0:
104,148,91868,1,0,1:0:0:0:
254,266,92051,1,8,1:2:0:0:
354,131,92234,1,6,3:2:0:0:
23,257,92599,6,0,L|-9:268,6,23.0000004386902,2|2|2|2|10|0|0,3:0|2:0|2:0|2:0|1:2|0:0|1:0,2:0:0:0:
105,235,92965,1,2,1:2:0:0:
105,235,93057,1,0,1:0:0:0:
105,235,93148,1,2,3:2:0:0:
412,223,93514,6,0,L|382:130,1,92.0000017547608,6|0,3:2|0:0,2:0:0:0:
289,168,93880,5,0,0:0:0:0:
357,57,94063,1,10,2:3:0:0:
483,95,94246,1,8,2:3:0:0:
436,322,94429,1,6,2:0:0:0:
434,319,95526,5,0,3:0:0:0:
434,319,95618,1,0,3:0:0:0:
434,319,95709,1,6,1:2:0:0:
434,319,96075,6,0,B|317:308|317:308|311:299|311:299|179:286,1,238.00000453949,6|0,3:2|2:0,2:0:0:0:
113,307,96807,2,0,P|25:259|129:242,1,265.999992897034,6|0,3:2|2:0,2:0:0:0:
201,288,97538,5,6,3:2:0:0:
324,304,97721,1,8,2:3:0:0:
324,304,97813,1,8,2:3:0:0:
324,304,97904,2,0,L|394:306,1,41.9999987182618,8|4,2:3|2:3,0:0:0:0:
453,273,98087,2,0,B|468:315|468:315|442:370,1,83.9999974365235,4|4,2:0|2:3,0:0:0:0:
287,307,98453,1,2,3:2:0:0:
369,165,98636,5,2,1:2:0:0:
369,165,98727,1,0,1:0:0:0:
369,165,98819,2,0,L|361:112,1,46.0000008773804,2|0,1:2|1:0,0:0:0:0:
395,32,99002,2,0,B|348:18|348:18|289:50,1,92.0000017547608,14|0,3:2|0:0,2:0:0:0:
270,211,99368,1,10,1:2:0:0:
472,167,99550,2,0,L|458:75,1,92.0000017547608,2|8,3:2|1:2,2:0:0:0:
487,274,99915,2,0,L|500:365,1,92.0000017547608,2|8,3:2|1:2,2:0:0:0:
359,219,100282,1,2,3:2:0:0:
190,291,100465,6,0,L|176:199,1,92.0000017547608,10|0,1:2|2:0,2:0:0:0:
294,358,100831,1,10,1:2:0:0:
115,349,101014,2,0,L|88:166,1,184.000003509522,2|0,3:2|3:0,2:0:0:0:
262,187,101563,2,0,L|276:279,1,92.0000017547608,10|0,1:2|0:0,2:0:0:0:
318,36,101929,6,0,L|412:24,1,92.0000017547608,14|0,3:2|2:0,2:0:0:0:
198,54,102295,2,0,L|102:68,1,92.0000017547608,10|0,1:2|2:0,0:0:0:0:
380,118,102661,6,0,L|475:104,1,92.0000017547608,10|0,1:2|3:0,0:0:0:0:
145,152,103027,2,0,L|51:164,1,92.0000017547608,10|0,1:2|0:0,0:0:0:0:
179,270,103392,5,14,1:2:0:0:
334,195,103575,1,0,1:0:0:0:
178,148,103758,1,8,1:2:0:0:
264,28,103941,1,6,1:2:0:0:
260,224,104307,5,0,1:0:0:0:
260,224,104398,1,0,1:0:0:0:
260,224,104490,1,8,1:2:0:0:
260,224,104581,2,0,L|264:259,4,23.0000004386902,0|0|0|0|0,1:0|0:0|1:0|0:0|1:0,0:0:0:0:
334,195,104856,5,14,1:2:0:0:
443,322,105039,1,2,2:0:0:0:
432,140,105221,5,2,1:2:0:0:
321,292,105404,1,2,3:2:0:0:
509,277,105587,6,0,L|505:160,1,100,2|0,1:2|3:0,2:0:0:0:
375,73,105953,5,2,1:2:0:0:
268,239,106136,1,2,1:2:0:0:
280,45,106318,5,2,1:2:0:0:
398,207,106501,1,2,3:2:0:0:
203,187,106684,6,0,L|207:70,1,100,2|0,1:2|2:0,2:0:0:0:
46,128,107051,5,2,1:2:0:0:
199,218,107234,1,2,3:2:0:0:
1,241,107416,5,2,1:2:0:0:
138,163,107599,1,2,3:2:0:0:
103,371,107782,5,6,3:2:0:0:
68,201,107965,1,2,2:0:0:0:
182,316,108148,5,2,1:2:0:0:
13,362,108331,1,2,2:0:0:0:
281,371,108514,5,2,3:2:0:0:
226,176,108697,1,2,3:2:0:0:
143,247,108880,5,2,1:2:0:0:
323,198,109063,1,2,1:2:0:0:
201,79,109246,6,0,L|228:185,1,100,6|0,3:2|0:0,2:0:0:0:
273,349,109612,1,2,1:2:0:0:
225,175,109795,1,6,3:2:0:0:
225,175,110160,5,0,3:0:0:0:
405,233,110343,2,0,L|348:248,3,50,0|0|0|0,1:0|1:0|1:0|1:0,0:0:0:0:
314,256,110708,5,6,3:2:0:0:
431,130,110892,1,2,2:0:0:0:
477,319,111075,1,2,1:2:0:0:
278,265,111258,1,2,2:0:0:0:
474,177,111441,2,0,P|501:219|490:279,1,100,2|0,3:2|3:0,2:0:0:0:
238,276,111807,5,2,1:2:0:0:
309,151,111990,1,2,1:2:0:0:
364,377,112173,1,2,3:2:0:0:
195,286,112356,1,2,3:2:0:0:
394,194,112538,2,0,P|426:244|413:315,1,100,2|0,1:2|2:0,2:0:0:0:
256,192,112904,5,6,3:2:0:0:
256,192,113270,1,6,3:2:0:0:
256,192,113636,1,6,3:2:0:0:
256,192,113727,12,0,115648,0:0:0:0:
255,192,115831,6,0,L|256:224,6,20
257,101,116197,1,0,0:0:0:0:
257,101,116380,1,0,1:0:0:0:
309,337,116563,6,0,P|254:348|201:333,1,111.999996582031,4|0,3:2|0:0,2:0:0:0:
255,192,117112,2,0,L|256:275,1,71.9999978027344,4|0,3:2|2:0,2:0:0:0:
340,126,117477,1,0,0:0:0:0:
172,126,117660,1,4,3:2:0:0:
256,192,117752,12,0,120953,2:0:0:0:
