osu file format v14

[General]
AudioFilename: audio.mp3
AudioLeadIn: 0
PreviewTime: 42843
Countdown: 0
SampleSet: Soft
StackLeniency: 0.7
Mode: 0
LetterboxInBreaks: 0
WidescreenStoryboard: 1

[Editor]
Bookmarks: 7904,31685,37538,66807,72660,78331,96807,97721,98087,117112,117660,120953
DistanceSpacing: 1.5
BeatDivisor: 4
GridSize: 32
TimelineZoom: 1

[Metadata]
Title:NO EXIT ORION
TitleUnicode:NO EXIT ORION
Artist:Printemps
ArtistUnicode:Printemps
Creator:Slyme
Version:LeQuack's Hard
Source:ラブライブ! School idol project
Tags:anime video game mari_0hara Tuffiii Minslime Lequack pop Kousaka Honoka 高坂穂乃果 新田恵海 Nitta Emi Minami Kotori 南ことり 内田彩 Uchida Aya Koizumi Hanayo 小泉花陽 久保ユリカ Kubo Yurika Muse u's Christmas Winter Lovelive jpop j-pop japanese Akane-_ Synaelle Dora- mari 0hara µ's love live! school idol festival
BeatmapID:3333029
BeatmapSetID:1632876

[Difficulty]
HPDrainRate:3
CircleSize:3.5
OverallDifficulty:6
ApproachRate:8
SliderMultiplier:1.2
SliderTickRate:1

[Events]
//Background and Video events
0,0,"BG.jpg",0,0
Video,250,"Video.mp4"
//Break Periods
2,78714,79992
//Storyboard Layer 0 (Background)
//Storyboard Layer 1 (Fail)
//Storyboard Layer 2 (Pass)
//Storyboard Layer 3 (Foreground)
//Storyboard Layer 4 (Overlay)
//Storyboard Sound Samples

[TimingPoints]
2417,365.853658536585,4,2,1,30,1,0
2417,-100,4,2,1,30,0,0
3057,-100,4,2,1,5,0,0
3148,-100,4,2,1,30,0,0
3788,-100,4,2,1,5,0,0
3880,-100,4,2,1,30,0,0
4520,-100,4,2,1,5,0,0
4612,-100,4,2,1,30,0,0
5252,-100,4,2,1,5,0,0
5343,-100,4,2,1,30,0,0
5984,-100,4,2,1,5,0,0
6075,-100,4,2,1,30,0,0
6715,-100,4,2,1,5,0,0
6807,-100,4,2,1,30,0,0
7447,-100,4,2,1,5,0,0
7538,-100,4,2,2,50,0,0
7813,-100,4,2,2,5,0,0
7904,-100,4,2,1,60,0,0
8269,-100,4,2,1,60,0,0
8819,-100,4,2,3,60,0,0
9734,-100,4,2,1,60,0,0
9916,-100,4,2,1,60,0,0
10099,-100,4,2,1,60,0,0
10281,-100,4,2,1,60,0,0
10648,-100,4,2,3,60,0,0
11197,-100,4,2,1,60,0,0
11562,-100,4,2,3,60,0,0
11928,-100,4,2,1,60,0,0
12112,-100,4,2,3,60,0,0
12660,-100,4,2,1,60,0,0
14123,-100,4,2,1,60,0,0
14673,-100,4,2,1,60,0,0
14856,-100,4,2,3,60,0,0
15587,-100,4,2,1,60,0,0
16135,-100,4,2,1,60,0,0
16502,-100,4,2,3,60,0,0
17051,-100,4,2,1,60,0,0
17416,-100,4,2,3,60,0,0
17781,-100,4,2,1,60,0,0
17965,-100,4,2,3,60,0,0
18331,-100,4,2,1,60,0,0
19977,-100,4,2,2,70,0,0
20526,-100,4,2,3,70,0,0
20709,-100,4,2,4,70,0,0
20892,-100,4,2,3,70,0,0
21258,-100,4,2,4,70,0,0
22356,-100,4,2,3,70,0,0
22904,-100,4,2,4,70,0,0
23269,-100,4,2,3,70,0,0
23453,-100,4,2,4,70,0,0
24185,-100,4,2,3,70,0,0
25831,-100,4,2,4,70,0,0
26196,-100,4,2,3,70,0,0
26380,-100,4,2,4,70,0,0
27112,-100,4,2,3,70,0,0
28758,-100,4,2,5,70,0,0
29490,-100,4,2,4,70,0,0
29673,-100,4,2,1,70,0,0
30038,-100,4,2,4,70,0,0
31319,-100,4,2,2,70,0,0
31685,-100,4,2,1,60,0,0
32050,-100,4,2,3,60,0,0
34612,-100,4,2,1,60,0,0
35525,-100,4,2,3,60,0,0
35891,-100,4,2,1,60,0,0
37538,-100,4,2,4,75,0,0
38910,-100,4,2,4,5,0,0
39002,-100,4,2,4,75,0,0
42295,-100,4,2,1,75,0,0
43026,-100,4,2,4,75,0,0
43300,-100,4,2,4,5,0,0
43392,-100,4,2,6,85,0,0
43574,-100,4,2,6,5,0,0
43758,-100,4,2,4,85,0,0
46227,-100,4,2,4,5,0,0
46319,-100,4,2,4,85,0,0
46501,-100,4,2,4,5,0,0
46685,-100,4,2,4,85,0,0
49246,-100,4,2,5,85,0,0
53636,-100,4,2,4,85,0,0
55465,-100,4,2,6,85,0,0
56196,-100,4,2,4,85,0,0
59672,-100,4,2,4,5,0,0
59856,-100,4,2,4,85,0,0
60587,-100,4,2,2,85,0,0
60953,-100,4,2,5,85,0,0
63696,-100,4,2,5,5,0,0
63880,-100,4,2,7,85,0,0
64245,-100,4,2,4,85,0,0
65159,-100,4,2,4,5,0,0
65343,-100,4,2,4,85,0,0
66807,-100,4,2,5,85,0,1
69734,-100,4,2,4,85,0,1
71746,-100,4,2,1,85,0,1
72660,-100,4,2,7,85,0,1
73026,-100,4,2,4,85,0,1
75587,-100,4,2,1,50,0,0
79977,-100,4,2,2,70,0,0
80892,-100,4,2,1,70,0,0
81441,-100,4,2,6,85,0,0
81623,-100,4,2,6,5,0,0
81807,-100,4,2,4,85,0,0
84550,-100,4,2,4,5,0,0
84734,-100,4,2,4,85,0,0
87295,-100,4,2,5,85,0,0
91685,-100,4,2,4,85,0,0
93514,-100,4,2,7,85,0,0
94063,-100,4,2,2,85,0,0
94429,-100,4,2,8,85,0,0
95526,-100,4,2,4,85,0,0
95709,-100,4,2,4,85,0,0
96075,-100,4,2,1,85,0,0
98087,-100,4,2,8,85,0,0
98452,-100,4,2,1,85,0,0
99002,-100,4,2,6,85,0,0
99184,-100,4,2,6,5,0,0
99368,-100,4,2,4,85,0,0
101745,-100,4,2,4,5,0,0
101929,-100,4,2,7,85,0,0
102294,-100,4,2,4,85,0,0
103208,-100,4,2,4,5,0,0
103392,-100,4,2,4,85,0,0
104856,-100,4,2,5,85,0,1
107782,-100,4,2,4,85,0,1
109795,-100,4,2,1,85,0,1
110709,-100,4,2,7,85,0,1
111075,-100,4,2,4,85,0,1
113636,-100,4,2,1,85,0,0
116563,-100,4,2,2,85,0,0
117112,-100,4,2,3,85,0,0
117477,-100,4,2,3,85,0,0
117660,-100,4,2,1,85,0,0
120953,-100,4,2,99,5,0,0

[Colours]
Combo1 : 24,30,248
Combo2 : 172,106,57
Combo3 : 215,0,0
Combo4 : 38,123,36

[HitObjects]
84,66,2416,6,0,B|32:145|99:206|99:206|154:165|136:122,1,240,2|10,2:0|2:0,2:0:0:0:
439,338,3880,6,0,B|436:256|436:256|456:219|456:219|452:103,1,240,2|10,2:0|2:0,2:0:0:0:
172,330,5343,6,0,B|200:283|157:241|157:241|95:309|10:267,1,240,2|10,2:0|2:0,2:0:0:0:
300,36,6807,5,2,2:0:0:0:
471,351,7538,2,0,B|436:316|478:269|478:269|438:238|438:238|486:188|442:136,1,240,2|4,2:0|3:2,2:0:0:0:
241,319,8819,5,2,2:0:0:0:
162,275,9002,2,0,P|128:273|100:284,2,60,2|2|2,3:2|2:0|3:2,0:0:0:0:
241,231,9551,1,2,2:0:0:0:
213,145,9734,2,0,B|183:140|183:140|153:149,1,60,2|0,3:2|0:0,2:0:0:0:
179,62,10099,2,0,B|207:53|207:53|237:58,1,60,2|0,3:2|0:0,0:0:0:0:
363,188,10648,5,2,2:0:0:0:
335,102,10831,2,0,P|371:96|399:106,1,60,2|2,3:2|2:0,0:0:0:0:
453,169,11197,2,0,B|456:208|456:208|441:246|441:246|444:292,1,120,2|2,3:2|3:2,2:0:0:0:
373,342,11746,2,0,P|320:356|255:331,2,120,2|2|2,2:0|2:0|2:0,2:0:0:0:
322,267,12660,6,0,P|294:248|251:245,1,60,2|2,3:2|2:0,2:0:0:0:
185,278,13026,1,2,3:2:0:0:
124,344,13209,2,0,B|98:312|98:312|97:232,1,120,2|0,2:0|2:0,0:0:0:0:
99,142,13758,1,0,3:0:0:0:
278,156,14124,1,10,3:2:0:0:
451,363,14673,5,2,2:0:0:0:
379,310,14856,2,0,B|363:335|363:335|365:373,2,60,2|2|2,3:2|2:0|3:2,0:0:0:0:
464,277,15404,1,2,2:0:0:0:
421,197,15587,2,0,P|408:139|424:74,1,120,2|0,3:2|3:0,2:0:0:0:
482,15,16136,1,2,2:0:0:0:
317,88,16502,5,2,2:0:0:0:
275,167,16685,2,0,L|276:232,1,60,2|2,3:2|2:0,0:0:0:0:
215,294,17051,2,0,B|177:294|177:294|142:314|142:314|86:315,1,120,2|2,3:2|3:2,2:0:0:0:
35,252,17599,2,0,P|12:308|27:364,1,120,2|2,2:0|2:0,2:0:0:0:
206,376,18331,6,0,L|407:373,1,180,2|0,2:0|3:0,0:0:0:0:
430,294,19063,2,0,L|480:292,2,30,2|2|2,2:0|2:0|3:2,0:0:0:0:
376,220,19429,1,0,1:0:0:0:
292,252,19612,1,4,2:3:0:0:
258,168,19795,1,8,2:3:0:0:
169,157,19977,6,0,P|150:116|178:41,1,120,12|8,3:2|1:2,2:0:0:0:
256,16,20526,1,2,2:0:0:0:
329,67,20709,1,10,3:2:0:0:
329,67,20892,2,0,P|337:101|325:136,1,60,2|10,3:2|1:2,0:0:0:0:
275,195,21258,6,0,B|301:178|301:178|411:180,1,120,2|0,2:0|0:0,0:0:0:0:
480,179,21807,1,10,1:2:0:0:
436,258,21990,1,2,3:2:0:0:
257,280,22356,1,2,3:2:0:0:
192,222,22538,1,10,1:2:0:0:
175,308,22721,1,2,2:0:0:0:
110,250,22904,6,0,P|106:207|153:143,1,120,10|10,3:2|1:2,2:0:0:0:
236,146,23453,1,2,2:0:0:0:
320,113,23636,1,8,3:2:0:0:
320,113,23819,2,0,B|329:83|329:83|319:52,1,60,2|8,3:2|1:2,2:0:0:0:
234,26,24185,6,0,B|173:14|173:57|111:33,1,120,2|2,2:0|3:2,0:0:0:0:
30,8,24734,1,10,1:2:0:0:
50,97,24916,1,2,3:2:0:0:
18,274,25282,1,2,3:2:0:0:
94,321,25465,1,10,1:2:0:0:
172,276,25648,1,2,2:0:0:0:
250,319,25831,6,0,B|293:319|293:319|328:300|328:300|376:300,1,120,14|10,3:2|1:2,2:0:0:0:
449,333,26380,2,0,P|410:297|409:227,1,120,2|2,2:0|3:2,2:0:0:0:
441,149,26929,1,8,1:2:0:0:
505,87,27112,1,2,2:0:0:0:
505,87,27203,1,2,2:0:0:0:
505,87,27295,6,0,B|470:59|470:59|379:59,1,120,8|10,3:2|1:2,2:0:0:0:
304,59,27843,1,2,3:2:0:0:
123,57,28209,1,2,3:2:0:0:
89,140,28392,1,10,1:2:0:0:
144,224,28575,1,2,2:0:0:0:
144,224,28666,1,2,2:0:0:0:
144,224,28758,6,0,P|87:242|25:218,1,120,14|8,3:2|1:2,2:0:0:0:
195,147,29490,1,6,1:2:0:0:
236,229,29673,1,10,2:3:0:0:
318,188,29856,1,6,2:3:0:0:
277,106,30038,5,6,1:2:0:0:
360,265,30404,1,0,1:0:0:0:
442,224,30587,1,0,1:0:0:0:
440,314,30770,2,0,B|407:344|407:344|318:346,1,120,4|0,3:2|1:0,0:0:0:0:
241,350,31319,1,4,3:2:0:0:
82,264,31685,6,0,B|82:223|82:223|62:180|62:180|62:142,1,120,6|2,3:2|2:0,2:0:0:0:
106,71,32234,1,0,3:0:0:0:
106,71,32416,2,0,P|134:63|168:69,1,60,2|0,1:2|2:0,2:0:0:0:
246,105,32782,2,0,P|274:113|308:107,1,60,2|0,2:0|2:0,2:0:0:0:
386,71,33148,6,0,L|387:137,1,60,2|0,2:0|2:0,2:0:0:0:
474,152,33514,2,0,L|475:218,1,60,2|0,2:0|3:0,2:0:0:0:
416,280,33880,2,0,L|372:280,3,30,2|0|0|0,1:2|0:0|2:0|0:0,2:0:0:0:
357,315,34246,2,0,L|313:315,3,30,2|0|0|0,2:0|0:0|2:0|0:0,2:0:0:0:
301,277,34612,6,0,B|239:261|239:318|172:299,1,120,2|0,3:2|0:0,2:0:0:0:
101,329,35160,1,0,3:0:0:0:
66,245,35343,2,0,B|58:215|58:215|65:178,1,60,0|2,0:0|2:0,0:0:0:0:
137,123,35709,2,0,B|145:93|145:93|138:56,1,60,2|2,2:0|2:0,0:0:0:0:
59,22,36075,5,0,3:0:0:0:
59,22,36258,1,0,1:0:0:0:
228,83,36624,2,0,P|260:90|306:76,1,60,0|0,3:0|1:0,0:0:0:0:
372,58,36990,1,0,1:0:0:0:
462,59,37173,2,0,L|501:47,2,30,8|8|4,2:3|2:3|2:3,0:0:0:0:
411,133,37538,6,0,L|411:252,1,120,6|2,3:2|1:2,2:0:0:0:
259,351,38270,1,2,1:2:0:0:
197,285,38453,1,0,2:0:0:0:
260,221,38636,2,0,B|268:186|268:186|251:113,1,90,2|0,1:2|0:0,2:0:0:0:
221,103,39002,6,0,B|176:100|176:100|148:122|148:122|104:118,1,120,2|2,1:2|1:2,2:0:0:0:
28,280,39734,1,2,1:2:0:0:
111,312,39916,1,0,2:0:0:0:
197,285,40099,2,0,L|230:271,3,30,2|0|0|0,1:2|1:0|1:0|1:0,0:0:0:0:
266,255,40465,5,6,3:2:0:0:
431,326,40831,1,2,1:2:0:0:
431,326,41014,1,6,1:2:0:0:
502,161,41380,1,6,1:2:0:0:
337,90,41746,1,6,1:2:0:0:
345,98,42843,5,2,3:2:0:0:
345,98,42935,1,0,3:0:0:0:
345,98,43026,2,0,B|309:116|309:116|246:103,1,90,6|0,1:2|0:0,0:0:0:0:
215,109,43392,6,0,P|202:137|220:185,1,60,14|0,3:2|0:0,2:0:0:0:
245,246,43758,1,10,1:2:0:0:
198,322,43941,2,0,B|173:341|173:341|137:339,1,60,2|8,2:0|3:2,2:0:0:0:
60,304,44307,2,0,L|54:231,1,60,2|8,3:2|1:2,2:0:0:0:
28,168,44673,1,2,2:0:0:0:
28,168,44764,1,2,2:0:0:0:
28,168,44856,6,0,L|22:95,1,60,0|2,0:0|2:0,0:0:0:0:
80,38,45221,1,8,1:2:0:0:
155,87,45404,2,0,B|198:83|198:83|221:57|221:57|266:55,1,120,2|0,3:2|3:0,2:0:0:0:
347,88,45953,2,0,L|440:80,1,90,10|0,1:2|0:0,2:0:0:0:
480,91,46319,6,0,P|492:130|486:152,1,60,14|0,3:2|0:0,2:0:0:0:
421,209,46685,2,0,P|409:248|415:270,1,60,10|0,1:2|2:0,2:0:0:0:
471,335,47051,1,14,3:2:0:0:
384,358,47234,1,2,3:2:0:0:
322,292,47416,2,0,L|242:294,1,60,10|2,1:2|2:0,0:0:0:0:
190,349,47782,6,0,P|215:286|176:229,1,120,14|8,3:2|1:2,2:0:0:0:
111,204,48331,2,0,P|86:141|125:84,1,120,0|2,3:0|3:2,2:0:0:0:
178,41,48880,2,0,L|221:47,3,30,10|0|2|0,1:2|1:0|1:2|1:0,0:0:0:0:
248,64,49246,6,0,L|369:52,1,120,14|10,3:2|1:2,2:0:0:0:
457,43,49795,1,2,2:0:0:0:
416,122,49977,1,8,3:2:0:0:
416,122,50160,2,0,P|405:166|446:236,1,120,2|2,3:2|2:0,2:0:0:0:
481,309,50709,6,0,B|444:285|444:285|356:285,1,120,10|10,3:2|1:2,2:0:0:0:
277,286,51258,2,0,B|237:285|237:285|198:243|223:201,1,120,2|0,3:2|3:0,2:0:0:0:
262,131,51807,1,10,1:2:0:0:
113,232,52173,6,0,L|47:240,1,60,10|0,3:2|2:0,2:0:0:0:
3,164,52538,2,0,L|62:156,1,60,10|0,1:2|2:0,0:0:0:0:
80,68,52904,2,0,L|14:76,2,60,10|0|10,1:2|3:0|1:2,0:0:0:0:
259,53,53636,5,14,1:2:0:0:
329,108,53819,1,0,1:0:0:0:
342,20,54002,1,8,1:2:0:0:
412,75,54185,2,0,B|421:115|421:115|407:143|407:143|417:176,1,90,6|0,3:2|2:0,2:0:0:0:
424,203,54551,1,2,3:0:0:0:
447,289,54734,2,0,L|458:330,4,30,10|0|2|0|2,1:2|1:0|1:2|1:0|2:0,0:0:0:0:
289,202,55465,5,6,3:2:0:0:
208,242,55648,2,0,P|176:255|129:247,1,60
76,202,56014,2,0,L|70:138,1,60,2|8,3:2|1:2,2:0:0:0:
155,110,56380,2,0,L|160:169,1,60,2|0,3:2|0:0,2:0:0:0:
244,136,56746,2,0,L|239:77,1,60,2|8,3:2|1:2,2:0:0:0:
306,16,57112,2,0,B|347:21|347:21|377:45|377:45|424:52,1,120,2|0,2:0|3:0,2:0:0:0:
505,69,57660,2,0,B|521:93|521:93|519:132,1,60,10|0,1:2|2:0,2:0:0:0:
463,195,58026,6,0,P|455:232|475:289,1,90,14|0,3:2|2:0,2:0:0:0:
483,323,58392,2,0,L|418:328,1,60,10|0,1:2|2:0,2:0:0:0:
334,308,58758,1,14,3:2:0:0:
254,350,58941,1,2,3:2:0:0:
170,316,59124,2,0,P|152:280|152:252,1,60,10|2,1:2|3:2,0:0:0:0:
188,178,59490,6,0,P|145:167|118:179,1,60,14|0,2:0|0:0,2:0:0:0:
45,201,59856,1,8,1:2:0:0:
63,113,60038,2,0,L|79:44,1,60,0|8,3:0|2:0,2:0:0:0:
160,19,60404,1,2,1:2:0:0:
241,56,60587,2,0,L|275:49,3,30,10|8|6|4,2:3|2:3|2:3|2:3,0:0:0:0:
312,34,60953,6,0,P|364:58|436:47,1,120,14|10,3:2|1:2,2:0:0:0:
511,24,61502,1,2,3:2:0:0:
511,24,61685,1,8,1:2:0:0:
492,112,61868,2,0,L|488:233,1,120,2|2,3:2|3:2,2:0:0:0:
422,293,62416,6,0,B|363:309|363:268|295:288,1,120,10|10,1:2|1:2,2:0:0:0:
219,317,62965,1,2,3:2:0:0:
140,272,63148,2,0,P|111:258|74:259,1,60,0|0,0:0|3:0,0:0:0:0:
25,187,63514,2,0,P|54:173|91:174,1,60,10|0,1:2|0:0,2:0:0:0:
168,147,63880,6,0,B|193:122|193:122|195:33,1,120,14|10,3:2|1:2,2:0:0:0:
372,70,64612,1,10,1:2:0:0:
453,109,64795,1,0,3:0:0:0:
378,159,64977,2,0,P|361:187|362:226,1,60,10|0,1:2|0:0,0:0:0:0:
423,277,65343,6,0,L|487:276,2,60,14|0|8,1:2|1:0|1:2,0:0:0:0:
338,310,65892,2,0,B|297:311|297:311|269:329|269:329|222:330,1,120,6|0,1:2|1:0,0:0:0:0:
133,315,66441,2,0,L|124:277,3,30,8|0|0|0,1:2|1:0|1:0|1:0,0:0:0:0:
116,241,66807,5,14,1:2:0:0:
36,282,66990,1,2,2:0:0:0:
28,192,67173,2,0,L|24:127,1,60,2|2,1:2|3:2,0:0:0:0:
96,78,67538,1,2,1:2:0:0:
271,118,67904,5,2,1:2:0:0:
313,38,68087,1,2,1:2:0:0:
370,106,68270,2,0,P|400:110|435:97,1,60,2|2,1:2|3:2,0:0:0:0:
496,42,68636,1,2,1:2:0:0:
487,222,69002,6,0,B|491:252|491:252|485:286,2,60,2|2|2,1:2|3:2|1:2,0:0:0:0:
402,254,69551,1,2,3:2:0:0:
335,314,69734,6,0,P|302:322|257:310,1,60,6|2,3:2|2:0,0:0:0:0:
196,276,70099,1,2,1:2:0:0:
245,201,70282,1,2,2:0:0:0:
156,186,70465,1,2,3:2:0:0:
107,261,70648,1,2,3:2:0:0:
67,180,70831,2,0,L|92:110,1,60,2|2,1:2|1:2,0:0:0:0:
140,50,71197,6,0,P|109:35|68:35,2,60,6|0|2,3:2|0:0|1:2,2:0:0:0:
215,100,71746,1,6,3:2:0:0:
394,80,72112,1,0,3:0:0:0:
378,168,72295,2,0,L|382:211,3,30,0|0|0|0,1:0|1:0|1:0|1:0,0:0:0:0:
399,239,72660,5,6,3:2:0:0:
475,191,72843,1,2,2:0:0:0:
478,280,73026,2,0,P|466:300|433:321,1,60,2|2,1:2|2:0,0:0:0:0:
345,312,73392,1,2,3:2:0:0:
166,284,73758,5,2,1:2:0:0:
238,337,73941,1,2,1:2:0:0:
281,257,74124,2,0,B|287:228|287:228|282:196,1,60,2|2,3:2|3:2,0:0:0:0:
247,114,74490,1,2,1:2:0:0:
76,55,74856,5,6,3:2:0:0:
6,220,75221,1,6,3:2:0:0:
171,290,75587,1,6,3:2:0:0:
256,192,75679,12,4,78514,3:2:0:0:
132,61,80892,5,2,3:2:0:0:
117,149,81075,1,2,1:2:0:0:
205,164,81258,1,2,1:2:0:0:
220,76,81441,6,0,B|241:54|241:54|284:43,1,60,14|0,3:2|0:0,2:0:0:0:
358,65,81807,1,10,1:2:0:0:
294,128,81990,2,0,L|294:203,1,60,2|8,2:0|3:2,2:0:0:0:
345,262,82356,2,0,P|378:268|404:258,1,60,2|8,3:2|1:2,2:0:0:0:
487,221,82721,1,2,2:0:0:0:
487,221,82813,1,2,2:0:0:0:
487,221,82904,2,0,L|487:296,1,60,0|2,0:0|2:0,0:0:0:0:
489,371,83270,1,8,1:2:0:0:
401,351,83453,6,0,B|365:340|365:340|276:354,1,120,2|0,3:2|3:0,2:0:0:0:
194,369,84002,1,10,1:2:0:0:
105,350,84185,1,0,2:0:0:0:
149,271,84368,6,0,P|162:244|160:209,1,60,14|0,3:2|0:0,2:0:0:0:
78,178,84734,2,0,P|65:151|67:116,1,60,10|0,1:2|2:0,2:0:0:0:
103,39,85099,1,14,3:2:0:0:
186,5,85282,1,2,3:2:0:0:
206,92,85465,2,0,P|243:97|267:86,1,60,10|2,1:2|2:0,0:0:0:0:
334,32,85831,6,0,B|351:60|351:60|337:150,1,120,14|8,3:2|1:2,2:0:0:0:
269,203,86380,2,0,B|307:213|307:213|328:235|328:235|391:250,1,120,0|2,3:0|3:2,2:0:0:0:
460,280,86929,2,0,L|446:320,3,30,10|0|2|0,1:2|1:0|1:2|1:0,0:0:0:0:
423,345,87295,6,0,L|301:358,1,120,14|10,3:2|1:2,2:0:0:0:
224,325,87843,1,2,2:0:0:0:
224,325,88026,1,8,3:2:0:0:
139,355,88209,2,0,P|135:311|179:245,1,120,2|2,3:2|2:0,2:0:0:0:
230,178,88758,6,0,B|251:158|251:158|145:157,1,120,10|10,3:2|1:2,2:0:0:0:
118,76,89307,2,0,L|238:76,1,120,2|0,3:2|3:0,2:0:0:0:
323,107,89856,1,10,1:2:0:0:
456,227,90221,6,0,B|435:200|435:200|396:189,1,60,10|0,3:2|2:0,2:0:0:0:
330,236,90587,2,0,B|317:267|317:267|327:306,1,60,10|0,1:2|2:0,0:0:0:0:
400,340,90953,2,0,B|433:335|433:335|462:307,2,60,10|0|10,1:2|3:0|1:2,0:0:0:0:
220,322,91685,5,14,1:2:0:0:
136,355,91868,1,0,1:0:0:0:
152,266,92051,1,8,1:2:0:0:
67,296,92234,2,0,P|63:253|82:210,1,90,6|0,3:2|2:0,2:0:0:0:
112,179,92599,1,2,3:0:0:0:
202,177,92782,2,2,L|243:177,4,30,10|2|2|2|2,3:2|3:2|3:2|3:2|3:2,3:2:0:0:
59,66,93514,5,6,3:2:0:0:
140,28,93697,2,0,P|172:23|207:37,1,60
265,90,94063,1,10,2:3:0:0:
295,5,94246,1,8,2:3:0:0:
380,35,94429,1,6,2:0:0:0:
380,35,95709,5,6,1:2:0:0:
261,170,96075,2,0,P|310:230|321:123,2,240,6|6|6,3:2|3:2|3:2,2:0:0:0:
258,88,97721,1,8,2:3:0:0:
258,88,97813,1,8,2:3:0:0:
258,88,97904,1,8,2:3:0:0:
182,137,98087,2,0,P|177:187|212:268,1,120,4|2,2:0|3:2,0:0:0:0:
265,313,98636,1,2,1:2:0:0:
359,343,98819,1,2,1:2:0:0:
359,343,98910,1,0,1:0:0:0:
359,343,99002,6,0,L|433:339,1,60,14|0,3:2|0:0,2:0:0:0:
483,276,99368,1,10,1:2:0:0:
421,209,99551,2,0,P|409:177|415:142,1,60,2|8,3:2|1:2,2:0:0:0:
437,65,99916,2,0,B|398:63|398:63|363:78|363:78|315:75,1,120,2|2,3:2|3:2,2:0:0:0:
240,32,100465,6,0,B|269:63|269:63|265:146,1,120,10|10,1:2|1:2,2:0:0:0:
257,230,101014,1,2,3:2:0:0:
189,289,101197,2,0,L|127:288,1,60,0|0,0:0|3:0,0:0:0:0:
113,198,101563,2,0,L|175:197,1,60,10|0,1:2|0:0,2:0:0:0:
257,230,101929,6,0,P|277:272|256:348,1,120,14|10,3:2|1:2,2:0:0:0:
81,348,102660,1,10,1:2:0:0:
49,263,102843,1,0,3:0:0:0:
113,198,103026,2,0,P|123:165|112:132,1,60,10|0,1:2|0:0,0:0:0:0:
56,74,103392,5,14,1:2:0:0:
126,17,103575,1,0,1:0:0:0:
196,72,103758,1,8,1:2:0:0:
265,15,103941,2,0,B|306:14|306:14|339:29|339:29|386:29,1,120,6|0,1:2|1:0,0:0:0:0:
472,34,104490,2,0,L|472:71,3,30,8|0|0|0,1:2|1:0|1:0|1:0,0:0:0:0:
470,109,104856,5,14,1:2:0:0:
400,165,105038,1,2,2:0:0:0:
475,214,105221,2,0,L|475:275,1,60,2|2,1:2|3:2,0:0:0:0:
478,364,105587,1,2,1:2:0:0:
324,269,105953,5,2,1:2:0:0:
270,341,106136,1,2,1:2:0:0:
223,264,106319,2,0,P|188:256|150:267,1,60,2|2,1:2|3:2,0:0:0:0:
77,283,106685,1,2,1:2:0:0:
129,109,107051,6,0,P|154:126|167:157,2,60,2|2|2,1:2|3:2|1:2,0:0:0:0:
52,61,107599,1,2,3:2:0:0:
126,10,107782,6,0,L|195:10,1,60,6|2,3:2|2:0,0:0:0:0:
269,45,108148,1,2,1:2:0:0:
293,131,108331,1,2,2:0:0:0:
357,67,108514,1,2,3:2:0:0:
381,153,108697,1,2,3:2:0:0:
458,200,108880,2,0,P|471:226|471:256,1,60,2|2,1:2|1:2,0:0:0:0:
393,302,109246,6,0,L|325:302,2,60,6|0|2,3:2|0:0|1:2,2:0:0:0:
473,342,109795,1,6,3:2:0:0:
295,369,110160,1,0,3:0:0:0:
256,287,110343,2,0,P|260:271|274:253,3,30,0|0|0|0,1:0|1:0|1:0|1:0,0:0:0:0:
301,230,110709,5,6,3:2:0:0:
389,216,110892,1,2,2:0:0:0:
449,149,111075,2,0,B|459:122|459:122|447:88,1,60,2|2,1:2|2:0,0:0:0:0:
390,23,111441,1,2,3:2:0:0:
215,68,111807,5,2,1:2:0:0:
135,25,111990,1,2,1:2:0:0:
70,88,112173,2,0,L|69:151,1,60,2|2,3:2|3:2,0:0:0:0:
107,229,112538,1,2,1:2:0:0:
264,142,112904,5,6,3:2:0:0:
351,299,113270,1,6,3:2:0:0:
508,212,113636,1,6,3:2:0:0:
256,192,113727,12,0,116197,0:0:0:0:
306,140,116563,6,0,P|257:143|198:89,1,120,4|0,3:2|0:0,2:0:0:0:
122,59,117112,2,0,L|123:187,1,120,4|0,3:2|0:0,2:0:0:0:
125,268,117660,1,4,3:2:0:0:
256,192,117752,12,0,120953,2:0:0:0:
