osu file format v14

[General]
AudioFilename: audio.mp3
AudioLeadIn: 0
PreviewTime: -1
Countdown: 1
SampleSet: Normal
StackLeniency: 0.7
Mode: 0
LetterboxInBreaks: 0
WidescreenStoryboard: 0

[Editor]
DistanceSpacing: 1
BeatDivisor: 4
GridSize: 4
TimelineZoom: 1

[Metadata]
Title:FRANTIC ARCADE
TitleUnicode:FRANTIC ARCADE
Artist:PrimeMIX
ArtistUnicode:PrimeMIX
Creator:Enon
Version:dksslqj's Another
Source:BMS
Tags:o2jam circlink Nakagawa-kanon Morinaga Dailycare GimBab Taeyang
BeatmapID:1282228
BeatmapSetID:607000

[Difficulty]
HPDrainRate:8
CircleSize:4.5
OverallDifficulty:8
ApproachRate:9
SliderMultiplier:1.9
SliderTickRate:1

[Events]
//Background and Video events
0,0,"BG.jpg",0,0
//Break Periods
2,32865,42732
//Storyboard Layer 0 (Background)
//Storyboard Layer 1 (Fail)
//Storyboard Layer 2 (Pass)
//Storyboard Layer 3 (Foreground)
//Storyboard Layer 4 (Overlay)
//Storyboard Sound Samples

[TimingPoints]
666,333.333333333333,4,1,1,80,1,0
20665,-200,4,1,0,80,0,0
21415,-100,4,1,1,80,0,0
43249,-133.333333333333,4,2,0,80,0,0
48665,-100,4,2,0,80,0,0
51332,-100,4,1,0,80,0,0
55332,-200,4,1,0,80,0,0
56665,-100,4,1,1,80,0,1
77999,-100,4,1,0,80,0,0
78082,-133.333333333333,4,2,0,80,0,0
88332,-100,4,2,1,80,0,0
96582,-100,4,1,0,80,0,0
97999,-83.3333333333333,4,1,0,80,0,0
98999,-66.6666666666667,4,1,0,80,0,0
100665,-100,4,1,1,80,0,1
121999,-83.3333333333333,4,1,1,80,0,1
142999,-66.6666666666667,4,1,1,80,0,1
143332,-100,4,1,0,80,0,0

[Colours]
Combo1 : 255,225,136
Combo2 : 255,128,192
Combo3 : 24,242,248
Combo4 : 180,106,240

[HitObjects]
40,120,666,5,0,0:0:0:0:
168,208,832,2,0,B|120:216|120:216|72:200,1,95
224,136,1165,1,0,0:0:0:0:
88,48,1331,2,0,B|136:40|136:40|184:56,1,95
232,360,1665,2,0,L|248:192,1,142.5,0|0,0:0|2:0,0:0:0:0:
304,160,1999,6,0,P|304:112|272:72,1,95
245,218,2332,2,0,P|286:242|337:234,1,95
216,136,2665,2,0,P|174:160|155:207,1,95
384,168,2999,1,0,0:0:0:0:
384,168,3082,2,0,P|392:112|352:32,1,142.5
304,112,3499,5,0,0:0:0:0:
296,208,3665,2,0,L|304:304,1,95
408,352,3999,2,0,L|400:256,1,95
208,264,4332,2,0,L|216:360,1,95
200,176,4665,5,0,0:0:0:0:
120,272,4832,1,0,2:0:0:0:
120,272,4915,1,0,0:0:0:0:
56,160,5082,1,0,2:0:0:0:
56,160,5165,1,0,0:0:0:0:
144,56,5332,5,0,0:0:0:0:
224,296,5499,1,0,0:0:0:0:
0,248,5665,1,8,0:0:0:0:
488,128,5999,6,0,B|496:176|496:176|480:224,1,95
304,160,6332,2,0,B|296:112|296:112|312:64,1,95
480,152,6665,2,0,L|456:256,1,95
312,136,6998,2,0,L|336:32,1,95
376,216,7332,5,0,0:0:0:0:
216,320,7499,2,0,P|272:344|392:288,1,190
200,232,7999,1,0,0:0:0:0:
288,264,8165,1,0,0:0:0:0:
376,216,8332,1,0,0:0:0:0:
192,136,8499,6,0,P|272:89|360:120,1,190
288,264,8999,2,0,P|288:216|272:144,1,95
112,88,9332,2,0,P|112:136|96:208,1,95
192,240,9665,1,0,0:0:0:0:
192,240,9832,1,0,0:0:0:0:
32,256,9999,6,0,P|80:264|120:304,1,95,0|0,0:0|2:0,0:0:0:0:
184,320,10249,2,0,P|232:312|272:272,1,95,0|0,0:0|2:0,0:0:0:0:
336,256,10499,2,0,P|376:264|392:272,1,47.5,0|0,0:0|2:0,0:0:0:0:
480,200,10665,2,0,P|453:230|438:240,1,47.5,0|0,0:0|2:0,0:0:0:0:
456,352,10832,2,0,P|442:313|441:295,1,47.5,0|0,0:0|2:0,0:0:0:0:
392,184,10999,5,12,0:2:0:0:
43,51,11332,6,0,P|50:101|57:168,1,95
216,27,11665,2,0,P|166:34|99:41,1,95
214,232,11999,1,0,0:0:0:0:
229,214,12082,1,0,0:0:0:0:
245,197,12165,2,0,P|238:147|231:80,2,95
500,54,12665,6,0,P|493:104|486:171,1,95
327,30,12998,2,0,P|377:37|444:44,1,95
342,192,13332,1,0,0:0:0:0:
327,174,13415,1,0,0:0:0:0:
311,157,13498,2,0,P|318:107|322:71,1,47.5
389,130,13665,1,10,0:0:0:0:
8,128,13999,6,0,L|112:144,1,95
8,216,14332,2,0,L|112:232,1,95
8,304,14665,1,0,0:0:0:0:
8,304,14832,2,0,L|205:329,1,190
208,315,15249,1,0,0:0:0:0:
217,300,15332,6,0,P|272:305|309:333,1,95
464,304,15665,2,0,P|409:299|372:271,1,95
320,120,15999,1,0,0:0:0:0:
312,128,16082,1,0,0:0:0:0:
304,136,16165,2,0,B|312:184|312:184|299:228,2,95,0|12|0,0:0|0:2|2:0,0:0:0:0:
48,136,16665,6,0,B|40:88|40:88|56:32,1,95
216,104,16999,2,0,L|96:96,1,95
128,272,17332,2,0,B|136:224|136:224|120:168,1,95
40,232,17665,1,0,0:0:0:0:
40,232,17832,1,0,0:0:0:0:
80,352,17999,6,0,P|128:360|176:368,1,95
312,312,18332,2,0,P|264:304|216:296,1,95
384,360,18665,1,0,0:0:0:0:
384,360,18749,1,0,0:0:0:0:
384,360,18832,1,0,0:0:0:0:
208,280,18999,5,8,0:0:0:0:
488,80,19332,6,0,L|480:200,1,95
392,40,19665,2,0,L|384:160,1,95
296,72,19999,2,0,L|288:192,1,95
200,32,20332,2,0,L|192:152,1,95
128,264,20665,6,0,B|152:168|80:176|112:80,1,190,0|2,1:0|2:0,2:0:0:0:
112,344,21499,1,0,0:0:0:0:
112,344,21665,1,8,0:0:0:0:
464,128,21999,6,0,P|448:240|440:256,1,95
384,88,22332,1,0,0:0:0:0:
376,240,22499,1,0,0:0:0:0:
304,112,22665,2,0,P|294:158|295:205,1,95
456,304,22999,2,0,P|368:336|288:288,1,190
208,240,23499,5,0,0:0:0:0:
208,240,23665,2,0,L|88:232,1,95
24,272,23999,1,0,0:0:0:0:
24,272,24082,1,0,0:0:0:0:
24,272,24165,1,0,0:0:0:0:
32,176,24332,5,8,0:0:0:0:
256,64,24665,6,0,B|208:56|208:56|160:80,1,95
312,128,24999,2,0,B|270:148|270:148|222:140,1,95
344,48,25332,1,0,0:0:0:0:
344,48,25499,1,0,0:0:0:0:
360,288,25665,6,0,B|368:216|368:216|400:176|400:176|408:104,2,190
377,303,26415,1,0,0:0:0:0:
394,318,26499,1,0,0:0:0:0:
498,247,26665,2,0,L|434:253,2,47.5
324,137,26999,5,12,0:2:0:0:
32,328,27332,5,0,0:0:0:0:
120,352,27499,1,0,0:0:0:0:
168,272,27665,1,0,0:0:0:0:
112,200,27832,1,0,0:0:0:0:
24,240,27999,2,0,L|16:176,2,47.5
112,200,28332,2,0,L|120:88,1,95
208,72,28665,5,0,0:0:0:0:
296,48,28832,1,0,0:0:0:0:
344,128,28998,1,0,0:0:0:0:
288,200,29165,1,0,0:0:0:0:
200,160,29332,2,0,L|192:224,2,47.5
296,48,29665,5,8,0:0:0:0:
496,240,29999,5,0,0:0:0:0:
448,320,30165,1,0,0:0:0:0:
360,360,30332,1,0,0:0:0:0:
264,344,30499,1,0,0:0:0:0:
200,272,30665,1,0,0:0:0:0:
112,248,30832,1,0,0:0:0:0:
112,248,30915,1,0,0:0:0:0:
112,248,30999,1,0,0:0:0:0:
32,304,31165,1,0,0:0:0:0:
40,168,31332,5,0,0:0:0:0:
72,148,31415,1,0,0:0:0:0:
110,143,31499,1,0,0:0:0:0:
147,150,31582,1,0,0:0:0:0:
177,172,31665,6,0,L|225:176,1,47.5
350,117,31832,2,0,L|302:113,1,47.5
377,100,31999,5,0,0:0:0:0:
412,88,32082,1,0,0:0:0:0:
448,98,32165,1,0,0:0:0:0:
476,123,32249,1,0,0:0:0:0:
489,158,32332,1,0,0:0:0:0:
483,195,32415,1,0,0:0:0:0:
459,225,32499,1,0,0:0:0:0:
422,234,32582,1,0,0:0:0:0:
385,224,32665,5,4,0:2:0:0:
24,192,43332,6,0,P|72:208|104:216,1,71.2500027179719,4|2,1:0|0:0,0:0:0:0:
144,344,43665,2,0,P|96:328|64:320,1,71.2500027179719,0|2,0:0|0:0,0:0:0:0:
184,208,43999,1,0,0:0:0:0:
184,240,44082,1,0,0:0:0:0:
168,264,44165,1,2,0:0:0:0:
128,136,44332,2,0,P|128:96|120:56,1,71.2500027179719,0|2,0:0|0:0,0:0:0:0:
224,320,44665,6,0,P|264:320|304:312,1,71.2500027179719,0|2,0:0|0:0,0:0:0:0:
448,344,44999,2,0,P|408:344|368:352,1,71.2500027179719,0|2,0:0|0:0,0:0:0:0:
276,237,45332,1,0,0:0:0:0:
304,235,45415,1,0,0:0:0:0:
331,241,45499,1,2,0:0:0:0:
356,253,45582,1,0,0:0:0:0:
376,272,45665,2,0,P|379:227|391:194,1,71.2500027179719,0|2,0:0|0:0,0:0:0:0:
488,72,45999,5,0,0:0:0:0:
416,120,46165,1,2,0:0:0:0:
328,136,46332,1,0,0:0:0:0:
240,128,46499,1,2,0:0:0:0:
168,80,46665,1,0,0:0:0:0:
141,69,46749,1,0,0:0:0:0:
112,66,46832,1,2,0:0:0:0:
83,69,46915,1,0,0:0:0:0:
56,80,46999,2,0,P|43:116|22:158,1,71.2500027179719,0|2,0:0|0:0,0:0:0:0:
130,235,47332,6,0,P|126:197|116:143,1,71.2500027179719,0|2,0:0|0:0,0:0:0:0:
76,303,47665,1,0,0:0:0:0:
201,285,47832,1,2,0:0:0:0:
72,314,47999,2,0,P|55:320|37:323,1,35.625001358986
210,276,48249,2,0,P|227:270|245:267,1,35.625001358986
282,275,48415,2,0,P|295:286|307:300,2,35.625001358986,0|2|0,0:0|0:0|0:0,0:0:0:0:
270,204,48665,5,4,1:0:0:0:
270,204,48749,2,0,P|261:153|285:108,1,95
299,95,48999,2,0,L|400:88,1,95,0|0,1:0|0:0,0:0:0:0:
463,224,49332,1,0,1:0:0:0:
479,189,49415,1,0,0:0:0:0:
461,154,49499,1,0,0:0:0:0:
410,286,49665,2,0,L|412:338,1,47.5,0|0,1:0|0:0,0:0:0:0:
331,264,49832,2,0,L|333:316,1,47.5,0|0,1:0|0:0,0:0:0:0:
258,289,49999,5,0,1:0:0:0:
258,289,50082,2,0,P|210:299|163:286,1,95
114,242,50332,2,0,L|107:142,1,95,0|0,1:0|0:0,0:0:0:0:
179,28,50665,1,0,1:0:0:0:
191,64,50749,1,0,0:0:0:0:
182,100,50832,1,0,0:0:0:0:
0,71,50999,2,0,L|108:64,1,95,0|0,1:0|0:0,0:0:0:0:
281,58,51332,5,0,0:0:0:0:
384,176,51499,1,0,0:0:0:0:
368,24,51665,1,0,0:0:0:0:
288,152,51832,1,0,0:0:0:0:
440,96,51999,2,0,L|504:88,2,47.5,0|0|0,0:0|2:0|0:0,0:0:0:0:
488,264,52332,2,0,L|424:256,2,47.5,0|0|0,0:0|2:0|0:0,0:0:0:0:
256,336,52665,5,0,0:0:0:0:
240,320,52749,2,0,L|184:312,1,47.5
264,248,52915,5,0,0:0:0:0:
280,232,52999,2,0,L|336:224,1,47.5
232,168,53165,5,0,0:0:0:0:
216,152,53249,2,0,L|160:144,1,47.5
296,128,53415,5,0,0:0:0:0:
312,112,53499,2,0,L|368:104,1,47.5
200,72,53665,6,0,L|144:64,1,47.5
320,32,53832,6,0,L|376:24,1,47.5
400,32,53999,5,0,0:0:0:0:
88,104,54249,1,0,0:0:0:0:
368,208,54499,1,0,0:0:0:0:
144,224,54749,1,0,0:0:0:0:
256,352,54999,1,0,0:0:0:0:
256,352,55165,1,0,0:0:0:0:
256,352,55332,2,0,B|200:248|304:240|256:120,1,237.5,0|0,0:0|2:0,0:0:0:0:
256,112,56332,1,12,0:0:0:0:
16,128,56665,6,0,L|120:120,1,95,4|0,0:0|2:0,0:0:0:0:
158,70,56915,2,0,P|178:110|158:174,1,95,0|0,0:0|2:0,0:0:0:0:
104,192,57165,2,0,P|128:216|152:224,1,47.5,0|0,0:0|2:0,0:0:0:0:
216,216,57332,1,0,0:0:0:0:
216,216,57415,2,0,P|184:248|160:304,1,95
136,360,57665,2,0,P|120:312|88:272,1,95
248,288,57999,5,0,0:0:0:0:
48,352,58165,1,0,0:0:0:0:
216,360,58332,1,0,0:0:0:0:
232,368,58415,2,0,P|280:360|320:328,1,95,0|0,0:0|2:0,0:0:0:0:
400,320,58665,1,0,0:0:0:0:
399,302,58748,2,0,P|368:264|320:245,1,95
312,248,58999,1,0,2:0:0:0:
224,208,59165,2,0,P|296:224|392:168,1,190
416,80,59665,5,0,0:0:0:0:
416,80,59749,1,0,0:0:0:0:
328,104,59915,1,0,2:0:0:0:
328,104,59999,2,0,B|272:96|272:96|240:72,1,95,0|0,0:0|2:0,0:0:0:0:
208,136,60249,2,0,B|177:112|177:112|121:104,1,95,0|0,0:0|2:0,0:0:0:0:
96,120,60499,1,0,0:0:0:0:
128,336,60665,6,0,B|160:296|160:296|152:184,1,142.5
144,184,60999,1,0,2:0:0:0:
80,256,61165,1,0,0:0:0:0:
240,240,61332,1,0,0:0:0:0:
263,237,61415,1,8,0:0:0:0:
286,234,61499,2,0,P|329:241|398:250,2,95,0|8|0,0:0|0:0|0:0,0:0:0:0:
430,308,61999,6,0,B|473:273|448:211,1,95,0|0,0:0|2:0,0:0:0:0:
477,154,62249,2,0,B|425:134|383:186,1,95
381,204,62499,1,0,0:0:0:0:
228,112,62665,1,0,0:0:0:0:
247,127,62749,2,0,B|298:146|340:94,1,95
276,58,62999,2,0,P|251:42|223:35,1,47.5,0|0,0:0|2:0,0:0:0:0:
168,68,63165,2,0,P|143:84|115:91,1,47.5,0|0,0:0|2:0,0:0:0:0:
61,58,63332,1,0,0:0:0:0:
68,239,63499,6,0,B|83:199|83:199|75:136,1,95
60,141,63749,1,0,0:0:0:0:
1,307,63915,1,0,2:0:0:0:
28,325,63999,1,0,0:0:0:0:
60,332,64082,2,0,L|162:327,1,95
219,293,64332,2,0,P|272:301|318:344,2,95
464,264,64832,6,0,P|414:270|329:218,1,142.5
317,211,65165,2,0,L|219:205,1,95,0|0,2:0|0:0,0:0:0:0:
208,112,65499,1,0,0:0:0:0:
208,112,65582,1,0,0:0:0:0:
144,176,65749,1,0,0:0:0:0:
136,200,65832,2,0,L|144:248,1,47.5,0|0,0:0|2:0,0:0:0:0:
167,259,65999,6,0,B|163:358|163:357,1,95
9,216,66332,2,0,B|13:117|13:118,1,95
250,40,66665,2,0,L|246:95,1,47.5,0|8,0:0|0:0,0:0:0:0:
277,154,66832,2,0,L|273:212,1,47.5
236,267,66999,2,0,L|232:325,2,47.5,8|0|0,0:0|0:0|0:0,0:0:0:0:
320,88,67332,6,0,B|368:88|368:88|416:112,1,95,4|0,0:0|2:0,0:0:0:0:
468,73,67582,2,0,P|478:129|449:169,1,95,0|0,0:0|2:0,0:0:0:0:
495,222,67832,2,0,P|441:227|401:200,1,95,0|0,0:0|2:0,0:0:0:0:
352,154,68082,1,0,0:0:0:0:
324,159,68165,1,0,2:0:0:0:
295,164,68249,1,0,0:0:0:0:
267,169,68332,2,0,L|264:232,1,47.5,0|0,0:0|2:0,0:0:0:0:
334,283,68499,2,0,L|337:220,1,47.5,0|0,0:0|2:0,0:0:0:0:
314,351,68665,6,0,P|286:308|233:289,1,95
181,318,68915,1,0,2:0:0:0:
181,318,68999,2,0,L|96:315,1,47.5
9,266,69165,2,0,L|94:269,1,47.5,0|0,2:0|0:0,0:0:0:0:
183,236,69332,2,0,L|98:233,2,47.5,0|0|0,0:0|0:0|2:0,0:0:0:0:
70,191,69582,2,0,B|54:149|54:149|71:94,1,95,0|0,0:0|2:0,0:0:0:0:
114,46,69832,2,0,L|174:51,1,47.5,0|0,0:0|2:0,0:0:0:0:
183,65,69999,1,0,0:0:0:0:
480,96,70165,6,0,L|360:112,1,95
326,75,70415,2,0,P|318:123|342:163,1,95
287,205,70665,2,0,P|341:179|422:208,1,142.5
435,222,70999,2,0,L|430:328,1,95,0|0,2:0|0:0,0:0:0:0:
210,179,71332,6,0,L|215:73,1,95,0|0,0:0|2:0,0:0:0:0:
205,46,71582,1,0,0:0:0:0:
175,21,71665,1,0,0:2:0:0:
105,253,71832,2,0,L|100:147,1,95
110,120,72082,1,8,0:0:0:0:
140,95,72165,1,0,0:0:0:0:
240,256,72332,2,0,L|238:330,1,47.5,8|0,0:0|0:0,0:0:0:0:
168,296,72499,2,0,L|166:370,1,47.5
96,320,72665,5,0,0:0:0:0:
296,352,72832,1,0,2:0:0:0:
312,360,72915,2,0,L|416:352,1,95,0|0,0:0|2:0,0:0:0:0:
424,360,73165,2,0,P|416:304|432:264,1,95,0|0,0:0|2:0,0:0:0:0:
456,248,73415,2,0,L|464:192,1,47.5,0|0,0:0|2:0,0:0:0:0:
392,208,73582,2,0,L|400:152,1,47.5
352,272,73832,1,0,0:0:0:0:
472,128,73999,5,0,0:0:0:0:
392,80,74165,1,0,0:0:0:0:
320,144,74332,1,0,0:0:0:0:
304,152,74415,2,0,L|240:144,1,47.5,0|0,0:0|2:0,0:0:0:0:
112,176,74665,1,0,0:0:0:0:
128,168,74748,2,0,L|192:176,1,47.5,0|0,0:0|2:0,0:0:0:0:
144,240,74915,2,0,L|208:248,1,47.5
88,96,75165,1,0,0:0:0:0:
40,352,75332,5,0,0:0:0:0:
128,328,75499,1,0,0:0:0:0:
224,336,75665,1,0,0:0:0:0:
224,336,75749,1,0,0:0:0:0:
224,336,75832,1,0,0:0:0:0:
320,360,75999,1,0,0:0:0:0:
416,352,76165,1,0,0:0:0:0:
416,352,76249,1,0,0:0:0:0:
416,352,76332,1,0,0:0:0:0:
480,280,76499,1,0,0:0:0:0:
472,72,76665,5,0,0:0:0:0:
444,98,76749,1,0,0:0:0:0:
408,111,76832,1,0,0:0:0:0:
370,112,76915,1,0,0:0:0:0:
334,97,76999,1,0,0:0:0:0:
312,65,77082,1,0,0:0:0:0:
277,49,77165,1,0,0:0:0:0:
238,49,77249,1,0,0:0:0:0:
204,66,77332,6,0,P|191:93|179:124,1,47.5,0|8,0:0|0:0,0:0:0:0:
287,164,77499,2,0,P|270:139|249:113,1,47.5
159,188,77665,2,0,P|188:185|221:180,1,47.5,8|0,0:0|0:0,0:0:0:0:
320,241,77832,2,0,P|290:243|257:248,1,47.5
250,265,77999,5,0,0:0:0:0:
299,316,78165,1,0,0:0:0:0:
368,333,78332,1,2,0:0:0:0:
438,322,78499,1,0,0:0:0:0:
492,276,78665,1,8,0:0:0:0:
450,141,78832,6,0,P|448:187|445:229,2,71.2500027179719
385,110,79332,2,0,P|387:64|390:22,2,71.2500027179719,0|2|0,0:0|0:0|0:0,0:0:0:0:
323,145,79832,1,0,0:0:0:0:
317,73,79999,1,2,0:0:0:0:
257,112,80165,1,2,0:0:0:0:
257,112,80249,1,0,0:0:0:0:
257,112,80332,1,2,0:0:0:0:
264,265,80665,5,0,0:0:0:0:
213,316,80832,1,0,0:0:0:0:
144,333,80999,1,2,0:0:0:0:
74,322,81166,1,0,0:0:0:0:
20,276,81332,1,8,0:0:0:0:
62,141,81499,6,0,P|64:187|67:229,2,71.2500027179719
127,110,81999,2,0,P|125:64|122:22,2,71.2500027179719,0|2|0,0:0|0:0|0:0,0:0:0:0:
193,138,82499,1,0,0:0:0:0:
259,110,82666,1,2,0:0:0:0:
319,147,82832,2,0,P|338:146|359:143,1,35.625001358986
380,139,82999,2,0,P|418:141|463:147,1,71.2500027179719,2|0,0:0|0:0,0:0:0:0:
494,335,83332,5,0,0:0:0:0:
447,281,83499,1,0,0:0:0:0:
376,271,83665,1,2,0:0:0:0:
309,297,83832,1,0,0:0:0:0:
251,339,83999,1,8,0:0:0:0:
180,345,84165,1,0,0:0:0:0:
114,317,84332,1,0,0:0:0:0:
74,257,84499,1,0,0:0:0:0:
82,185,84665,6,0,P|79:132|77:99,1,71.2500027179719,0|2,0:0|0:0,0:0:0:0:
180,30,84999,2,0,P|183:83|185:116,1,71.2500027179719
192,270,85332,2,0,P|190:229|192:189,1,71.2500027179719,2|2,0:0|0:0,0:0:0:0:
209,187,85582,1,0,0:0:0:0:
227,177,85665,1,2,0:0:0:0:
258,240,85832,1,0,0:0:0:0:
282,126,85999,5,0,0:0:0:0:
351,141,86165,1,0,0:0:0:0:
421,130,86332,1,2,0:0:0:0:
476,84,86499,1,0,0:0:0:0:
500,190,86665,2,0,P|500:231|490:273,1,71.2500027179719,8|0,0:0|0:0,0:0:0:0:
349,304,86999,2,0,P|341:271|336:226,1,71.2500027179719
438,331,87332,5,0,1:0:0:0:
256,192,88332,5,4,0:0:0:0:
48,48,88665,6,0,L|56:160,1,95,0|0,1:0|0:0,0:0:0:0:
64,240,88999,1,8,0:1:0:0:
144,184,89165,1,0,0:0:0:0:
144,184,89249,1,0,0:0:0:0:
144,184,89332,1,0,0:0:0:0:
80,336,89499,2,0,P|136:328|184:320,1,95,0|8,1:0|0:1,0:0:0:0:
264,344,89832,1,0,0:0:0:0:
424,272,89999,6,0,P|368:280|320:288,1,95,0|0,1:0|0:0,0:0:0:0:
240,248,90332,1,8,0:1:0:0:
320,192,90499,1,0,0:0:0:0:
320,192,90582,1,0,0:0:0:0:
320,192,90665,1,2,0:1:0:0:
512,168,90832,2,0,P|456:176|408:184,1,95,0|8,1:0|0:1,0:0:0:0:
224,136,91165,1,8,0:1:0:0:
464,88,91332,6,0,P|408:96|360:104,1,95,0|0,1:0|0:0,0:0:0:0:
280,64,91665,1,8,0:1:0:0:
224,136,91832,1,0,0:0:0:0:
224,136,91915,1,0,0:0:0:0:
224,136,91999,1,0,0:0:0:0:
48,96,92165,2,0,B|96:104|96:104|152:80,2,95,0|8|0,1:0|0:1|0:0,0:0:0:0:
208,224,92665,6,0,B|160:216|160:216|104:240,1,95,0|0,1:0|0:0,0:0:0:0:
48,200,92915,1,0,0:0:0:0:
40,224,92999,2,0,L|48:288,1,47.5,8|0,0:1|0:0,0:0:0:0:
112,312,93165,2,0,L|120:376,1,47.5
136,360,93332,1,0,0:0:0:0:
280,312,93499,2,0,B|232:320|232:320|176:296,1,95,0|8,1:0|0:1,0:0:0:0:
352,352,93832,1,8,0:1:0:0:
352,176,93999,6,0,L|344:288,2,95,0|0|8,1:0|0:0|0:1,0:0:0:0:
440,328,94499,1,0,0:0:0:0:
456,320,94582,1,0,0:0:0:0:
472,312,94665,2,0,L|478:217,1,95,0|0,0:0|1:0,0:0:0:0:
440,48,94999,2,0,L|433:142,1,95,8|0,0:1|0:0,0:0:0:0:
264,232,95332,5,0,1:0:0:0:
168,144,95499,1,0,0:0:0:0:
176,240,95665,1,8,0:1:0:0:
256,136,95832,1,0,0:0:0:0:
272,128,95915,1,0,0:0:0:0:
288,120,95999,2,0,P|304:80|280:24,1,95,2|0,0:1|1:0,0:0:0:0:
104,104,96332,2,0,P|88:144|112:200,1,95,8|0,0:1|0:0,0:0:0:0:
256,344,96665,5,0,1:0:0:0:
256,344,96832,1,0,2:0:0:0:
373,266,96999,2,0,L|328:280,1,47.5
184,280,97165,2,0,L|138:266,1,47.5
256,240,97332,5,0,0:0:0:0:
256,240,97499,1,0,2:0:0:0:
389,178,97666,2,0,L|344:192,1,47.5
168,192,97832,2,0,L|112:176,1,47.5
56,64,97999,6,0,L|0:88,2,56.9999982604981
176,96,98249,2,0,L|184:32,2,56.9999982604981
336,96,98499,2,0,L|328:32,2,56.9999982604981
456,64,98749,2,0,L|512:88,2,56.9999982604981
424,192,98999,6,0,P|400:224|376:248,1,71.2500027179719
133,246,99165,2,0,P|109:220|88:192,1,71.2500027179719
256,264,99332,5,4,0:0:0:0:
256,240,99665,1,0,2:0:0:0:
256,216,99999,1,0,2:0:0:0:
256,192,100332,5,12,0:0:0:0:
44,72,100665,6,0,B|52:136|52:136|84:184,1,95,4|0,0:0|2:0,0:0:0:0:
124,112,100915,2,0,B|140:137|140:137|148:201,1,95,0|0,0:0|2:0,0:0:0:0:
120,224,101165,1,0,0:0:0:0:
112,344,101332,2,0,L|100:284,1,47.5
216,136,101582,2,0,L|228:196,1,47.5
152,32,101832,1,0,0:0:0:0:
200,276,101999,5,0,0:0:0:0:
368,332,102165,2,0,L|256:328,1,95,0|0,0:0|2:0,0:0:0:0:
252,340,102415,1,0,0:0:0:0:
388,316,102582,1,0,2:0:0:0:
408,300,102665,2,0,L|404:240,1,47.5
480,132,102915,2,0,L|484:192,1,47.5,0|0,0:0|2:0,0:0:0:0:
372,52,103165,1,0,0:0:0:0:
304,252,103332,6,0,B|312:220|312:220|296:152,1,95
120,48,103665,1,0,0:0:0:0:
56,88,103749,2,0,B|48:120|48:120|64:188,1,95,0|0,0:0|2:0,0:0:0:0:
88,248,103999,2,0,L|84:356,1,95,0|0,0:0|2:0,0:0:0:0:
104,360,104249,1,0,0:0:0:0:
144,184,104415,1,0,0:0:0:0:
160,204,104499,1,0,0:0:0:0:
448,76,104665,6,0,P|404:72|344:60,1,95,0|0,0:0|2:0,0:0:0:0:
332,72,104915,1,0,0:0:0:0:
276,32,104999,2,0,P|264:80|296:132,1,95
444,240,105332,1,0,0:0:0:0:
456,208,105415,1,8,0:0:0:0:
448,176,105499,1,0,0:0:0:0:
256,224,105665,2,0,P|300:220|360:208,1,95,8|0,0:0|0:0,0:0:0:0:
488,352,105999,6,0,P|444:348|384:336,1,95,0|0,0:0|2:0,0:0:0:0:
376,316,106249,1,0,0:0:0:0:
196,180,106415,1,0,2:0:0:0:
180,164,106499,2,0,P|120:168|80:176,1,95,0|0,0:0|2:0,0:0:0:0:
80,288,106749,2,0,P|100:244|103:232,1,47.5,0|0,0:0|2:0,0:0:0:0:
4,188,106915,2,0,P|31:227|40:235,1,47.5,0|0,0:0|1:0,0:0:0:0:
176,256,107165,1,0,0:0:0:0:
36,112,107332,5,0,0:0:0:0:
208,64,107499,2,0,B|176:80|176:80|112:80,1,95,0|0,0:0|2:0,0:0:0:0:
88,56,107749,1,0,0:0:0:0:
256,128,107915,1,0,2:0:0:0:
272,104,107999,2,0,L|320:104,1,47.5
512,184,108249,2,0,L|464:184,1,47.5
256,128,108499,1,0,0:0:0:0:
300,336,108665,6,0,B|316:288|316:288|296:236,1,95
112,352,108998,1,0,0:0:0:0:
124,364,109082,2,0,L|236:360,1,95,0|0,0:0|2:0,0:0:0:0:
232,288,109332,2,0,B|216:240|216:240|236:188,1,95,0|0,0:0|2:0,0:0:0:0:
308,168,109582,2,0,P|248:176|180:104,1,142.5
64,192,109999,6,0,B|116:188|116:188|156:216,1,95
96,96,110332,2,0,B|44:100|44:100|4:72,1,95
164,40,110665,1,0,0:0:0:0:
192,36,110749,1,8,0:0:0:0:
220,32,110832,1,0,0:0:0:0:
248,28,110915,1,0,0:0:0:0:
336,60,111082,1,8,0:0:0:0:
364,56,111165,1,0,0:0:0:0:
488,268,111332,6,0,P|488:220|456:184,1,95,4|0,0:0|2:0,0:0:0:0:
436,108,111582,2,0,P|394:132|379:177,1,95,0|0,0:0|2:0,0:0:0:0:
324,232,111832,2,0,P|365:256|412:246,1,95,0|0,0:0|2:0,0:0:0:0:
456,184,112082,2,0,P|480:212|484:240,1,47.5,0|0,0:0|2:0,0:0:0:0:
496,332,112249,2,0,P|472:304|468:276,1,47.5
308,152,112499,1,0,0:0:0:0:
204,336,112665,6,0,L|84:332,1,95
64,136,112999,1,0,2:0:0:0:
84,120,113082,2,0,B|96:152|96:152|88:232,1,95,0|0,0:0|2:0,0:0:0:0:
40,272,113332,1,0,0:0:0:0:
20,288,113415,2,0,B|8:256|8:256|16:176,1,95
64,136,113665,2,0,L|176:132,1,95
324,172,113999,6,0,L|212:176,1,95
380,112,114332,1,0,0:0:0:0:
380,112,114415,2,0,P|404:160|368:248,1,142.5
284,260,114832,1,0,0:0:0:0:
260,256,114915,1,0,0:0:0:0:
252,100,115082,1,0,0:0:0:0:
276,96,115165,1,0,0:0:0:0:
496,184,115332,6,0,L|488:344,1,142.5
476,340,115665,2,0,B|452:352|452:352|372:340,1,95,0|0,2:0|0:0,0:0:0:0:
184,336,115999,1,0,0:0:0:0:
192,312,116082,1,8,0:0:0:0:
180,292,116165,2,0,B|204:280|204:280|284:292,1,95,0|8,0:0|0:0,0:0:0:0:
104,316,116499,1,0,0:0:0:0:
28,160,116665,6,0,B|32:200|32:200|40:216|40:216|44:264,1,95,0|0,0:0|2:0,0:0:0:0:
32,272,116915,1,0,0:0:0:0:
112,172,117082,1,0,2:0:0:0:
112,172,117165,1,0,0:0:0:0:
72,52,117332,2,0,P|72:72|80:104,1,47.5
196,188,117582,2,0,P|196:168|188:136,1,47.5
120,256,117832,1,0,0:0:0:0:
152,72,117999,6,0,P|208:64|252:92,1,95
304,152,118332,1,0,0:0:0:0:
304,152,118415,2,0,L|428:144,1,95,0|0,0:0|2:0,0:0:0:0:
468,140,118665,1,0,0:0:0:0:
480,148,118749,2,0,P|484:192|460:248,1,95
400,248,118999,2,0,P|448:272|476:332,1,95
304,232,119332,5,0,0:0:0:0:
208,244,119499,1,0,0:0:0:0:
148,316,119665,1,0,0:0:0:0:
99,320,119749,1,0,0:0:0:0:
52,304,119832,1,0,0:0:0:0:
4,220,119999,1,0,0:0:0:0:
28,128,120165,1,0,0:0:0:0:
69,104,120249,1,0,0:0:0:0:
120,100,120332,1,0,0:0:0:0:
204,140,120499,1,0,0:0:0:0:
320,48,120665,5,0,0:0:0:0:
368,48,120749,1,0,0:0:0:0:
412,60,120832,1,0,0:0:0:0:
448,88,120915,1,0,0:0:0:0:
476,128,120999,6,0,P|480:156|476:196,1,47.5
344,208,121165,6,0,P|340:180|344:140,1,47.5
432,288,121332,5,0,0:0:0:0:
392,312,121415,1,0,0:0:0:0:
344,320,121499,1,0,0:0:0:0:
296,312,121582,1,0,0:0:0:0:
256,284,121665,1,0,0:0:0:0:
208,272,121749,1,0,0:0:0:0:
160,280,121832,1,0,0:0:0:0:
120,308,121915,1,0,0:0:0:0:
96,348,121999,6,0,B|108:280|56:240,2,113.999996520996,4|0|8,0:0|0:0|0:0,0:0:0:0:
152,96,122499,2,0,B|160:152|160:152|136:216,1,113.999996520996
0,144,122832,2,0,B|-8:88|-8:88|16:24,1,113.999996520996,0|8,0:0|0:0,0:0:0:0:
228,96,123165,5,0,0:0:0:0:
76,104,123332,1,0,0:0:0:0:
252,180,123499,5,0,0:0:0:0:
100,188,123666,1,8,0:0:0:0:
228,260,123832,5,0,0:0:0:0:
76,268,123999,1,0,0:0:0:0:
115,271,124082,1,0,0:0:0:0:
151,286,124165,1,0,0:0:0:0:
176,316,124249,1,0,0:0:0:0:
193,351,124332,2,0,L|325:347,1,113.999996520996,8|0,0:0|0:0,0:0:0:0:
496,232,124665,6,0,P|404:232|348:288,1,170.999994781494,0|0,0:0|2:0,0:0:0:0:
384,352,124999,1,8,0:0:0:0:
272,276,125165,2,0,P|276:204|252:152,1,113.999996520996
392,48,125499,5,0,0:0:0:0:
224,96,125665,1,8,0:0:0:0:
396,140,125832,2,0,L|516:132,1,113.999996520996
261,165,126165,5,0,0:0:0:0:
96,216,126331,1,8,0:0:0:0:
264,256,126498,2,0,L|384:248,1,113.999996520996
176,284,126832,5,0,0:0:0:0:
112,128,126999,1,8,0:0:0:0:
4,252,127165,1,0,0:0:0:0:
4,252,127249,1,0,0:0:0:0:
4,252,127332,6,0,L|8:372,1,113.999996520996
16,156,127665,1,8,0:0:0:0:
188,64,127832,1,0,0:0:0:0:
188,64,127915,2,0,P|100:36|24:80,1,170.999994781494
216,144,128332,2,0,L|340:136,1,113.999996520996,8|0,0:0|0:0,0:0:0:0:
184,224,128665,5,0,0:0:0:0:
372,208,128832,1,0,0:0:0:0:
228,300,128999,2,0,L|352:292,2,113.999996520996,8|0|0,0:0|0:0|0:0,0:0:0:0:
420,332,129499,2,0,P|428:300|420:264,1,56.9999982604981,0|0,0:0|2:0,0:0:0:0:
320,192,129665,2,0,P|343:214|378:226,1,56.9999982604981,8|0,0:0|2:0,0:0:0:0:
488,180,129832,2,0,P|456:189|429:213,1,56.9999982604981,0|0,0:0|2:0,0:0:0:0:
388,144,129999,5,0,0:0:0:0:
500,256,130165,1,0,0:0:0:0:
340,296,130332,1,8,0:0:0:0:
388,144,130499,6,0,P|384:88|376:24,1,113.999996520996
124,144,130832,2,0,P|128:87|135:30,1,113.999996520996,0|8,0:0|0:0,0:0:0:0:
412,232,131165,2,0,P|456:208|512:172,1,113.999996520996
100,232,131499,2,0,P|56:208|0:172,2,113.999996520996,0|8|0,0:0|0:0|0:0,0:0:0:0:
308,352,131999,5,0,0:0:0:0:
256,332,132082,1,8,0:0:0:0:
204,352,132165,1,0,0:0:0:0:
324,272,132332,6,0,L|332:216,1,56.9999982604981,8|0,0:0|0:0,0:0:0:0:
180,216,132499,2,0,L|188:272,1,56.9999982604981
324,272,132665,6,0,L|460:268,2,113.999996520996,4|0|8,0:0|0:0|0:0,0:0:0:0:
472,120,133165,2,0,P|364:76|268:132,1,227.999993041992
372,180,133665,1,8,0:0:0:0:
168,72,133832,6,0,L|48:68,1,113.999996520996
179,169,134165,2,0,L|59:165,1,113.999996520996,0|8,0:0|0:0,0:0:0:0:
198,258,134499,1,0,0:0:0:0:
30,258,134665,1,0,0:0:0:0:
70,258,134749,1,0,0:0:0:0:
106,273,134832,1,0,0:0:0:0:
131,303,134915,1,0,0:0:0:0:
148,339,134999,6,0,L|210:336,1,56.9999982604981,8|0,0:0|0:0,0:0:0:0:
263,244,135165,6,0,L|201:247,1,56.9999982604981
303,328,135332,6,0,B|383:354|377:295|470:322,1,170.999994781494,0|0,0:0|2:0,0:0:0:0:
492,350,135665,2,0,P|483:280|509:229,2,113.999996520996,8|0|0,0:0|0:0|0:0,0:0:0:0:
503,160,136165,5,0,0:0:0:0:
353,250,136332,1,8,0:0:0:0:
503,160,136499,2,0,L|510:39,1,113.999996520996
400,156,136832,5,0,0:0:0:0:
250,246,136999,1,8,0:0:0:0:
400,156,137166,2,0,L|408:67,1,56.9999982604981
426,80,137332,2,0,P|365:90|316:63,1,113.999996520996
204,180,137665,2,0,P|265:170|314:197,1,113.999996520996,8|0,0:0|0:0,0:0:0:0:
351,253,137915,1,0,0:0:0:0:
351,253,137999,6,0,B|341:375|341:374,1,113.999996520996
443,315,138332,1,8,0:0:0:0:
255,299,138499,2,0,B|199:306|199:283|137:295,1,113.999996520996
0,153,138832,2,0,B|56:146|56:169|118:157,1,113.999996520996,0|8,0:0|0:0,0:0:0:0:
80,343,139165,2,0,P|60:286|93:232,1,113.999996520996
178,105,139499,2,0,P|198:162|165:216,1,113.999996520996,0|8,0:0|0:0,0:0:0:0:
87,60,139832,5,0,0:0:0:0:
82,240,139999,1,0,0:0:0:0:
272,67,140165,1,0,0:0:0:0:
267,249,140332,1,8,0:0:0:0:
87,60,140499,5,0,0:0:0:0:
75,104,140582,1,0,0:0:0:0:
92,146,140665,6,0,L|188:142,1,56.9999982604981
263,60,140832,6,0,L|167:64,1,56.9999982604981
228,176,140999,6,0,L|324:172,1,56.9999982604981,8|0,0:0|0:0,0:0:0:0:
399,90,141166,6,0,L|303:94,1,56.9999982604981
481,118,141332,6,0,L|478:58,1,56.9999982604981
378,177,141499,6,0,L|381:237,1,56.9999982604981
487,311,141665,6,0,L|484:251,1,56.9999982604981,8|0,0:0|0:0,0:0:0:0:
394,351,141832,5,0,0:0:0:0:
54,324,141999,5,8,0:0:0:0:
104,297,142082,1,8,0:0:0:0:
160,296,142165,1,8,0:0:0:0:
209,324,142249,1,8,0:0:0:0:
264,337,142332,1,8,0:0:0:0:
313,308,142415,1,8,0:0:0:0:
329,252,142499,1,8,0:0:0:0:
314,197,142582,1,8,0:0:0:0:
267,165,142665,5,8,0:0:0:0:
210,172,142749,1,8,0:0:0:0:
165,207,142832,1,8,0:0:0:0:
108,209,142915,1,8,0:0:0:0:
58,177,142999,6,8,L|50:91,1,71.2500027179719
129,25,143165,2,8,L|137:111,1,71.2500027179719
48,27,143332,5,4,0:0:0:0:
