osu file format v14

[General]
AudioFilename: audio.mp3
AudioLeadIn: 0
PreviewTime: -1
Countdown: 1
SampleSet: Normal
StackLeniency: 0.7
Mode: 0
LetterboxInBreaks: 0
WidescreenStoryboard: 1

[Editor]
DistanceSpacing: 1
BeatDivisor: 4
GridSize: 4
TimelineZoom: 1

[Metadata]
Title:FRANTIC ARCADE
TitleUnicode:FRANTIC ARCADE
Artist:PrimeMIX
ArtistUnicode:PrimeMIX
Creator:Enon
Version:Dailycare's Another
Source:BMS
Tags:o2jam circlink Nakagawa-kanon Morinaga Dailycare GimBab Taeyang
BeatmapID:1282415
BeatmapSetID:607000

[Difficulty]
HPDrainRate:6
CircleSize:3.7
OverallDifficulty:7.5
ApproachRate:9
SliderMultiplier:1.68
SliderTickRate:1

[Events]
//Background and Video events
0,0,"BG.jpg",0,0
//Break Periods
2,32865,42732
//Storyboard Layer 0 (Background)
//Storyboard Layer 1 (Fail)
//Storyboard Layer 2 (Pass)
//Storyboard Layer 3 (Foreground)
//Storyboard Layer 4 (Overlay)
//Storyboard Sound Samples

[TimingPoints]
666,333.333333333333,4,1,1,80,1,0
8499,-80,4,1,1,80,0,0
8999,-100,4,1,1,80,0,0
20665,-200,4,1,0,80,0,0
21415,-100,4,1,1,80,0,0
29665,-133.333333333333,4,1,1,80,0,0
29999,-100,4,1,1,80,0,0
43249,-133.333333333333,4,2,0,80,0,0
48665,-100,4,2,0,80,0,0
51332,-100,4,1,0,80,0,0
55332,-200,4,1,0,80,0,0
56665,-100,4,1,1,80,0,1
77999,-100,4,1,0,80,0,0
78082,-133.333333333333,4,2,0,80,0,0
88332,-100,4,2,1,80,0,0
96582,-100,4,1,0,80,0,0
97999,-83.3333333333333,4,1,0,80,0,0
98999,-66.6666666666667,4,1,0,80,0,0
100665,-88.4955752212389,4,1,1,80,0,1
121999,-83.3333333333333,4,1,1,80,0,1
143332,-100,4,1,0,80,0,0

[Colours]
Combo1 : 255,225,136
Combo2 : 255,128,192
Combo3 : 24,242,248
Combo4 : 180,106,240

[HitObjects]
436,254,666,5,0,0:0:0:0:
499,197,832,2,0,P|516:170|510:114,1,84
419,172,1165,2,0,B|310:150|358:211|225:187,1,168
256,192,1665,1,0,0:0:0:0:
76,130,1999,5,0,0:0:0:0:
13,187,2165,2,0,P|-4:214|2:270,1,84
93,212,2498,2,0,B|201:233|153:172|286:196,1,168
256,192,2998,1,0,0:0:0:0:
256,192,3082,1,0,0:0:0:0:
436,254,3332,5,0,0:0:0:0:
499,197,3498,2,0,P|516:170|510:114,1,84
419,172,3832,1,0,0:0:0:0:
358,226,3999,2,0,P|338:200|283:187,1,84
216,218,4331,1,0,0:0:0:0:
226,137,4499,1,0,0:0:0:0:
282,270,4665,6,0,L|130:265,2,126
358,226,5332,1,0,0:0:0:0:
296,358,5499,1,0,0:0:0:0:
278,185,5665,2,0,L|273:138,3,42
286,133,5999,5,0,0:0:0:0:
264,54,6165,2,0,P|229:36|173:50,1,84
138,108,6499,1,0,0:0:0:0:
147,189,6665,5,0,0:0:0:0:
186,41,6832,1,0,0:0:0:0:
139,109,6999,1,0,0:0:0:0:
64,133,7165,1,0,0:0:0:0:
221,166,7332,5,0,0:0:0:0:
147,189,7499,1,0,0:0:0:0:
73,212,7665,2,0,L|-17:211,1,84
139,109,7999,5,0,0:0:0:0:
221,166,8165,1,0,0:0:0:0:
226,65,8332,1,0,0:0:0:0:
147,189,8499,6,0,P|170:154|316:187,1,210
312,179,8999,1,0,0:0:0:0:
294,253,9165,1,0,0:0:0:0:
353,309,9332,5,0,0:0:0:0:
312,179,9499,1,0,0:0:0:0:
220,274,9665,1,0,0:0:0:0:
220,274,9999,6,0,L|372:269,2,126
144,230,10666,1,0,0:0:0:0:
206,362,10833,1,0,0:0:0:0:
235,189,10999,1,0,0:0:0:0:
235,189,11332,5,0,0:0:0:0:
318,202,11499,1,0,0:0:0:0:
258,99,11665,5,0,0:0:0:0:
341,112,11832,1,0,0:0:0:0:
281,9,11998,5,0,0:0:0:0:
364,22,12165,1,0,0:0:0:0:
364,22,12332,1,0,0:0:0:0:
364,22,12665,5,0,0:0:0:0:
447,35,12832,1,0,0:0:0:0:
341,112,12999,5,0,0:0:0:0:
424,125,13166,1,0,0:0:0:0:
318,202,13332,6,0,L|267:194,2,42
401,215,13665,1,0,0:0:0:0:
401,215,13999,5,0,0:0:0:0:
484,228,14166,1,0,0:0:0:0:
424,125,14332,5,0,0:0:0:0:
393,46,14499,1,0,0:0:0:0:
334,150,14665,5,0,0:0:0:0:
281,216,14832,2,0,P|232:252|122:222,1,168
127,224,15249,1,0,0:0:0:0:
123,213,15332,5,0,0:0:0:0:
123,213,15665,2,0,P|145:255|134:297,1,84
133,299,16165,6,0,L|69:291,1,42
12,284,16332,1,0,0:0:0:0:
12,284,16665,5,0,0:0:0:0:
63,219,16832,2,0,P|77:178|62:121,1,84
32,63,17165,1,0,0:0:0:0:
103,0,17332,5,0,0:0:0:0:
71,138,17499,1,0,0:0:0:0:
146,178,17665,1,0,0:0:0:0:
229,164,17832,1,0,0:0:0:0:
138,82,17999,5,0,0:0:0:0:
32,63,18165,1,0,0:0:0:0:
71,138,18332,2,0,L|58:193,2,42
103,0,18665,5,0,0:0:0:0:
32,63,18832,1,0,0:0:0:0:
244,98,18999,1,0,0:0:0:0:
244,98,19332,6,0,L|351:88,1,84
414,76,19665,1,0,0:0:0:0:
382,155,19832,1,0,0:0:0:0:
354,15,19999,5,0,0:0:0:0:
497,87,20165,1,0,0:0:0:0:
465,171,20332,1,0,0:0:0:0:
433,255,20499,1,0,0:0:0:0:
414,76,20665,5,0,0:0:0:0:
414,76,21499,2,0,L|483:87,1,42
512,247,21665,1,0,0:0:0:0:
512,247,21999,6,0,L|405:229,1,84
354,280,22332,1,0,0:0:0:0:
429,233,22499,1,0,0:0:0:0:
371,365,22665,5,0,0:0:0:0:
354,280,22832,1,0,0:0:0:0:
296,217,22999,2,0,P|259:204|213:219,1,84
0,247,23332,6,0,L|107:229,1,84
158,280,23665,1,0,0:0:0:0:
83,233,23832,1,0,0:0:0:0:
141,365,23999,5,0,0:0:0:0:
158,280,24166,1,0,0:0:0:0:
59,146,24332,1,0,0:0:0:0:
59,146,24665,6,0,L|166:128,1,84
217,179,24998,1,0,0:0:0:0:
142,132,25165,1,0,0:0:0:0:
201,264,25332,5,0,0:0:0:0:
217,179,25499,1,0,0:0:0:0:
256,104,25665,2,0,L|256:16,1,84
453,146,25999,6,0,L|346:128,1,84
295,179,26332,1,0,0:0:0:0:
370,132,26499,1,0,0:0:0:0:
311,264,26749,5,0,0:0:0:0:
311,264,26833,1,0,0:0:0:0:
256,104,26999,2,0,L|256:16,1,84
370,132,27332,6,0,P|387:181|369:224,1,84
228,286,27665,1,0,0:0:0:0:
378,210,27832,1,0,0:0:0:0:
305,348,27999,5,0,0:0:0:0:
228,286,28165,1,0,0:0:0:0:
135,312,28332,2,0,P|93:322|42:305,1,84
142,132,28665,6,0,P|125:181|143:224,1,84
284,286,28998,1,0,0:0:0:0:
134,210,29165,1,0,0:0:0:0:
207,348,29332,5,0,0:0:0:0:
284,286,29498,1,0,0:0:0:0:
377,312,29665,2,0,P|419:322|460:306,1,63.0000024032594
299,201,29999,6,0,L|179:201,1,84
48,200,30332,1,0,0:0:0:0:
215,201,30499,1,0,0:0:0:0:
112,275,30665,5,0,0:0:0:0:
112,128,30832,2,0,L|112:80,2,42
112,275,31165,2,0,L|112:323,2,42
176,200,31499,5,0,0:0:0:0:
176,200,31665,2,0,L|232:200,1,42
299,201,31832,1,0,0:0:0:0:
376,200,31999,2,0,L|432:200,7,42
440,200,32665,5,0,0:0:0:0:
0,317,43332,6,0,P|39:301|61:303,1,63.0000024032594
55,310,43582,2,0,P|97:308|117:317,1,63.0000024032594
109,322,43832,2,0,P|149:334|164:350,1,63.0000024032594
164,360,44082,1,0,0:0:0:0:
88,201,44332,5,0,0:0:0:0:
11,231,44499,1,0,0:0:0:0:
170,192,44665,6,0,P|212:190|232:199,1,63.0000024032594
224,204,44915,2,0,P|264:216|279:232,1,63.0000024032594
270,233,45165,2,0,P|303:258|312:278,1,63.0000024032594
309,288,45415,1,0,0:0:0:0:
292,113,45665,5,0,0:0:0:0:
209,114,45832,1,0,0:0:0:0:
371,131,45999,6,0,P|411:143|426:159,1,63.0000024032594
418,161,46249,2,0,P|451:186|460:206,1,63.0000024032594
451,204,46499,2,0,P|473:239|475:261,1,63.0000024032594
469,269,46749,1,0,0:0:0:0:
512,98,46999,5,0,0:0:0:0:
434,71,47166,1,0,0:0:0:0:
364,112,47332,2,0,L|357:9,2,94.500003604889
512,98,48082,1,0,0:0:0:0:
364,112,48332,5,0,0:0:0:0:
512,98,48499,1,0,0:0:0:0:
256,0,48665,6,0,P|187:-3|126:46,1,126
130,46,48999,2,0,L|25:39,1,84
193,110,49332,1,0,0:0:0:0:
203,109,49415,1,0,0:0:0:0:
213,108,49499,1,0,0:0:0:0:
130,46,49665,5,0,0:0:0:0:
192,192,49832,1,0,0:0:0:0:
294,84,49999,6,0,P|363:81|424:130,1,126
420,130,50333,2,0,L|525:123,1,84
357,194,50666,1,0,0:0:0:0:
347,193,50749,1,0,0:0:0:0:
337,192,50833,1,0,0:0:0:0:
420,130,50999,5,0,0:0:0:0:
358,276,51166,1,0,0:0:0:0:
192,192,51332,5,0,0:0:0:0:
220,114,51499,1,0,0:0:0:0:
292,149,51665,1,0,0:0:0:0:
262,226,51832,1,0,0:0:0:0:
140,127,51999,5,0,0:0:0:0:
284,68,52165,1,0,0:0:0:0:
341,213,52332,1,0,0:0:0:0:
197,272,52498,1,0,0:0:0:0:
398,89,52665,6,0,P|433:96|425:145,1,84
496,185,52915,2,0,P|463:199|441:155,1,84
360,164,53165,2,0,P|377:132|421:155,1,84
482,101,53415,2,0,P|486:136|437:143,1,84
420,223,53665,2,0,P|395:196|431:161,1,84
297,228,53999,6,0,P|262:235|270:284,1,84
199,324,54249,2,0,P|231:338|253:294,1,84
335,303,54499,2,0,P|317:271|273:294,1,84
213,240,54749,2,0,P|208:275|257:282,1,84
275,362,54999,2,0,P|299:335|263:300,1,84
98,245,55332,5,0,0:0:0:0:
98,245,56165,5,0,0:0:0:0:
414,139,56332,1,0,0:0:0:0:
414,139,56665,5,0,0:0:0:0:
307,104,56832,1,0,0:0:0:0:
312,91,56915,2,0,P|333:81|363:86,1,42
248,164,57082,1,0,0:0:0:0:
237,156,57165,2,0,P|219:113|230:69,1,84
151,16,57415,1,0,0:0:0:0:
154,25,57499,1,0,0:0:0:0:
154,36,57582,1,0,0:0:0:0:
151,46,57665,2,0,L|51:41,1,84
178,220,57999,5,0,0:0:0:0:
226,76,58165,1,0,0:0:0:0:
57,123,58332,1,0,0:0:0:0:
49,134,58415,2,0,L|62:244,1,84
128,348,58665,1,0,0:0:0:0:
121,358,58749,2,0,L|53:353,1,42
139,265,58915,2,0,B|208:253|182:294|260:283,1,126
367,186,59332,5,0,0:0:0:0:
306,365,59499,1,0,0:0:0:0:
260,282,59665,1,0,0:0:0:0:
258,267,59749,1,0,0:0:0:0:
257,253,59832,1,0,0:0:0:0:
362,179,59999,2,0,L|485:191,1,84
500,245,60249,1,0,0:0:0:0:
479,320,60332,2,0,P|430:337|390:321,1,84
277,167,60665,6,0,L|270:58,1,84
284,75,60915,1,0,0:0:0:0:
295,68,60999,1,0,0:0:0:0:
362,179,61165,1,0,0:0:0:0:
186,121,61332,2,0,L|121:115,1,42
63,136,61499,1,0,0:0:0:0:
141,205,61665,5,0,0:0:0:0:
111,37,61832,1,0,0:0:0:0:
267,126,61999,6,0,L|257:229,1,84
253,223,62249,2,0,L|324:217,1,42
141,205,62499,2,0,B|100:197|100:197|45:240,1,84
0,272,62749,1,0,0:0:0:0:
3,283,62832,1,0,0:0:0:0:
6,294,62915,1,0,0:0:0:0:
9,305,62999,2,0,L|117:300,1,84
5,174,63332,5,0,0:0:0:0:
49,383,63499,1,0,0:0:0:0:
169,277,63665,1,0,0:0:0:0:
179,269,63749,2,0,P|224:269|267:303,1,84
378,244,63999,1,0,0:0:0:0:
389,238,64082,2,0,L|383:171,1,42
337,323,64249,1,0,0:0:0:0:
349,334,64332,2,0,P|393:341|440:306,1,84
445,125,64665,5,0,0:0:0:0:
297,209,64832,1,0,0:0:0:0:
252,124,64999,1,0,0:0:0:0:
253,109,65082,1,0,0:0:0:0:
254,94,65165,1,0,0:0:0:0:
385,196,65332,2,0,L|392:302,1,84
329,332,65582,1,0,0:0:0:0:
254,308,65665,2,0,P|211:304|161:328,1,84
254,94,65999,5,0,0:0:0:0:
226,176,66165,1,0,0:0:0:0:
306,159,66332,2,0,P|350:169|386:185,1,84
172,113,66665,5,0,0:0:0:0:
282,238,66832,2,0,L|293:284,1,42
331,81,67082,2,0,L|368:44,1,42
246,139,67332,5,0,0:0:0:0:
282,238,67499,1,0,0:0:0:0:
297,234,67582,2,0,P|309:190|306:182,1,42
162,143,67749,1,0,0:0:0:0:
149,139,67832,2,0,L|51:146,1,84
138,311,68082,1,0,0:0:0:0:
141,299,68165,1,0,0:0:0:0:
140,286,68249,1,0,0:0:0:0:
133,275,68332,2,0,L|225:282,1,84
252,124,68665,5,0,0:0:0:0:
56,229,68832,1,0,0:0:0:0:
224,291,68999,1,0,0:0:0:0:
235,285,69082,2,0,B|251:245|251:245|230:193,1,84
176,86,69332,1,0,0:0:0:0:
167,75,69415,2,0,L|163:123,1,42
245,211,69582,2,0,B|323:193|294:239|389:212,1,126
419,77,69999,5,0,0:0:0:0:
256,115,70165,1,0,0:0:0:0:
338,139,70332,1,0,0:0:0:0:
340,125,70415,1,0,0:0:0:0:
342,111,70499,1,0,0:0:0:0:
223,39,70665,2,0,P|184:23|130:32,1,84
85,82,70915,1,0,0:0:0:0:
7,82,70999,2,0,L|1:-6,1,84
148,135,71332,6,0,L|142:218,1,84
131,223,71582,1,0,0:0:0:0:
119,226,71665,1,0,0:0:0:0:
85,82,71832,1,0,0:0:0:0:
223,179,71999,2,0,L|280:174,1,42
342,148,72165,1,0,0:0:0:0:
279,256,72332,5,0,0:0:0:0:
286,82,72499,1,0,0:0:0:0:
413,190,72665,6,0,L|517:182,1,84
509,174,72915,2,0,L|507:221,1,42
436,359,73165,2,0,L|449:244,1,84
351,275,73415,1,0,0:0:0:0:
344,285,73499,1,0,0:0:0:0:
337,294,73582,1,0,0:0:0:0:
329,304,73665,2,0,L|342:189,1,84
463,104,73999,5,0,0:0:0:0:
264,175,74165,1,0,0:0:0:0:
316,44,74332,1,0,0:0:0:0:
326,54,74415,2,0,P|342:90|330:138,1,84
184,161,74665,1,0,0:0:0:0:
176,147,74749,2,0,L|184:90,1,42
264,175,74915,1,0,0:0:0:0:
273,189,74999,2,0,L|261:276,1,84
120,343,75332,5,0,0:0:0:0:
95,176,75499,1,0,0:0:0:0:
135,257,75665,1,0,0:0:0:0:
123,258,75749,1,0,0:0:0:0:
111,259,75832,1,0,0:0:0:0:
39,107,75999,2,0,P|85:91|136:98,1,84
184,137,76249,1,0,0:0:0:0:
263,130,76332,2,0,L|270:33,1,84
132,200,76665,6,0,L|135:241,3,42
143,236,76999,2,0,L|146:277,3,42
154,272,77332,2,0,L|157:313,3,42
165,308,77665,2,0,L|168:349,3,42
180,347,77999,5,0,0:0:0:0:
256,192,78499,1,0,0:0:0:0:
180,347,78665,2,0,P|204:315|180:233,1,126.000004806519
103,210,79165,1,0,0:0:0:0:
24,245,79332,6,0,L|31:314,1,63.0000024032594
103,210,79665,2,0,L|96:147,1,63.0000024032594
96,147,79999,1,0,0:0:0:0:
184,236,80165,1,0,0:0:0:0:
184,249,80249,1,0,0:0:0:0:
184,262,80332,1,0,0:0:0:0:
256,192,80499,1,0,0:0:0:0:
332,347,80665,5,0,0:0:0:0:
256,192,81165,1,0,0:0:0:0:
332,347,81331,2,0,P|308:315|332:233,1,126.000004806519
409,210,81831,1,0,0:0:0:0:
488,245,81998,6,0,L|481:314,1,63.0000024032594
409,210,82331,2,0,L|415:147,1,63.0000024032594
416,147,82831,1,0,0:0:0:0:
353,83,82998,1,0,0:0:0:0:
435,58,83165,1,0,0:0:0:0:
334,164,83332,6,0,L|196:145,1,126.000004806519
142,95,83832,1,0,0:0:0:0:
186,20,83999,1,0,0:0:0:0:
209,146,84165,5,0,0:0:0:0:
92,202,84332,2,0,L|10:190,1,63.0000024032594
79,85,84665,6,0,L|161:97,1,63.0000024032594
209,146,84999,2,0,L|291:158,1,63.0000024032594
271,155,85332,1,0,0:0:0:0:
363,147,85499,1,0,0:0:0:0:
363,134,85583,1,0,0:0:0:0:
363,121,85666,1,0,0:0:0:0:
291,67,85832,1,0,0:0:0:0:
271,253,85999,6,0,L|281:390,1,126.000004806519
351,339,86499,1,0,0:0:0:0:
418,382,86665,1,0,0:0:0:0:
280,378,86832,5,0,0:0:0:0:
142,374,86999,2,0,L|58:370,1,63.0000024032594
79,371,87332,5,0,0:0:0:0:
433,13,88332,5,0,0:0:0:0:
433,13,88665,6,0,L|423:105,1,84
337,215,88999,2,0,L|346:131,1,84
340,118,89499,5,0,0:0:0:0:
340,118,89665,2,0,L|330:201,1,84
397,351,89999,6,0,L|406:267,1,84
247,204,90332,2,0,L|237:287,1,84
313,368,90665,2,0,L|333:179,1,168
175,169,91165,1,0,0:0:0:0:
79,371,91332,6,0,L|89:279,1,84
175,169,91666,2,0,L|165:252,1,84
226,312,91999,5,0,0:0:0:0:
175,169,92166,1,0,0:0:0:0:
88,287,92332,2,0,L|-9:316,1,84
226,312,92665,6,0,P|274:298|321:318,1,84
314,318,92915,1,0,0:0:0:0:
317,332,92999,2,0,P|300:370|244:392,1,84
207,212,93332,5,0,0:0:0:0:
290,228,93499,2,0,L|293:183,1,42
373,244,93665,1,0,0:0:0:0:
456,260,93832,1,0,0:0:0:0:
496,110,93999,6,0,L|405:94,1,84
267,13,94332,2,0,L|349:27,1,84
376,176,94665,5,0,0:0:0:0:
443,9,94832,1,0,0:0:0:0:
307,102,94999,2,0,L|224:87,1,84
76,128,95332,6,0,P|64:75|77:38,1,84
224,87,95665,2,0,P|236:140|223:177,1,84
150,85,95999,2,0,P|240:65|327:118,1,168
306,96,96665,5,0,0:0:0:0:
213,209,96999,2,0,L|170:215,1,42
167,228,97165,2,0,L|124:234,1,42
112,223,97332,5,0,0:0:0:0:
205,336,97666,2,0,L|248:342,1,42
251,355,97832,2,0,L|294:361,1,42
306,350,97999,5,0,0:0:0:0:
122,93,98249,5,0,0:0:0:0:
421,193,98499,5,0,0:0:0:0:
121,288,98749,5,0,0:0:0:0:
308,34,98999,5,0,0:0:0:0:
256,192,99165,5,0,0:0:0:0:
256,192,99999,6,0,P|289:188|348:209,1,63.0000024032594
392,231,100165,2,0,P|414:255|430:316,1,63.0000024032594
326,335,100332,6,0,P|311:305|312:242,1,63.0000024032594
318,193,100498,2,0,P|334:163|385:128,1,63.0000024032594
437,123,100665,5,0,0:0:0:0:
284,97,100832,1,0,0:0:0:0:
271,105,100915,2,0,P|262:82|267:56,1,47.4600001448364
408,34,101082,1,0,0:0:0:0:
419,48,101165,2,0,P|426:98|398:152,1,94.9200002896729
346,203,101415,1,0,0:0:0:0:
336,202,101499,1,0,0:0:0:0:
326,201,101582,1,0,0:0:0:0:
316,200,101665,2,0,L|187:183,1,94.9200002896729
291,46,101999,5,0,0:0:0:0:
409,138,102165,1,0,0:0:0:0:
213,176,102332,1,0,0:0:0:0:
202,166,102415,2,0,B|189:117|189:117|215:77,1,94.9200002896729
274,235,102665,1,0,0:0:0:0:
271,249,102749,2,0,L|262:305,1,47.4600001448364
146,232,102915,2,0,L|120:381,1,142.380000434509
4,311,103332,5,0,0:0:0:0:
146,232,103499,1,0,0:0:0:0:
101,152,103665,1,0,0:0:0:0:
88,149,103749,1,0,0:0:0:0:
75,146,103832,1,0,0:0:0:0:
93,308,103999,2,0,P|140:297|198:299,1,94.9200002896729
259,328,104249,1,0,0:0:0:0:
334,346,104332,2,0,L|449:338,1,94.9200002896729
493,158,104665,6,0,L|378:150,1,94.9200002896729
388,163,104915,1,0,0:0:0:0:
379,176,104999,1,0,0:0:0:0:
507,368,105165,1,0,0:0:0:0:
343,269,105332,2,0,L|402:263,1,47.4600001448364
473,244,105499,1,0,0:0:0:0:
285,192,105665,5,0,0:0:0:0:
360,358,105832,1,0,0:0:0:0:
379,176,105999,6,0,L|369:76,1,94.9200002896729
359,66,106249,2,0,L|434:75,1,47.4600001448364
279,184,106499,2,0,B|234:198|234:198|186:164,1,94.9200002896729
134,116,106749,1,0,0:0:0:0:
136,100,106832,1,0,0:0:0:0:
139,85,106915,1,0,0:0:0:0:
142,69,106999,2,0,L|271:59,1,94.9200002896729
269,192,107332,5,0,0:0:0:0:
302,11,107499,1,0,0:0:0:0:
142,69,107665,1,0,0:0:0:0:
128,77,107749,2,0,P|78:81|37:52,1,94.9200002896729
0,190,107999,1,0,0:0:0:0:
8,202,108082,2,0,P|13:230|8:263,1,47.4600001448364
100,378,108249,1,0,0:0:0:0:
105,362,108332,2,0,L|94:267,1,94.9200002896729
44,131,108665,5,0,0:0:0:0:
9,328,108832,1,0,0:0:0:0:
175,268,108999,1,0,0:0:0:0:
173,251,109082,1,0,0:0:0:0:
172,233,109165,1,0,0:0:0:0:
39,139,109332,2,0,L|45:268,1,94.9200002896729
85,301,109582,1,0,0:0:0:0:
151,347,109665,2,0,P|202:346|243:318,1,94.9200002896729
436,159,109999,5,0,0:0:0:0:
420,237,110165,1,0,0:0:0:0:
360,183,110332,2,0,P|314:174|243:165,1,94.9200002896729
493,211,110665,5,0,0:0:0:0:
377,108,110832,2,0,L|365:61,1,47.4600001448364
345,261,111082,2,0,L|293:325,1,47.4600001448364
403,194,111332,5,0,0:0:0:0:
249,262,111499,1,0,0:0:0:0:
236,275,111582,2,0,P|233:311|257:342,1,47.4600001448364
309,194,111749,1,0,0:0:0:0:
298,181,111832,2,0,L|190:178,1,94.9200002896729
72,123,112082,1,0,0:0:0:0:
77,111,112165,1,0,0:0:0:0:
85,100,112249,1,0,0:0:0:0:
98,93,112332,2,0,L|105:207,1,94.9200002896729
154,337,112665,5,0,0:0:0:0:
198,170,112832,1,0,0:0:0:0:
20,256,112999,1,0,0:0:0:0:
9,271,113082,2,0,L|122:266,1,94.9200002896729
243,321,113332,1,0,0:0:0:0:
252,305,113415,2,0,P|259:270|254:255,1,47.4600001448364
157,154,113582,2,0,B|146:188|146:188|275:181,1,142.380000434509
307,370,113999,5,0,0:0:0:0:
179,280,114165,1,0,0:0:0:0:
264,172,114332,1,0,0:0:0:0:
268,188,114415,1,0,0:0:0:0:
272,204,114499,1,0,0:0:0:0:
217,367,114665,2,0,L|102:358,1,94.9200002896729
51,326,114915,1,0,0:0:0:0:
9,258,114999,2,0,P|6:202|16:144,1,94.9200002896729
186,53,115332,6,0,P|191:100|188:147,1,94.9200002896729
171,153,115582,1,0,0:0:0:0:
155,159,115665,1,0,0:0:0:0:
12,85,115832,1,0,0:0:0:0:
178,42,115999,2,0,L|252:22,1,47.4600001448364
298,3,116165,1,0,0:0:0:0:
188,147,116332,5,0,0:0:0:0:
93,13,116499,1,0,0:0:0:0:
99,216,116665,6,0,P|97:267|89:332,1,94.9200002896729
96,329,116915,2,0,L|45:332,1,47.4600001448364
182,289,117165,2,0,B|229:283|229:283|273:314,1,94.9200002896729
331,369,117415,1,0,0:0:0:0:
346,365,117499,1,0,0:0:0:0:
362,361,117582,1,0,0:0:0:0:
378,356,117665,2,0,P|401:308|387:255,1,94.9200002896729
234,186,117999,5,0,0:0:0:0:
261,384,118165,1,0,0:0:0:0:
314,297,118332,1,0,0:0:0:0:
308,284,118415,2,0,P|267:270|205:281,1,94.9200002896729
62,241,118665,1,0,0:0:0:0:
49,248,118749,2,0,L|55:311,1,47.4600001448364
144,233,118915,1,0,0:0:0:0:
155,218,118999,2,0,B|172:156|137:184|156:84,1,94.9200002896729
216,275,119332,5,0,0:0:0:0:
75,191,119499,1,0,0:0:0:0:
232,135,119665,1,0,0:0:0:0:
250,138,119749,1,0,0:0:0:0:
269,142,119832,1,0,0:0:0:0:
159,198,119999,2,0,L|154:93,1,94.9200002896729
178,26,120249,1,0,0:0:0:0:
255,5,120332,2,0,P|306:4|377:35,1,94.9200002896729
461,171,120665,6,0,L|513:176,3,47.4600001448364
400,222,120999,2,0,L|395:269,3,47.4600001448364
349,161,121332,2,0,L|301:156,3,47.4600001448364
410,110,121665,2,0,L|414:62,3,47.4600001448364
461,171,121999,6,0,P|481:216|461:281,1,100.799996923828
330,327,122332,1,0,0:0:0:0:
330,327,122499,2,0,P|310:282|330:217,1,100.799996923828
461,171,122832,1,0,0:0:0:0:
367,160,122999,1,0,0:0:0:0:
271,150,123165,6,0,L|168:155,1,100.799996923828
349,91,123499,2,0,L|396:0,1,100.799996923828
361,188,123832,2,0,L|416:274,1,100.799996923828
271,150,124165,1,0,0:0:0:0:
271,150,124249,1,0,0:0:0:0:
271,150,124332,1,0,0:0:0:0:
349,91,124499,1,0,0:0:0:0:
198,212,124665,6,0,P|151:230|92:218,1,100.799996923828
18,92,124999,1,0,0:0:0:0:
18,92,125165,2,0,P|65:74|124:86,1,100.799996923828
198,212,125499,1,0,0:0:0:0:
131,277,125665,1,0,0:0:0:0:
60,339,125832,1,0,0:0:0:0:
99,195,125999,5,0,0:0:0:0:
172,363,126165,1,0,0:0:0:0:
172,363,126249,1,0,0:0:0:0:
172,363,126332,1,0,0:0:0:0:
60,339,126499,1,0,0:0:0:0:
198,212,126665,5,0,0:0:0:0:
361,312,126832,1,0,0:0:0:0:
484,172,126999,1,0,0:0:0:0:
484,172,127165,1,0,0:0:0:0:
398,135,127332,6,0,L|408:253,1,100.799996923828
373,376,127665,2,0,P|323:369|273:365,1,100.799996923828
282,347,127915,2,0,L|272:229,1,100.799996923828
264,236,128165,1,0,0:0:0:0:
373,376,128332,1,0,0:0:0:0:
188,367,128499,6,0,L|69:356,1,100.799996923828
180,198,128832,2,0,L|61:187,1,100.799996923828
172,29,129165,2,0,L|53:18,1,100.799996923828
71,19,129499,1,0,0:0:0:0:
165,118,129665,1,0,0:0:0:0:
252,0,129832,1,0,0:0:0:0:
84,103,129999,5,0,0:0:0:0:
84,103,130165,2,0,L|74:204,1,100.799996923828
226,262,130499,2,0,L|236:161,1,100.799996923828
393,105,130832,2,0,L|383:206,1,100.799996923828
208,310,131165,6,0,L|229:86,1,201.599993847656
385,23,131665,1,0,0:0:0:0:
419,117,131832,1,0,0:0:0:0:
321,100,131999,5,0,0:0:0:0:
481,40,132165,1,0,0:0:0:0:
450,213,132332,1,0,0:0:0:0:
450,213,132415,1,0,0:0:0:0:
450,213,132499,1,0,0:0:0:0:
321,100,132665,6,0,L|206:85,1,100.799996923828
54,184,132999,1,0,0:0:0:0:
54,184,133165,2,0,L|169:199,1,100.799996923828
321,100,133499,1,0,0:0:0:0:
375,185,133665,1,0,0:0:0:0:
417,94,133832,6,0,P|469:65|520:47,1,100.799996923828
321,100,134165,2,0,P|269:69|228:34,1,100.799996923828
375,185,134499,2,0,P|374:244|364:297,1,100.799996923828
417,94,134832,1,0,0:0:0:0:
417,94,134915,1,0,0:0:0:0:
417,94,134999,1,0,0:0:0:0:
321,100,135165,1,0,0:0:0:0:
144,21,135332,6,0,P|161:70|147:142,1,100.799996923828
24,198,135665,1,0,0:0:0:0:
24,198,135832,2,0,P|7:149|21:77,1,100.799996923828
144,21,136165,1,0,0:0:0:0:
178,114,136332,1,0,0:0:0:0:
209,206,136499,1,0,0:0:0:0:
253,58,136665,5,0,0:0:0:0:
100,164,136832,1,0,0:0:0:0:
209,206,136999,1,0,0:0:0:0:
144,21,137165,5,0,0:0:0:0:
144,21,137249,1,0,0:0:0:0:
144,21,137332,1,0,0:0:0:0:
100,164,137499,1,0,0:0:0:0:
253,58,137665,2,0,L|233:125,1,50.3999984619141
209,206,137832,1,0,0:0:0:0:
70,78,137999,5,0,0:0:0:0:
70,78,138165,1,0,0:0:0:0:
36,227,138332,2,0,L|7:363,1,100.799996923828
194,119,138665,5,0,0:0:0:0:
194,119,138831,1,0,0:0:0:0:
181,271,138998,2,0,L|171:409,1,100.799996923828
318,119,139332,5,0,0:0:0:0:
318,119,139498,1,0,0:0:0:0:
331,271,139665,2,0,L|340:409,1,100.799996923828
442,78,139999,5,0,0:0:0:0:
442,78,140165,1,0,0:0:0:0:
476,227,140332,2,0,L|505:363,1,100.799996923828
491,336,140582,1,0,0:0:0:0:
484,349,140665,5,0,0:0:0:0:
390,223,140832,1,0,0:0:0:0:
501,149,140999,1,0,0:0:0:0:
405,315,141165,1,0,0:0:0:0:
326,156,141332,5,0,0:0:0:0:
476,257,141499,1,0,0:0:0:0:
323,359,141665,2,0,P|277:355|214:352,1,100.799996923828
174,140,141999,6,0,L|227:136,3,50.3999984619141
122,199,142332,2,0,L|125:252,3,50.3999984619141
63,147,142665,2,0,L|9:150,3,50.3999984619141
115,88,142999,2,0,L|111:34,3,50.3999984619141
174,140,143332,5,0,0:0:0:0:
