osu file format v14

[General]
AudioFilename: audio.mp3
AudioLeadIn: 0
PreviewTime: -1
Countdown: 0
SampleSet: Soft
StackLeniency: 0.5
Mode: 0
LetterboxInBreaks: 0
WidescreenStoryboard: 1

[Editor]
Bookmarks: 145092
DistanceSpacing: 1.4
BeatDivisor: 4
GridSize: 16
TimelineZoom: 1.8

[Metadata]
Title:Kurwagokoro
TitleUnicode:Kurwagokoro
Artist:Primastella
ArtistUnicode:Primastella
Creator:WORSTPOLACKEU
Version:KURWA
Source:
Tags:
BeatmapID:1540118
BeatmapSetID:729656

[Difficulty]
HPDrainRate:5
CircleSize:4
OverallDifficulty:8.5
ApproachRate:9
SliderMultiplier:1.8
SliderTickRate:1

[Events]
//Background and Video events
0,0,"wp1865035.jpg",0,0
//Break Periods
2,129006,135063
//Storyboard Layer 0 (Background)
//Storyboard Layer 1 (Fail)
//Storyboard Layer 2 (Pass)
//Storyboard Layer 3 (Foreground)
//Storyboard Sound Samples

[TimingPoints]
235,428.571428571429,4,2,1,15,1,0
1949,-133.333333333333,4,2,1,50,0,0
15663,-66.6666666666667,4,2,1,70,0,1
31092,-100,4,2,1,60,0,0
41377,-80,4,2,1,60,0,0
43092,-100,4,2,1,60,0,0
44377,-80,4,2,1,60,0,0
44806,-66.6666666666667,4,2,1,70,0,1
72235,-66.6666666666667,4,2,1,70,0,0
73949,-100,4,2,1,60,0,0
84235,-80,4,2,1,60,0,0
87663,-66.6666666666667,4,2,1,70,0,1
114235,-133.333333333333,4,2,1,70,0,0
115092,-100,4,2,1,70,0,0
128806,-100,4,2,1,50,0,0
135663,-133.333333333333,4,2,1,50,0,0
142092,-66.6666666666667,4,2,1,50,0,0
142520,-66.6666666666667,4,2,1,70,0,1
156235,-100,4,2,1,70,0,0

[Colours]
Combo1 : 0,0,251
Combo2 : 97,181,243
Combo3 : 17,32,100
Combo4 : 0,103,153

[HitObjects]
297,226,15663,6,0,B|235:209|180:233|180:233|138:230|107:198,1,202.500007724762,8|0,0:0|0:0,0:0:0:0:
34,186,16092,2,0,P|57:140|108:126,1,67.5000025749207,8|0,0:0|0:0,0:0:0:0:
204,60,16306,1,0,0:0:0:0:
419,160,16520,1,8,0:0:0:0:
426,27,16735,1,0,0:0:0:0:
279,119,16949,1,8,0:0:0:0:
383,231,17163,1,0,0:0:0:0:
88,280,17377,5,8,0:0:0:0:
116,149,17592,1,0,0:0:0:0:
252,358,17806,1,8,0:0:0:0:
239,199,18021,1,0,0:0:0:0:
8,295,18235,2,0,P|34:341|123:353,1,135.000005149841,8|0,0:0|0:0,0:0:0:0:
186,318,18556,1,0,0:0:0:0:
186,318,18663,2,0,L|338:325,1,135.000005149841,8|0,0:0|0:0,0:0:0:0:
409,149,19092,6,0,P|363:82|343:160,1,202.500007724762,8|0,0:0|0:0,0:0:0:0:
288,39,19520,2,0,P|346:7|412:12,1,135.000005149841,8|0,0:0|0:0,0:0:0:0:
394,264,19949,1,8,0:0:0:0:
250,130,20163,1,0,0:0:0:0:
247,304,20377,1,8,0:0:0:0:
409,149,20592,1,0,0:0:0:0:
155,215,20806,5,8,0:0:0:0:
474,83,21020,1,0,0:0:0:0:
373,245,21235,1,8,0:0:0:0:
289,41,21449,1,0,0:0:0:0:
498,185,21663,1,8,0:0:0:0:
384,24,21877,1,0,0:0:0:0:
457,286,22092,1,8,0:0:0:0:
416,321,22199,1,0,0:0:0:0:
364,338,22306,1,0,0:0:0:0:
310,335,22413,1,0,0:0:0:0:
264,305,22520,6,0,B|206:277|129:300|129:300|159:270|204:262,1,202.500007724762,8|0,0:0|0:0,0:0:0:0:
209,179,22949,2,0,P|155:181|113:207,1,67.5000025749207,8|0,0:0|0:0,0:0:0:0:
45,290,23163,1,0,0:0:0:0:
314,173,23377,1,8,0:0:0:0:
364,338,23592,1,0,0:0:0:0:
470,132,23806,1,8,0:0:0:0:
429,266,24020,1,0,0:0:0:0:
388,72,24235,5,8,0:0:0:0:
338,257,24449,1,0,0:0:0:0:
470,132,24663,1,8,0:0:0:0:
291,84,24877,1,0,0:0:0:0:
423,284,25092,2,0,P|397:330|308:342,1,135.000005149841,8|0,0:0|0:0,0:0:0:0:
245,307,25413,1,0,0:0:0:0:
245,307,25520,2,0,L|93:314,1,135.000005149841,8|0,0:0|0:0,0:0:0:0:
35,148,25949,6,0,P|81:81|101:159,1,202.500007724762,8|0,0:0|0:0,0:0:0:0:
156,38,26377,2,0,P|98:6|32:11,1,135.000005149841,8|0,0:0|0:0,0:0:0:0:
55,238,26806,1,8,0:0:0:0:
194,188,27020,1,0,0:0:0:0:
37,322,27235,1,8,0:0:0:0:
35,148,27449,1,0,0:0:0:0:
366,330,27663,5,8,0:0:0:0:
189,86,27877,1,8,0:0:0:0:
474,179,28092,1,8,0:0:0:0:
189,272,28306,1,8,0:0:0:0:
366,28,28520,1,8,0:0:0:0:
261,348,28735,1,8,0:0:0:0:
311,195,28949,1,8,0:0:0:0:
189,272,29163,1,0,0:0:0:0:
366,330,29377,5,8,0:0:0:0:
366,330,29806,1,8,0:0:0:0:
366,330,30235,1,8,0:0:0:0:
311,195,30449,1,8,0:0:0:0:
487,274,30663,6,0,B|522:268|532:258|532:258|497:241|446:230|373:253,1,202.500007724762
366,330,31092,6,0,L|249:333,1,90,8|0,0:0|0:0,0:0:0:0:
104,226,31520,2,0,L|221:229,1,90,8|0,0:0|0:0,0:0:0:0:
84,325,31949,1,8,0:0:0:0:
31,168,32163,1,0,0:0:0:0:
193,348,32377,1,8,0:0:0:0:
9,260,32592,1,0,0:0:0:0:
273,309,32806,6,0,P|284:289|291:268,1,45,8|0,0:0|0:0,0:0:0:0:
300,100,33020,2,0,P|306:121|307:144,1,45
260,287,33235,2,0,P|271:267|278:246,1,45,8|0,0:0|0:0,0:0:0:0:
284,120,33449,2,0,P|290:141|291:164,1,45
434,247,33663,1,8,0:0:0:0:
224,192,33877,1,0,0:0:0:0:
347,220,34092,1,8,0:0:0:0:
134,187,34306,1,0,0:0:0:0:
274,63,34520,6,0,L|381:71,1,90,8|0,0:0|0:0,0:0:0:0:
421,132,34842,1,0,0:0:0:0:
421,132,34949,2,0,P|449:81|436:31,1,90,8|0,0:0|0:0,0:0:0:0:
338,141,35377,1,8,0:0:0:0:
493,174,35592,1,0,0:0:0:0:
390,261,35806,1,8,0:0:0:0:
421,132,36020,1,0,0:0:0:0:
332,342,36235,5,8,0:0:0:0:
237,212,36449,1,0,0:0:0:0:
390,261,36663,1,8,0:0:0:0:
237,311,36877,1,0,0:0:0:0:
332,181,37092,1,8,0:0:0:0:
160,261,37306,1,0,0:0:0:0:
27,44,37520,2,0,P|54:45|94:69,1,45,8|0,0:0|0:0,0:0:0:0:
118,130,37735,2,0,P|145:128|185:104,1,45
235,70,37949,6,0,L|340:61,1,90,8|0,0:0|0:0,0:0:0:0:
427,186,38377,2,0,P|426:141|411:99,1,90,8|0,0:0|0:0,0:0:0:0:
263,356,38806,1,8,0:0:0:0:
105,306,39020,1,0,0:0:0:0:
161,122,39235,1,8,0:0:0:0:
193,291,39449,1,0,0:0:0:0:
202,34,39663,6,0,P|218:60|224:113,1,45,8|0,0:0|0:0,0:0:0:0:
217,216,39877,2,0,P|225:186|217:133,1,45
119,31,40092,2,0,P|103:57|97:110,1,45,8|0,0:0|0:0,0:0:0:0:
104,213,40306,2,0,P|95:183|103:130,1,45
161,122,40520,1,8,0:0:0:0:
32,117,40735,1,0,0:0:0:0:
290,127,40949,1,8,0:0:0:0:
161,122,41164,1,0,0:0:0:0:
352,77,41377,6,0,B|380:128|353:176|353:176|354:213|390:251|390:251,1,168.75,8|0,0:0|0:0,0:0:0:0:
457,193,41806,2,0,P|467:232|435:307,1,112.5
290,127,42235,1,0,0:0:0:0:
291,262,42449,1,0,0:0:0:0:
218,195,42663,1,0,0:0:0:0:
233,331,42877,1,0,0:0:0:0:
64,86,43092,6,0,L|51:148,3,45,10|0|0|0,0:0|0:0|0:0|0:0,0:0:0:0:
134,161,43520,2,0,L|147:223,3,45,10|0|0|0,0:0|0:0|0:0|0:0,0:0:0:0:
94,271,43949,1,10,0:0:0:0:
188,78,44163,1,10,0:0:0:0:
395,227,44377,2,0,P|374:281|361:210,1,168.75
426,347,44806,6,0,P|481:266|455:172,1,202.500007724762,12|0,0:0|0:0,0:0:0:0:
352,130,45235,2,0,P|316:133|283:152,1,67.5000025749207,8|0,0:0|0:0,0:0:0:0:
245,264,45449,1,0,0:0:0:0:
437,72,45663,1,8,0:0:0:0:
343,216,45877,1,0,0:0:0:0:
426,347,46092,1,8,0:0:0:0:
352,130,46306,1,0,0:0:0:0:
186,350,46520,5,8,0:0:0:0:
166,188,46735,1,0,0:0:0:0:
272,320,46949,1,8,0:0:0:0:
94,348,47163,1,0,0:0:0:0:
99,130,47377,2,0,P|153:101|248:151,1,135.000005149841,8|0,0:0|0:0,0:0:0:0:
276,186,47699,1,0,0:0:0:0:
276,186,47806,2,0,L|272:321,1,135.000005149841,8|0,0:0|0:0,0:0:0:0:
420,176,48235,6,0,P|405:96|354:159,1,202.500007724762,8|0,0:0|0:0,0:0:0:0:
362,22,48663,2,0,P|428:22|484:60,1,135.000005149841,8|0,0:0|0:0,0:0:0:0:
370,237,49092,1,8,0:0:0:0:
221,119,49306,1,0,0:0:0:0:
272,320,49520,1,8,0:0:0:0:
420,176,49735,1,0,0:0:0:0:
107,255,49949,5,8,0:0:0:0:
164,63,50163,1,0,0:0:0:0:
148,345,50377,1,8,0:0:0:0:
104,152,50592,1,0,0:0:0:0:
281,201,50806,1,8,0:0:0:0:
62,328,51020,1,0,0:0:0:0:
337,267,51235,1,8,0:0:0:0:
362,223,51342,1,0,0:0:0:0:
361,173,51449,1,0,0:0:0:0:
337,129,51556,1,0,0:0:0:0:
301,93,51663,6,0,B|224:139|151:128|151:128|178:115|219:92,1,202.500007724762,8|0,0:0|0:0,0:0:0:0:
225,23,52092,2,0,P|176:22|136:56,1,67.5000025749207,8|0,0:0|0:0,0:0:0:0:
113,203,52306,1,0,0:0:0:0:
305,17,52520,1,8,0:0:0:0:
368,184,52735,1,0,0:0:0:0:
468,59,52949,1,8,0:0:0:0:
301,93,53163,1,0,0:0:0:0:
355,293,53377,5,8,0:0:0:0:
155,188,53591,1,0,0:0:0:0:
212,335,53805,1,8,0:0:0:0:
280,181,54019,1,0,0:0:0:0:
14,320,54235,2,0,P|6:254|49:204,1,135.000005149841,8|0,0:0|0:0,0:0:0:0:
108,256,54556,1,0,0:0:0:0:
108,256,54663,2,0,B|161:268|161:268|201:253|201:253|245:258,1,135.000005149842,8|0,0:0|0:0,0:0:0:0:
489,155,55092,6,0,P|408:148|456:213,1,202.500007724762,8|0,0:0|0:0,0:0:0:0:
325,170,55520,2,0,P|342:105|392:61,1,135.000005149841,8|0,0:0|0:0,0:0:0:0:
345,267,55949,1,8,0:0:0:0:
234,85,56163,1,0,0:0:0:0:
300,330,56377,1,8,0:0:0:0:
489,155,56592,1,0,0:0:0:0:
185,342,56806,5,8,0:0:0:0:
81,93,57020,1,8,0:0:0:0:
376,151,57235,1,8,0:0:0:0:
104,276,57449,1,8,0:0:0:0:
249,14,57663,1,8,0:0:0:0:
283,312,57878,1,8,0:0:0:0:
73,184,58092,2,0,B|42:189|14:241|14:241|22:321|71:353,1,202.500007724762
154,339,58520,6,0,B|189:325|224:327|224:327|268:359|268:359|317:369|360:332,1,202.500007724762,8|0,0:0|0:0,0:0:0:0:
296,271,58949,2,0,P|326:252|361:252,1,67.5000025749207,8|0,0:0|0:0,0:0:0:0:
467,336,59163,1,0,0:0:0:0:
415,103,59377,1,8,0:0:0:0:
243,195,59592,1,0,0:0:0:0:
258,14,59806,1,8,0:0:0:0:
315,133,60020,1,0,0:0:0:0:
10,200,60235,5,8,0:0:0:0:
61,69,60449,1,0,0:0:0:0:
123,277,60663,1,8,0:0:0:0:
0,124,60877,1,0,0:0:0:0:
70,344,61092,2,0,B|118:357|118:357|218:344,1,135.000005149841,8|0,0:0|0:0,0:0:0:0:
282,316,61413,1,0,0:0:0:0:
282,316,61520,2,0,B|330:303|330:303|430:316,1,135.000005149841,8|0,0:0|0:0,0:0:0:0:
297,160,61949,6,0,P|312:80|363:143,1,202.500007724762,8|0,0:0|0:0,0:0:0:0:
353,5,62377,2,0,P|287:5|231:43,1,135.000005149841,8|0,0:0|0:0,0:0:0:0:
351,220,62806,1,8,0:0:0:0:
231,115,63020,1,0,0:0:0:0:
282,316,63234,1,8,0:0:0:0:
438,188,63449,1,0,0:0:0:0:
5,251,63663,5,8,0:0:0:0:
141,40,63877,1,0,0:0:0:0:
140,294,64091,1,8,0:0:0:0:
43,82,64306,1,0,0:0:0:0:
57,324,64520,1,8,0:0:0:0:
110,116,64734,1,0,0:0:0:0:
220,319,64949,2,0,P|223:281|182:226,1,67.5000025749207,8|0,0:0|0:0,0:0:0:0:
47,166,65163,2,0,P|69:186|104:198,1,67.5000025749208
249,121,65377,6,0,B|280:85|344:79|344:79|381:87|407:104|407:104|397:125|376:127,1,202.500007724762,8|0,0:0|0:0,0:0:0:0:
336,191,65806,2,0,P|363:206|422:198,1,67.5000025749207,8|0,0:0|0:0,0:0:0:0:
474,29,66020,1,0,0:0:0:0:
446,331,66235,1,8,0:0:0:0:
388,123,66449,1,0,0:0:0:0:
369,298,66663,1,8,0:0:0:0:
462,101,66877,1,0,0:0:0:0:
121,186,67092,5,8,0:0:0:0:
296,261,67306,1,0,0:0:0:0:
190,113,67520,1,8,0:0:0:0:
118,283,67734,1,0,0:0:0:0:
164,37,67950,2,0,P|230:38|274:87,1,135.000005149841,8|0,0:0|0:0,0:0:0:0:
251,168,68271,1,0,0:0:0:0:
251,168,68378,2,0,B|418:156,1,135.000005149841,8|0,0:0|0:0,0:0:0:0:
176,316,68806,6,0,P|109:270|187:250,1,202.500007724762,8|0,0:0|0:0,0:0:0:0:
39,319,69234,2,0,P|33:253|66:195,1,135.000005149841,8|0,0:0|0:0,0:0:0:0:
266,296,69663,1,8,0:0:0:0:
216,157,69877,1,0,0:0:0:0:
234,366,70092,1,8,0:0:0:0:
408,154,70306,1,0,0:0:0:0:
176,316,70520,5,8,0:0:0:0:
353,72,70734,1,8,0:0:0:0:
67,165,70949,1,8,0:0:0:0:
353,257,71163,1,8,0:0:0:0:
176,14,71377,1,8,0:0:0:0:
280,333,71592,1,0,0:0:0:0:
230,180,71806,1,0,0:0:0:0:
353,257,72020,1,0,0:0:0:0:
176,316,72234,5,8,0:0:0:0:
176,316,72663,1,8,0:0:0:0:
176,316,73092,1,8,0:0:0:0:
230,180,73306,1,8,0:0:0:0:
56,256,73520,6,0,B|40:252|9:224|9:224|67:203|161:234,1,202.500007724762
149,329,73949,6,0,L|266:332,1,90,8|0,0:0|0:0,0:0:0:0:
417,256,74377,2,0,L|300:259,1,90,8|0,0:0|0:0,0:0:0:0:
437,355,74806,1,8,0:0:0:0:
490,198,75020,1,0,0:0:0:0:
328,378,75234,1,8,0:0:0:0:
512,290,75449,1,0,0:0:0:0:
248,339,75663,6,0,P|237:319|230:298,1,45,8|0,0:0|0:0,0:0:0:0:
221,130,75877,2,0,P|215:151|214:174,1,45
261,317,76092,2,0,P|250:297|243:276,1,45,8|0,0:0|0:0,0:0:0:0:
237,150,76306,2,0,P|231:171|230:194,1,45
87,277,76520,1,8,0:0:0:0:
297,222,76734,1,0,0:0:0:0:
174,250,76949,1,8,0:0:0:0:
387,217,77163,1,0,0:0:0:0:
122,306,77377,6,0,P|98:269|100:225,1,90,8|0,0:0|0:0,0:0:0:0:
158,170,77699,1,0,0:0:0:0:
158,170,77806,2,0,P|114:145|45:171,1,90,8|0,0:0|0:0,0:0:0:0:
174,250,78235,1,8,0:0:0:0:
203,100,78449,1,0,0:0:0:0:
122,306,78663,1,8,0:0:0:0:
76,148,78877,1,0,0:0:0:0:
331,334,79092,5,8,0:0:0:0:
235,201,79306,1,0,0:0:0:0:
387,252,79520,1,8,0:0:0:0:
236,299,79734,1,0,0:0:0:0:
332,172,79949,1,8,0:0:0:0:
416,331,80163,1,0,0:0:0:0:
393,124,80377,2,0,P|405:147|404:194,1,45,8|0,0:0|0:0,0:0:0:0:
323,308,80592,2,0,P|310:284|311:237,1,45
337,65,80806,6,0,P|379:44|452:65,1,90,8|0,0:0|0:0,0:0:0:0:
476,255,81235,2,0,L|347:250,1,90,8|0,0:0|0:0,0:0:0:0:
277,119,81663,1,8,0:0:0:0:
323,308,81877,1,0,0:0:0:0:
99,166,82092,1,8,0:0:0:0:
286,231,82306,1,0,0:0:0:0:
68,274,82520,6,0,P|54:243|53:198,1,45,8|0,0:0|0:0,0:0:0:0:
63,69,82735,2,0,P|49:99|48:144,1,45
110,292,82949,2,0,P|96:261|95:216,1,45,8|0,0:0|0:0,0:0:0:0:
100,46,83164,2,0,P|86:76|85:121,1,45
228,173,83377,1,8,0:0:0:0:
94,168,83592,1,0,0:0:0:0:
278,106,83806,1,8,0:0:0:0:
273,240,84021,1,0,0:0:0:0:
247,27,84235,6,0,B|303:13|342:51|342:51|378:60|424:35|424:35,1,168.75,8|0,0:0|0:0,0:0:0:0:
477,0,84664,2,0,P|487:39|455:114,1,112.5
330,313,85092,1,0,0:0:0:0:
331,178,85306,1,0,0:0:0:0:
258,245,85520,1,0,0:0:0:0:
273,109,85734,1,0,0:0:0:0:
122,312,85949,6,0,L|114:246,3,56.25,10|0|0|0,0:0|0:0|0:0|0:0,0:0:0:0:
181,206,86377,2,0,L|199:135,3,56.25,10|0|0|0,0:0|0:0|0:0|0:0,0:0:0:0:
103,176,86806,1,10,0:0:0:0:
228,362,87020,1,10,0:0:0:0:
384,166,87235,2,0,P|345:112|330:177,1,168.75
413,46,87663,6,0,P|468:127|442:221,1,202.500007724762,12|0,0:0|0:0,0:0:0:0:
339,263,88092,2,0,P|303:260|270:241,1,67.5000025749207,8|0,0:0|0:0,0:0:0:0:
232,129,88306,1,0,0:0:0:0:
411,305,88520,1,8,0:0:0:0:
330,177,88734,1,0,0:0:0:0:
209,344,88949,1,8,0:0:0:0:
339,263,89163,1,0,0:0:0:0:
66,187,89377,5,8,0:0:0:0:
29,317,89592,1,0,0:0:0:0:
134,112,89806,1,8,0:0:0:0:
171,242,90021,1,0,0:0:0:0:
59,70,90235,2,0,P|95:36|191:39,1,135.000005149842,8|0,0:0|0:0,0:0:0:0:
215,97,90556,1,0,0:0:0:0:
215,97,90663,2,0,L|356:109,1,135.000005149842,8|0,0:0|0:0,0:0:0:0:
297,344,91092,6,0,P|304:264|361:322,1,202.500007724762,8|0,0:0|0:0,0:0:0:0:
345,186,91520,2,0,P|279:188|225:227,1,135.000005149841,8|0,0:0|0:0,0:0:0:0:
420,372,91949,1,8,0:0:0:0:
418,142,92163,1,0,0:0:0:0:
297,344,92377,1,8,0:0:0:0:
501,253,92592,1,0,0:0:0:0:
215,97,92806,5,8,0:0:0:0:
443,38,93020,1,0,0:0:0:0:
293,181,93235,1,8,0:0:0:0:
125,4,93449,1,0,0:0:0:0:
418,142,93663,1,8,0:0:0:0:
215,97,93877,1,0,0:0:0:0:
488,97,94092,1,8,0:0:0:0:
496,143,94199,1,0,0:0:0:0:
483,188,94306,1,0,0:0:0:0:
444,215,94413,1,0,0:0:0:0:
397,222,94520,6,0,B|352:187|298:193|298:193|246:214|189:202,1,202.500007724762,8|0,0:0|0:0,0:0:0:0:
177,284,94949,2,0,P|148:269|121:222,1,67.5000025749208,8|0,0:0|0:0,0:0:0:0:
119,92,95163,1,0,0:0:0:0:
335,43,95377,1,8,0:0:0:0:
323,277,95592,1,0,0:0:0:0:
246,110,95806,1,8,0:0:0:0:
397,222,96020,1,0,0:0:0:0:
177,284,96235,5,8,0:0:0:0:
104,172,96449,1,0,0:0:0:0:
250,352,96663,1,8,0:0:0:0:
279,174,96877,1,0,0:0:0:0:
76,248,97093,2,0,P|30:200|33:134,1,135.000005149842,8|0,0:0|0:0,0:0:0:0:
97,93,97413,1,0,0:0:0:0:
97,93,97521,2,0,B|236:110,1,135.000005149842,8|0,0:0|0:0,0:0:0:0:
425,279,97949,6,0,P|417:198|361:256,1,202.500007724762,8|0,0:0|0:0,0:0:0:0:
376,120,98377,2,0,P|442:121|496:160,1,135.000005149841,8|0,0:0|0:0,0:0:0:0:
367,333,98806,1,8,0:0:0:0:
293,151,99020,1,0,0:0:0:0:
425,278,99234,1,8,0:0:0:0:
468,51,99449,1,0,0:0:0:0:
185,342,99663,5,8,0:0:0:0:
376,151,99877,1,8,0:0:0:0:
81,93,100092,1,8,0:0:0:0:
283,312,100306,1,8,0:0:0:0:
249,14,100520,1,8,0:0:0:0:
104,276,100735,1,0,0:0:0:0:
421,71,100949,2,0,B|460:95|468:175|468:175|440:227|409:232,1,202.500007724762
338,177,101377,6,0,B|303:191|268:189|268:189|224:157|224:157|175:147|132:184,1,202.500007724762,8|0,0:0|0:0,0:0:0:0:
88,223,101806,2,0,P|69:193|69:158,1,67.5000025749207,8|0,0:0|0:0,0:0:0:0:
142,36,102020,1,0,0:0:0:0:
197,238,102235,1,8,0:0:0:0:
298,99,102449,1,0,0:0:0:0:
150,170,102663,1,8,0:0:0:0:
322,306,102877,1,0,0:0:0:0:
443,148,103092,5,8,0:0:0:0:
472,291,103306,1,0,0:0:0:0:
298,99,103520,1,8,0:0:0:0:
269,242,103734,1,0,0:0:0:0:
277,26,103949,2,0,P|232:60|239:142,1,135.000005149842,8|0,0:0|0:0,0:0:0:0:
312,175,104270,1,0,0:0:0:0:
312,175,104377,2,0,B|260:165|260:165|154:186,1,135.000005149842,8|0,0:0|0:0,0:0:0:0:
362,343,104806,6,0,P|424:290|344:276,1,202.500007724762,8|0,0:0|0:0,0:0:0:0:
497,335,105234,2,0,P|497:269|459:213,1,135.000005149841,8|0,0:0|0:0,0:0:0:0:
273,337,105663,1,8,0:0:0:0:
375,190,105877,1,0,0:0:0:0:
113,230,106091,1,8,0:0:0:0:
344,276,106306,1,0,0:0:0:0:
207,5,106520,5,8,0:0:0:0:
189,283,106735,1,0,0:0:0:0:
29,113,106949,1,8,0:0:0:0:
111,322,107163,1,0,0:0:0:0:
272,142,107377,1,8,0:0:0:0:
32,245,107592,1,0,0:0:0:0:
255,332,107806,2,0,P|267:300|245:212,1,67.5000025749208,8|0,0:0|0:0,0:0:0:0:
191,119,108020,2,0,P|192:152|204:184,1,67.5000025749208
405,288,108235,6,0,B|433:259|444:224|444:224|442:185|423:136|423:136|393:156|389:200,1,202.500007724762,8|0,0:0|0:0,0:0:0:0:
343,230,108663,2,0,P|324:203|316:164,1,67.5000025749208,8|0,0:0|0:0,0:0:0:0:
381,41,108877,1,0,0:0:0:0:
329,308,109092,1,8,0:0:0:0:
501,116,109306,1,0,0:0:0:0:
294,86,109520,1,8,0:0:0:0:
459,222,109735,1,0,0:0:0:0:
202,224,109949,5,8,0:0:0:0:
156,90,110163,1,0,0:0:0:0:
270,303,110377,1,8,0:0:0:0:
316,169,110591,1,0,0:0:0:0:
194,303,110806,6,0,P|225:366|312:369,1,135.000005149842,8|0,0:0|0:0,0:0:0:0:
344,335,111127,1,0,0:0:0:0:
344,335,111235,2,0,L|483:344,1,135.000005149842,8|0,0:0|0:0,0:0:0:0:
161,125,111663,6,0,P|94:171|172:191,1,202.500007724762,8|0,0:0|0:0,0:0:0:0:
50,245,112091,2,0,P|18:188|24:122,1,135.000005149841,8|0,0:0|0:0,0:0:0:0:
124,285,112520,1,8,0:0:0:0:
253,54,112734,1,0,0:0:0:0:
242,246,112949,1,8,0:0:0:0:
70,57,113163,1,0,0:0:0:0:
341,302,113377,5,8,0:0:0:0:
143,74,113591,1,8,0:0:0:0:
436,142,113806,1,8,0:0:0:0:
159,258,114020,1,8,0:0:0:0:
314,2,114234,1,8,0:0:0:0:
238,327,114449,1,0,0:0:0:0:
283,136,114663,1,0,0:0:0:0:
159,258,114877,1,0,0:0:0:0:
341,302,115092,6,0,L|446:296,1,90,12|0,0:0|0:0,0:0:0:0:
372,141,115520,2,0,L|267:135,1,90,8|0,0:0|0:0,0:0:0:0:
159,258,115949,1,8,0:0:0:0:
65,102,116163,1,0,0:0:0:0:
82,81,116270,1,0,0:0:0:0:
104,65,116377,1,8,0:0:0:0:
110,95,116484,1,0,0:0:0:0:
107,126,116591,1,0,0:0:0:0:
99,156,116698,1,0,0:0:0:0:
81,181,116805,5,8,0:0:0:0:
32,18,117020,1,0,0:0:0:0:
159,258,117235,1,8,0:0:0:0:
208,95,117450,1,0,0:0:0:0:
191,333,117663,2,0,P|243:307|275:266,1,90,8|0,0:0|0:0,0:0:0:0:
378,166,118092,2,0,L|255:180,1,90,8|0,0:0|0:0,0:0:0:0:
453,284,118520,6,0,B|479:165|479:165|458:89,1,180,8|8,0:0|0:0,0:0:0:0:
301,84,119163,1,0,0:0:0:0:
342,254,119377,1,8,0:0:0:0:
145,178,119592,1,0,0:0:0:0:
125,161,119699,1,0,0:0:0:0:
109,139,119806,1,8,0:0:0:0:
138,133,119913,1,0,0:0:0:0:
169,136,120020,1,0,0:0:0:0:
199,144,120127,1,0,0:0:0:0:
224,162,120234,5,8,0:0:0:0:
61,211,120449,1,0,0:0:0:0:
301,84,120664,1,8,0:0:0:0:
138,35,120877,1,0,0:0:0:0:
327,166,121092,2,0,P|374:135|389:75,1,90,8|0,0:0|0:0,0:0:0:0:
127,118,121520,2,0,L|27:122,1,90,8|0,0:0|0:0,0:0:0:0:
200,248,121949,6,0,L|196:348,2,90,8|0|8,0:0|0:0|0:0,0:0:0:0:
127,118,122592,1,0,0:0:0:0:
92,262,122806,1,8,0:0:0:0:
373,234,123020,1,0,0:0:0:0:
393,251,123127,1,0,0:0:0:0:
409,273,123234,1,8,0:0:0:0:
380,279,123341,1,0,0:0:0:0:
349,276,123448,1,0,0:0:0:0:
319,268,123555,1,0,0:0:0:0:
294,250,123662,5,8,0:0:0:0:
489,281,123877,1,0,0:0:0:0:
249,154,124092,1,8,0:0:0:0:
412,105,124307,1,0,0:0:0:0:
227,74,124520,2,0,L|105:93,1,90,8|0,0:0|0:0,0:0:0:0:
294,250,124949,2,0,P|338:220|349:178,1,90,8|0,0:0|0:0,0:0:0:0:
176,323,125377,6,0,B|299:348|299:348|384:323,1,180,8|8,0:0|0:0,0:0:0:0:
447,197,126020,1,0,0:0:0:0:
489,348,126235,1,8,0:0:0:0:
463,118,126449,1,0,0:0:0:0:
446,98,126556,1,0,0:0:0:0:
424,82,126663,1,8,0:0:0:0:
418,111,126770,1,0,0:0:0:0:
421,142,126877,1,0,0:0:0:0:
429,172,126984,1,0,0:0:0:0:
447,197,127091,5,0,0:0:0:0:
272,144,127306,1,0,0:0:0:0:
393,294,127521,1,0,0:0:0:0:
383,93,127736,1,0,0:0:0:0:
280,260,127949,1,0,0:0:0:0:
447,197,128163,1,0,0:0:0:0:
139,244,128377,2,0,P|134:188|166:235,1,135
203,305,128806,1,12,0:0:0:0:
147,161,135663,5,0,0:0:0:0:
183,89,135877,2,0,L|179:32,2,33.7500012874604,2|0|0,0:0|0:0|0:0,0:0:0:0:
74,126,136306,1,0,0:0:0:0:
224,195,136520,1,0,0:0:0:0:
260,123,136734,2,0,L|256:66,2,33.7500012874604,2|0|0,0:0|0:0|0:0,0:0:0:0:
147,161,137163,1,0,0:0:0:0:
301,229,137377,5,0,0:0:0:0:
337,157,137591,2,0,L|333:100,2,33.7500012874604,2|0|0,0:0|0:0|0:0,0:0:0:0:
224,195,138020,1,0,0:0:0:0:
378,263,138235,1,0,0:0:0:0:
414,191,138449,2,0,L|410:134,2,33.7500012874604,2|0|0,0:0|0:0|0:0,0:0:0:0:
301,229,138877,1,0,0:0:0:0:
456,297,139092,6,0,P|425:337|383:346,1,67.5000025749208,0|2,0:0|0:0,0:0:0:0:
322,333,139413,1,0,0:0:0:0:
322,333,139520,2,0,L|236:342,1,67.5000025749208
64,268,139949,1,2,0:0:0:0:
40,353,140163,1,0,0:0:0:0:
51,57,140377,1,2,0:0:0:0:
75,142,140591,1,0,0:0:0:0:
311,137,140806,5,8,0:0:0:0:
178,213,141020,1,8,0:0:0:0:
330,229,141235,1,8,0:0:0:0:
216,127,141449,1,8,0:0:0:0:
248,276,141663,1,8,0:0:0:0:
267,64,141877,2,0,L|270:42,1,16.8750006437302
375,210,142092,6,0,P|379:286|329:228,1,202.500007724762
478,297,142520,6,0,P|396:366|302:349,1,202.500007724762,12|0,0:0|0:0,0:0:0:0:
248,276,142949,2,0,P|245:232|261:188,1,67.5000025749208,8|0,0:0|0:0,0:0:0:0:
324,94,143163,1,0,0:0:0:0:
507,228,143377,1,8,0:0:0:0:
329,228,143592,1,0,0:0:0:0:
436,122,143806,1,8,0:0:0:0:
478,297,144020,1,0,0:0:0:0:
179,271,144235,5,8,0:0:0:0:
329,228,144449,1,0,0:0:0:0:
104,143,144663,1,8,0:0:0:0:
240,188,144877,1,0,0:0:0:0:
80,311,145092,2,0,P|46:275|50:174,1,135.000005149842,8|0,0:0|0:0,0:0:0:0:
104,143,145413,1,0,0:0:0:0:
104,143,145520,2,0,L|116:2,1,135.000005149842,8|0,0:0|0:0,0:0:0:0:
283,199,145949,6,0,P|363:192|305:135,1,202.500007724762,8|0,0:0|0:0,0:0:0:0:
398,272,146377,2,0,P|437:218|440:152,1,135.000005149841,8|0,0:0|0:0,0:0:0:0:
344,344,146806,1,8,0:0:0:0:
283,199,147020,1,0,0:0:0:0:
180,345,147235,1,8,0:0:0:0:
398,272,147449,1,0,0:0:0:0:
219,96,147663,5,8,0:0:0:0:
259,292,147877,1,0,0:0:0:0:
368,23,148092,1,8,0:0:0:0:
324,216,148306,1,0,0:0:0:0:
154,46,148520,1,8,0:0:0:0:
376,100,148734,1,0,0:0:0:0:
144,230,148949,1,8,0:0:0:0:
119,185,149056,1,0,0:0:0:0:
110,135,149163,1,0,0:0:0:0:
122,86,149270,1,0,0:0:0:0:
154,46,149377,6,0,P|122:70|-25:27,1,202.500007724762,8|0,0:0|0:0,0:0:0:0:
64,6,149806,2,0,P|66:41|43:93,1,67.5000025749208,8|0,0:0|0:0,0:0:0:0:
5,209,150020,1,0,0:0:0:0:
248,132,150235,1,8,0:0:0:0:
60,153,150449,1,0,0:0:0:0:
261,219,150663,1,8,0:0:0:0:
198,57,150877,1,0,0:0:0:0:
206,288,151092,5,8,0:0:0:0:
248,132,151306,1,0,0:0:0:0:
369,327,151520,1,8,0:0:0:0:
334,163,151734,1,0,0:0:0:0:
129,315,151949,2,0,P|138:234|205:204,1,135.000005149842,8|0,0:0|0:0,0:0:0:0:
257,225,152270,1,0,0:0:0:0:
257,225,152377,2,0,B|332:250|332:250|401:235,1,135.000005149842,8|0,0:0|0:0,0:0:0:0:
84,75,152806,6,0,P|162:96|95:142,1,202.500007724762,8|0,0:0|0:0,0:0:0:0:
232,150,153234,2,0,P|242:84|213:24,1,135.000005149841,8|0,0:0|0:0,0:0:0:0:
178,207,153663,1,8,0:0:0:0:
136,6,153877,1,0,0:0:0:0:
110,169,154092,1,8,0:0:0:0:
334,78,154306,1,0,0:0:0:0:
35,298,154520,5,8,0:0:0:0:
323,165,154734,1,8,0:0:0:0:
10,103,154948,1,8,0:0:0:0:
225,336,155162,1,8,0:0:0:0:
188,19,155377,1,8,0:0:0:0:
121,368,155592,1,0,0:0:0:0:
126,157,155806,2,0,P|173:92|172:180,1,202.500007724762
138,252,156235,1,12,0:0:0:0:
