osu file format v14

[General]
AudioFilename: audio.mp3
AudioLeadIn: 0
PreviewTime: 44806
Countdown: 0
SampleSet: Soft
StackLeniency: 0.7
Mode: 0
LetterboxInBreaks: 0
WidescreenStoryboard: 0

[Editor]
DistanceSpacing: 1.5
BeatDivisor: 4
GridSize: 4
TimelineZoom: 0.9

[Metadata]
Title:Koigokoro
TitleUnicode:恋ゴコロ
Artist:Primastella
ArtistUnicode:ぷりますてら
Creator:ktgster
Version:Special
Source:ルーセントハート
Tags:lucent heart video game electronic japanese Chompy dance pop trance imai sena sakagami nao tsukishima komugi saiya noir korosuke
BeatmapID:2417422
BeatmapSetID:1158376

[Difficulty]
HPDrainRate:5
CircleSize:5
OverallDifficulty:9
ApproachRate:9
SliderMultiplier:1.6
SliderTickRate:1

[Events]
//Background and Video events
0,0,"bg.jpg",0,0
//Break Periods
2,129006,135063
//Storyboard Layer 0 (Background)
//Storyboard Layer 1 (Fail)
//Storyboard Layer 2 (Pass)
//Storyboard Layer 3 (Foreground)
//Storyboard Layer 4 (Overlay)
//Storyboard Sound Samples

[TimingPoints]
235,428.571428571429,4,2,1,70,1,0
1520,-58.8235294117647,4,2,1,80,0,0
1949,-76.9230769230769,4,2,1,80,0,0
15663,-76.9230769230769,4,2,1,90,0,1
29377,-76.9230769230769,4,2,1,80,0,0
30663,-58.8235294117647,4,2,1,80,0,0
31127,-76.9230769230769,4,2,1,80,0,0
44377,-58.8235294117647,4,2,1,80,0,0
44806,-76.9230769230769,4,2,1,90,0,1
72235,-76.9230769230769,4,2,1,80,0,0
73520,-58.8235294117647,4,2,1,80,0,0
73949,-76.9230769230769,4,2,1,80,0,0
87235,-58.8235294117647,4,2,1,80,0,0
87663,-76.9230769230769,4,2,1,90,0,1
115092,-76.9230769230769,4,2,1,90,0,0
142520,-76.9230769230769,4,2,1,90,0,1
156235,-76.9230769230769,4,2,1,90,0,0

[Colours]
Combo1 : 255,145,145
Combo2 : 166,166,255
Combo3 : 255,151,203
Combo4 : 193,132,255

[HitObjects]
30,130,235,6,0,L|41:64,1,40,0|0,3:2|0:2,0:0:0:0:
111,82,449,1,0,0:2:0:0:
108,100,556,1,0,0:2:0:0:
149,163,663,6,0,L|154:194,2,20,0|0|0,3:2|0:2|0:2,0:0:0:0:
214,110,877,1,0,0:2:0:0:
211,129,985,1,0,0:2:0:0:
256,202,1092,6,0,L|261:233,2,20,0|0|0,3:2|0:2|0:2,0:0:0:0:
189,254,1306,2,0,L|194:285,2,20,0|0|0,3:2|0:2|0:2,0:0:0:0:
25,262,1520,6,0,P|89:247|72:358,1,204.000003890991,2|0,3:2|0:2,0:0:0:0:
256,367,1949,6,0,P|290:295|390:318,1,155.999992858887,4|0,0:2|0:2,0:0:0:0:
423,353,2377,1,0,0:2:0:0:
423,353,2592,1,0,0:2:0:0:
503,200,2806,6,0,L|437:211,1,51.999997619629,2|0,0:2|0:2,0:0:0:0:
392,165,3020,1,0,0:2:0:0:
392,165,3127,1,0,0:2:0:0:
458,72,3235,2,0,L|469:138,1,51.999997619629,2|0,0:2|0:2,0:0:0:0:
379,23,3449,2,0,L|368:89,1,51.999997619629,0|0,0:2|0:2,0:0:0:0:
316,151,3663,5,2,0:2:0:0:
208,55,3877,1,0,0:2:0:0:
83,128,4092,1,2,0:2:0:0:
113,269,4306,1,0,0:2:0:0:
257,283,4520,5,2,0:2:0:0:
225,170,4735,1,0,0:2:0:0:
198,146,4842,1,0,0:2:0:0:
166,164,4949,1,2,0:2:0:0:
174,199,5056,1,0,0:2:0:0:
210,203,5163,1,0,0:2:0:0:
431,209,5377,6,0,P|490:140|455:24,2,207.999990478516,0|0|2,0:2|0:2|0:2,0:0:0:0:
311,246,6449,1,0,0:2:0:0:
275,253,6556,1,0,0:2:0:0:
240,242,6663,1,2,0:2:0:0:
251,277,6770,1,0,0:2:0:0:
244,313,6877,1,0,0:2:0:0:
112,372,7092,5,2,0:2:0:0:
16,264,7306,1,0,0:2:0:0:
89,139,7520,1,2,0:2:0:0:
230,169,7735,1,0,0:2:0:0:
244,313,7949,1,2,0:2:0:0:
125,222,8163,5,0,0:2:0:0:
160,230,8270,1,0,0:2:0:0:
164,266,8377,1,2,0:2:0:0:
131,281,8485,1,0,0:2:0:0:
107,254,8592,1,0,0:2:0:0:
235,71,8806,5,0,3:2:0:0:
268,184,8949,1,0,0:2:0:0:
271,168,9020,1,2,0:2:0:0:
314,22,9235,6,0,L|325:88,1,51.999997619629,8|0,0:3|0:2,0:0:0:0:
405,41,9449,2,0,L|416:107,1,51.999997619629,0|0,0:2|0:2,0:0:0:0:
455,181,9663,5,0,3:2:0:0:
491,69,9806,1,0,0:2:0:0:
494,85,9877,1,2,0:2:0:0:
512,244,10092,6,0,L|501:310,1,51.999997619629,8|0,0:3|0:2,0:0:0:0:
421,263,10306,2,0,L|410:329,1,51.999997619629,0|0,0:2|0:2,0:0:0:0:
366,170,10520,5,0,3:2:0:0:
330,282,10663,1,0,0:2:0:0:
327,266,10735,1,2,0:2:0:0:
244,109,10949,6,0,L|255:175,1,51.999997619629,8|0,0:3|0:2,0:0:0:0:
242,318,11163,2,0,L|231:252,1,51.999997619629,0|0,0:2|0:2,0:0:0:0:
147,162,11377,5,0,3:2:0:0:
111,274,11520,1,0,0:2:0:0:
108,258,11592,1,2,0:2:0:0:
11,85,11806,5,8,0:3:0:0:
33,71,11913,1,0,0:2:0:0:
59,67,12020,1,0,0:2:0:0:
85,70,12127,1,0,0:2:0:0:
159,94,12235,5,0,3:2:0:0:
245,18,12377,1,0,0:2:0:0:
242,34,12449,1,2,0:2:0:0:
299,227,12663,6,0,B|293:191|293:191|309:165|309:165|299:109,1,103.999995239258,8|0,0:3|0:2,0:0:0:0:
297,103,12985,1,0,0:2:0:0:
365,21,13092,5,0,3:2:0:0:
424,120,13235,1,0,0:2:0:0:
427,104,13306,1,2,0:2:0:0:
373,215,13520,5,8,0:3:0:0:
407,203,13627,1,0,0:2:0:0:
443,207,13735,1,0,0:2:0:0:
474,225,13842,1,0,0:2:0:0:
468,306,13949,6,0,L|402:295,1,51.999997619629,0|0,3:2|0:2,0:0:0:0:
404,374,14163,2,0,L|338:363,1,51.999997619629,0|0,3:2|0:2,0:0:0:0:
330,248,14377,5,2,0:2:0:0:
335,283,14485,1,0,0:2:0:0:
274,349,14592,1,2,0:2:0:0:
279,384,14699,1,0,0:2:0:0:
208,282,14806,1,2,0:2:0:0:
408,377,15020,5,8,0:1:0:0:
408,377,15235,1,8,0:1:0:0:
224,228,15663,5,12,0:2:0:0:
177,129,15806,1,0,0:2:0:0:
174,145,15877,1,2,0:2:0:0:
110,191,15985,1,0,0:2:0:0:
93,54,16092,6,0,L|82:120,1,51.999997619629,8|0,1:3|0:2,0:0:0:0:
26,188,16306,2,0,L|15:254,1,51.999997619629,2|0,0:2|0:2,0:0:0:0:
92,365,16520,5,8,0:0:0:0:
225,339,16663,1,0,0:2:0:0:
209,336,16735,1,2,0:2:0:0:
163,272,16842,1,0,0:2:0:0:
273,225,16949,6,0,L|284:291,1,51.999997619629,8|0,1:3|0:2,0:0:0:0:
189,114,17163,2,0,L|200:180,1,51.999997619629,2|0,0:2|0:2,0:0:0:0:
282,28,17377,5,8,0:2:0:0:
308,161,17520,1,0,0:2:0:0:
311,145,17592,1,2,0:2:0:0:
375,99,17699,1,0,0:2:0:0:
394,231,17806,6,0,L|328:242,1,51.999997619629,8|0,1:3|0:2,0:0:0:0:
512,171,18020,2,0,L|446:182,1,51.999997619629,2|0,0:2|0:2,0:0:0:0:
311,145,18235,5,8,0:2:0:0:
285,278,18377,1,0,0:2:0:0:
282,262,18449,1,2,0:2:0:0:
218,216,18556,1,0,0:2:0:0:
151,293,18663,5,8,1:3:0:0:
186,301,18770,1,0,0:2:0:0:
213,326,18877,1,2,0:2:0:0:
228,360,18985,1,0,0:2:0:0:
102,383,19092,5,8,0:2:0:0:
71,252,19235,1,0,0:2:0:0:
68,268,19306,1,2,0:2:0:0:
4,314,19413,1,0,0:2:0:0:
29,181,19520,6,0,L|95:170,1,51.999997619629,8|0,1:3|0:2,0:0:0:0:
205,270,19735,2,0,L|139:259,1,51.999997619629,2|0,0:2|0:2,0:0:0:0:
190,183,19949,5,8,0:2:0:0:
99,100,20092,1,0,0:2:0:0:
115,103,20163,1,2,0:2:0:0:
170,47,20270,1,0,0:2:0:0:
254,137,20377,6,0,L|265:71,1,51.999997619629,8|0,1:3|0:2,0:0:0:0:
290,284,20592,2,0,L|301:218,1,51.999997619629,2|0,0:2|0:2,0:0:0:0:
377,130,20806,5,8,0:2:0:0:
417,35,20949,1,0,0:2:0:0:
420,51,21020,1,2,0:2:0:0:
484,97,21127,1,0,0:2:0:0:
440,198,21235,6,0,L|506:209,1,51.999997619629,8|0,1:3|0:2,0:0:0:0:
280,215,21449,2,0,L|346:226,1,51.999997619629,2|0,0:2|0:2,0:0:0:0:
449,275,21663,5,8,0:2:0:0:
332,314,21806,1,0,0:2:0:0:
348,317,21877,1,2,0:2:0:0:
403,372,21985,1,0,0:2:0:0:
331,223,22092,5,8,1:3:0:0:
367,227,22199,1,0,0:2:0:0:
401,216,22306,1,2,0:2:0:0:
429,193,22413,1,0,0:2:0:0:
360,136,22520,5,8,0:2:0:0:
304,21,22663,1,0,0:2:0:0:
301,37,22735,1,2,0:2:0:0:
236,82,22842,1,0,0:2:0:0:
298,205,22949,6,0,L|287:139,1,51.999997619629,8|0,1:3|0:2,0:0:0:0:
274,351,23163,2,0,L|263:285,1,51.999997619629,2|0,0:2|0:2,0:0:0:0:
164,204,23377,5,8,0:0:0:0:
108,319,23520,1,0,0:2:0:0:
105,303,23592,1,2,0:2:0:0:
40,258,23699,1,0,0:2:0:0:
82,139,23806,6,0,L|93:205,1,51.999997619629,8|0,1:3|0:2,0:0:0:0:
190,296,24020,2,0,L|201:362,1,51.999997619629,2|0,0:2|0:2,0:0:0:0:
277,278,24235,5,12,0:2:0:0:
162,222,24377,1,0,0:2:0:0:
178,219,24449,1,2,0:2:0:0:
223,154,24556,1,0,0:2:0:0:
345,236,24663,6,0,L|356:302,1,51.999997619629,8|0,1:3|0:2,0:0:0:0:
294,118,24877,2,0,L|305:184,1,51.999997619629,2|0,0:2|0:2,0:0:0:0:
420,247,25092,5,8,0:2:0:0:
478,372,25235,1,0,0:2:0:0:
475,356,25306,1,2,0:2:0:0:
512,286,25413,1,0,0:2:0:0:
389,353,25520,5,8,1:3:0:0:
359,334,25627,1,0,0:2:0:0:
322,333,25735,1,2,0:2:0:0:
288,346,25842,1,0,0:2:0:0:
198,286,25949,6,0,B|162:280|162:280|136:296|136:296|80:286,2,103.999995239258,12|0|8,0:2|0:2|0:3,0:0:0:0:
343,228,26592,1,0,0:2:0:0:
198,170,26806,1,0,3:2:0:0:
294,131,26949,1,0,0:2:0:0:
294,131,27020,1,0,0:2:0:0:
149,73,27235,1,8,0:3:0:0:
149,73,27449,1,0,0:2:0:0:
4,117,27663,6,0,L|15:183,1,51.999997619629,8|0,0:2|0:0,0:0:0:0:
72,306,27877,2,0,L|83:372,1,51.999997619629,10|0,0:2|0:2,0:0:0:0:
98,126,28092,2,0,L|109:192,1,51.999997619629,8|0,0:2|0:2,0:0:0:0:
166,315,28306,2,0,L|177:381,1,51.999997619629,10|0,0:2|0:2,0:0:0:0:
237,231,28520,5,10,0:2:0:0:
237,231,28735,2,0,L|248:297,1,51.999997619629,10|0,0:1|0:2,0:0:0:0:
365,109,28949,2,0,L|376:175,1,51.999997619629,10|0,0:1|0:2,0:0:0:0:
358,298,29163,2,0,L|369:364,1,51.999997619629,10|0,0:1|0:2,0:0:0:0:
485,245,29377,5,8,0:2:0:0:
489,220,29485,1,0,0:2:0:0:
493,194,29592,1,0,0:2:0:0:
497,169,29699,1,0,0:2:0:0:
424,89,29806,5,8,0:2:0:0:
428,64,29913,1,0,0:2:0:0:
432,38,30020,1,0,0:2:0:0:
436,13,30127,1,0,0:2:0:0:
344,51,30235,5,8,0:2:0:0:
348,26,30342,1,0,0:2:0:0:
281,140,30449,5,8,0:2:0:0:
285,115,30556,1,0,0:2:0:0:
426,206,30663,6,0,P|362:191|379:302,1,204.000003890991,2|0,0:2|0:2,0:0:0:0:
473,344,31092,5,12,0:2:0:0:
430,242,31235,1,0,0:2:0:0:
427,258,31306,1,2,0:2:0:0:
258,247,31520,5,0,1:2:0:0:
278,276,31627,1,0,0:2:0:0:
285,311,31735,1,0,0:2:0:0:
277,346,31842,1,0,0:2:0:0:
169,275,31949,6,0,L|158:209,1,51.999997619629,8|0,0:2|0:2,0:0:0:0:
118,370,32163,2,0,L|107:304,1,51.999997619629,2|0,0:2|0:2,0:0:0:0:
70,237,32377,2,0,L|59:171,1,51.999997619629,0|0,1:2|0:2,0:0:0:0:
228,382,32592,2,0,L|217:316,1,51.999997619629,2|0,0:2|0:2,0:0:0:0:
236,238,32806,5,8,0:2:0:0:
143,140,32949,1,0,0:2:0:0:
146,156,33020,1,2,0:2:0:0:
293,363,33235,6,0,L|285:312,1,51.999997619629,0|0,1:2|0:2,0:0:0:0:
297,189,33449,2,0,L|289:138,1,51.999997619629,2|0,0:2|0:2,0:0:0:0:
369,258,33663,5,8,0:2:0:0:
419,368,33806,1,0,0:2:0:0:
422,352,33877,1,2,0:2:0:0:
512,244,34092,1,0,1:2:0:0:
512,244,34306,1,0,0:2:0:0:
385,175,34520,5,8,0:2:0:0:
461,83,34663,1,0,0:2:0:0:
458,99,34735,1,2,0:2:0:0:
512,244,34949,5,0,1:2:0:0:
507,209,35056,1,0,0:2:0:0:
465,300,35163,1,2,0:2:0:0:
336,108,35377,5,8,0:2:0:0:
293,210,35520,1,0,0:2:0:0:
290,194,35592,1,2,0:2:0:0:
210,291,35806,6,0,L|221:357,1,51.999997619629,0|0,1:2|0:2,0:0:0:0:
144,173,36020,2,0,L|155:239,1,51.999997619629,2|0,0:2|0:2,0:0:0:0:
118,327,36235,5,8,0:2:0:0:
63,238,36377,1,0,0:2:0:0:
60,254,36449,1,2,0:2:0:0:
4,136,36663,6,0,L|70:125,1,51.999997619629,0|0,1:2|0:2,0:0:0:0:
203,232,36877,2,0,L|152:224,1,51.999997619629,2|0,0:2|0:2,0:0:0:0:
195,119,37092,5,8,0:2:0:0:
314,63,37235,1,0,0:2:0:0:
298,60,37306,1,2,0:2:0:0:
282,265,37520,6,0,B|276:229|276:229|292:203|292:203|282:147,1,103.999995239258,0|0,1:2|0:2,0:0:0:0:
205,362,37949,5,12,0:2:0:0:
103,319,38092,1,0,0:2:0:0:
119,316,38163,1,2,0:2:0:0:
108,147,38377,5,0,1:2:0:0:
137,167,38485,1,0,0:2:0:0:
172,174,38592,1,0,0:2:0:0:
207,166,38699,1,0,0:2:0:0:
282,115,38806,6,0,L|293:181,1,51.999997619629,8|0,0:2|0:2,0:0:0:0:
333,20,39020,2,0,L|344:86,1,51.999997619629,2|0,0:2|0:2,0:0:0:0:
381,153,39235,2,0,L|392:219,1,51.999997619629,0|0,1:2|0:2,0:0:0:0:
223,8,39449,2,0,L|234:74,1,51.999997619629,2|0,0:2|0:2,0:0:0:0:
207,166,39663,5,8,0:2:0:0:
164,48,39806,1,0,0:2:0:0:
161,64,39877,1,2,0:2:0:0:
204,253,40092,5,0,1:2:0:0:
239,248,40199,1,0,0:2:0:0:
123,210,40306,1,2,0:2:0:0:
250,64,40520,5,8,0:2:0:0:
207,166,40663,1,0,0:2:0:0:
204,150,40735,1,2,0:2:0:0:
92,212,40949,5,0,1:2:0:0:
87,177,41056,1,0,0:0:0:0:
8,222,41163,2,0,L|-3:288,1,51.999997619629,0|0,0:2|0:0,0:0:0:0:
160,378,41377,5,12,0:2:0:0:
48,347,41520,1,0,0:2:0:0:
64,344,41592,1,2,0:2:0:0:
195,277,41806,5,0,3:3:0:0:
208,310,41913,1,0,0:2:0:0:
236,331,42020,1,0,0:2:0:0:
271,340,42127,1,0,0:2:0:0:
347,325,42235,5,0,0:2:0:0:
382,198,42377,1,0,0:2:0:0:
385,214,42449,1,2,0:2:0:0:
463,372,42663,6,0,L|452:306,1,51.999997619629,0|0,3:2|0:2,0:0:0:0:
490,209,42877,2,0,L|479:143,1,51.999997619629,0|0,0:2|0:2,0:0:0:0:
282,136,43092,5,0,3:2:0:0:
287,171,43199,1,0,0:2:0:0:
390,107,43306,5,0,3:2:0:0:
395,72,43413,1,0,0:2:0:0:
290,19,43520,6,0,L|295:50,2,25.9999988098145,0|0|0,3:2|0:2|0:2,0:0:0:0:
354,208,43735,5,0,3:2:0:0:
359,173,43842,1,0,0:2:0:0:
384,316,43949,6,0,L|353:321,2,25.9999988098145,0|0|0,3:2|0:2|0:2,0:0:0:0:
247,254,44163,2,0,L|278:259,2,25.9999988098145,8|0|0,0:1|0:2|0:2,0:0:0:0:
285,375,44377,6,0,P|206:344|66:351,1,204.000003890991,8|0,0:1|0:2,0:0:0:0:
11,285,44806,5,12,0:2:0:0:
110,238,44949,1,0,0:2:0:0:
94,235,45020,1,2,0:2:0:0:
48,171,45127,1,0,0:2:0:0:
186,146,45235,6,0,L|175:212,1,51.999997619629,8|0,1:3|0:2,0:0:0:0:
152,11,45449,2,0,L|141:77,1,51.999997619629,2|0,0:2|0:2,0:0:0:0:
263,193,45663,5,8,0:0:0:0:
141,266,45806,1,0,0:2:0:0:
157,269,45877,1,2,0:2:0:0:
203,333,45985,1,0,0:2:0:0:
179,186,46092,6,0,L|190:120,1,51.999997619629,8|0,1:3|0:2,0:0:0:0:
254,64,46306,2,0,L|265:-2,1,51.999997619629,2|0,0:2|0:2,0:0:0:0:
377,148,46520,5,8,0:2:0:0:
263,193,46663,1,0,0:2:0:0:
279,196,46735,1,2,0:2:0:0:
325,260,46842,1,0,0:2:0:0:
197,305,46949,6,0,L|186:239,1,51.999997619629,8|0,1:3|0:2,0:0:0:0:
198,119,47163,2,0,L|187:53,1,51.999997619629,2|0,0:2|0:2,0:0:0:0:
263,193,47377,5,8,0:2:0:0:
289,60,47520,1,0,0:2:0:0:
292,76,47592,1,2,0:2:0:0:
356,122,47699,1,0,0:2:0:0:
332,264,47806,5,8,1:3:0:0:
343,229,47913,1,0,0:2:0:0:
370,205,48020,1,2,0:2:0:0:
405,193,48127,1,0,0:2:0:0:
511,235,48235,5,8,0:2:0:0:
485,368,48377,1,0,0:2:0:0:
482,352,48449,1,2,0:2:0:0:
418,306,48556,1,0,0:2:0:0:
378,178,48663,6,0,L|370:229,1,51.999997619629,8|0,1:3|0:2,0:0:0:0:
303,319,48877,1,2,0:2:0:0:
298,354,48985,1,0,0:2:0:0:
207,308,49092,5,8,0:2:0:0:
298,225,49235,1,0,0:2:0:0:
282,228,49306,1,2,0:2:0:0:
227,172,49413,1,0,0:2:0:0:
122,237,49520,5,8,1:3:0:0:
127,272,49627,1,0,0:2:0:0:
87,349,49735,1,2,0:2:0:0:
92,384,49842,1,0,0:2:0:0:
195,352,49949,5,8,0:2:0:0:
290,312,50092,1,0,0:2:0:0:
274,309,50163,1,2,0:2:0:0:
228,245,50270,1,0,0:2:0:0:
348,200,50377,5,8,1:3:0:0:
343,235,50485,1,0,0:2:0:0:
383,312,50592,1,2,0:2:0:0:
378,347,50699,1,0,0:2:0:0:
476,299,50806,5,8,0:2:0:0:
437,182,50949,1,0,0:2:0:0:
434,198,51020,1,2,0:2:0:0:
371,244,51127,1,0,0:2:0:0:
346,113,51235,5,8,1:3:0:0:
340,148,51342,1,0,0:2:0:0:
321,178,51449,1,2,0:2:0:0:
292,200,51556,1,0,0:2:0:0:
254,118,51663,5,12,0:2:0:0:
214,233,51806,1,0,0:2:0:0:
211,217,51877,1,2,0:2:0:0:
146,172,51985,1,0,0:2:0:0:
108,319,52092,6,0,L|97:385,1,51.999997619629,8|0,1:3|0:2,0:0:0:0:
73,190,52306,1,2,0:2:0:0:
68,225,52413,1,0,0:2:0:0:
192,277,52520,5,8,0:0:0:0:
248,162,52663,1,0,0:2:0:0:
251,178,52735,1,2,0:2:0:0:
316,223,52842,1,0,0:2:0:0:
347,85,52949,6,0,L|336:19,1,51.999997619629,8|0,1:3|0:2,0:0:0:0:
430,194,53163,1,2,0:2:0:0:
425,159,53270,1,0,0:2:0:0:
316,223,53377,5,8,0:2:0:0:
449,270,53520,1,0,0:2:0:0:
433,273,53592,1,2,0:2:0:0:
388,338,53699,1,0,0:2:0:0:
395,173,53806,6,0,L|406:107,1,51.999997619629,8|0,1:3|0:2,0:0:0:0:
295,342,54020,2,0,L|306:276,1,51.999997619629,2|0,0:2|0:2,0:0:0:0:
268,145,54235,5,8,0:2:0:0:
223,280,54377,1,0,0:2:0:0:
220,264,54449,1,2,0:2:0:0:
164,208,54556,1,0,0:2:0:0:
225,72,54663,5,8,1:3:0:0:
207,104,54770,1,0,0:2:0:0:
178,126,54877,1,2,0:2:0:0:
142,134,54985,1,0,0:2:0:0:
40,98,55092,6,0,B|34:62|34:62|50:36|50:36|40:-20,2,103.999995239258,12|0|8,0:2|0:2|0:3,0:0:0:0:
189,145,55735,1,0,0:2:0:0:
44,203,55949,1,0,3:2:0:0:
140,242,56092,1,0,0:2:0:0:
140,242,56163,1,0,0:2:0:0:
71,279,56270,1,0,0:2:0:0:
191,317,56377,5,8,0:3:0:0:
154,315,56485,1,0,0:2:0:0:
120,329,56592,1,0,0:2:0:0:
94,355,56699,1,0,0:2:0:0:
8,265,56806,6,0,L|19:199,1,51.999997619629,8|0,0:2|0:0,0:0:0:0:
76,76,57020,2,0,L|87:10,1,51.999997619629,10|0,0:2|0:2,0:0:0:0:
102,256,57235,2,0,L|113:190,1,51.999997619629,8|0,0:2|0:2,0:0:0:0:
170,67,57449,2,0,L|181:1,1,51.999997619629,10|0,0:2|0:2,0:0:0:0:
224,200,57663,5,10,0:2:0:0:
224,200,57877,2,0,B|260:194|260:194|286:210|286:210|342:200,2,103.999995239258,10|10|10,0:1|0:1|0:1,0:0:0:0:
501,285,58520,5,12,0:2:0:0:
402,238,58663,1,0,0:2:0:0:
418,235,58735,1,2,0:2:0:0:
464,171,58842,1,0,0:2:0:0:
326,146,58949,6,0,L|337:212,1,51.999997619629,8|0,1:3|0:2,0:0:0:0:
360,11,59163,2,0,L|371:77,1,51.999997619629,2|0,0:2|0:2,0:0:0:0:
249,193,59377,5,8,0:0:0:0:
371,266,59520,1,0,0:2:0:0:
355,269,59592,1,2,0:2:0:0:
309,333,59699,1,0,0:2:0:0:
333,186,59806,6,0,L|322:120,1,51.999997619629,8|0,1:3|0:2,0:0:0:0:
258,64,60020,2,0,L|247:-2,1,51.999997619629,2|0,0:2|0:2,0:0:0:0:
135,148,60235,5,8,0:2:0:0:
249,193,60377,1,0,0:2:0:0:
233,196,60449,1,2,0:2:0:0:
187,260,60556,1,0,0:2:0:0:
315,305,60663,6,0,L|326:239,1,51.999997619629,8|0,1:3|0:2,0:0:0:0:
314,119,60877,2,0,L|325:53,1,51.999997619629,2|0,0:2|0:2,0:0:0:0:
249,193,61092,5,8,0:2:0:0:
223,60,61235,1,0,0:2:0:0:
220,76,61306,1,2,0:2:0:0:
156,122,61413,1,0,0:2:0:0:
180,264,61520,5,8,1:3:0:0:
169,229,61627,1,0,0:2:0:0:
142,205,61735,1,2,0:2:0:0:
107,193,61842,1,0,0:2:0:0:
1,235,61949,5,8,0:2:0:0:
27,368,62092,1,0,0:2:0:0:
30,352,62163,1,2,0:2:0:0:
94,306,62270,1,0,0:2:0:0:
134,178,62377,6,0,L|142:229,1,51.999997619629,8|0,1:3|0:2,0:0:0:0:
209,319,62592,1,2,0:2:0:0:
214,354,62699,1,0,0:2:0:0:
305,308,62806,5,8,0:2:0:0:
214,225,62949,1,0,0:2:0:0:
230,228,63020,1,2,0:2:0:0:
285,172,63127,1,0,0:2:0:0:
390,237,63235,5,8,1:3:0:0:
385,272,63342,1,0,0:2:0:0:
425,349,63449,1,2,0:2:0:0:
420,384,63556,1,0,0:2:0:0:
317,352,63663,5,8,0:2:0:0:
222,312,63806,1,0,0:2:0:0:
238,309,63877,1,2,0:2:0:0:
284,245,63985,1,0,0:2:0:0:
164,200,64092,5,8,1:3:0:0:
169,235,64199,1,0,0:2:0:0:
129,312,64306,1,2,0:2:0:0:
134,347,64413,1,0,0:2:0:0:
36,299,64520,5,8,0:2:0:0:
75,182,64663,1,0,0:2:0:0:
78,198,64735,1,2,0:2:0:0:
141,244,64842,1,0,0:2:0:0:
166,113,64949,5,8,1:3:0:0:
172,148,65056,1,0,0:2:0:0:
191,178,65163,1,2,0:2:0:0:
220,200,65270,1,0,0:2:0:0:
258,118,65377,5,8,0:2:0:0:
298,233,65520,1,0,0:2:0:0:
301,217,65592,1,2,0:2:0:0:
366,172,65699,1,0,0:2:0:0:
404,319,65806,6,0,L|415:385,1,51.999997619629,8|0,1:3|0:2,0:0:0:0:
439,190,66020,1,2,0:2:0:0:
444,225,66127,1,0,0:2:0:0:
320,277,66235,5,8,0:0:0:0:
264,162,66377,1,0,0:2:0:0:
261,178,66449,1,2,0:2:0:0:
196,223,66556,1,0,0:2:0:0:
165,85,66663,6,0,L|176:19,1,51.999997619629,8|0,1:3|0:2,0:0:0:0:
82,194,66877,1,2,0:2:0:0:
87,159,66985,1,0,0:2:0:0:
196,223,67092,5,12,0:2:0:0:
63,270,67235,1,0,0:2:0:0:
79,273,67306,1,2,0:2:0:0:
124,338,67413,1,0,0:2:0:0:
117,173,67520,6,0,L|106:107,1,51.999997619629,8|0,1:3|0:2,0:0:0:0:
217,342,67735,2,0,L|206:276,1,51.999997619629,2|0,0:2|0:2,0:0:0:0:
244,145,67949,5,8,0:2:0:0:
289,280,68092,1,0,0:2:0:0:
292,264,68163,1,2,0:2:0:0:
348,208,68270,1,0,0:2:0:0:
287,72,68377,5,8,1:3:0:0:
305,104,68485,1,0,0:2:0:0:
334,126,68592,1,2,0:2:0:0:
370,134,68699,1,0,0:2:0:0:
509,88,68806,5,12,0:2:0:0:
471,204,68949,1,0,0:2:0:0:
468,188,69020,1,2,0:2:0:0:
412,132,69127,1,0,0:2:0:0:
369,272,69235,6,0,L|435:283,1,51.999997619629,8|0,1:3|0:2,0:0:0:0:
218,316,69449,1,0,0:2:0:0:
253,321,69556,1,0,0:2:0:0:
292,236,69663,5,8,3:2:0:0:
176,198,69806,1,0,0:2:0:0:
192,195,69877,1,2,0:2:0:0:
248,139,69985,1,0,0:2:0:0:
223,281,70092,5,8,1:3:0:0:
218,316,70199,1,0,0:2:0:0:
136,349,70306,1,0,0:2:0:0:
131,384,70413,1,0,0:2:0:0:
58,284,70520,5,12,0:2:0:0:
53,319,70627,1,0,0:0:0:0:
18,314,70735,1,2,0:2:0:0:
23,279,70842,1,0,0:2:0:0:
106,211,70949,5,0,0:3:0:0:
111,176,71056,1,0,0:2:0:0:
151,287,71163,1,2,0:2:0:0:
146,322,71270,1,0,0:2:0:0:
220,384,71377,5,2,0:2:0:0:
220,384,71592,2,0,L|231:318,1,51.999997619629,10|0,0:1|0:2,0:0:0:0:
320,217,71806,2,0,L|331:151,1,51.999997619629,10|0,0:1|0:2,0:0:0:0:
398,356,72020,2,0,L|409:290,1,51.999997619629,10|0,0:1|0:2,0:0:0:0:
404,177,72235,5,8,0:2:0:0:
379,173,72342,1,0,0:2:0:0:
353,169,72449,1,0,0:2:0:0:
328,165,72556,1,0,0:2:0:0:
248,238,72663,5,8,0:2:0:0:
223,234,72770,1,0,0:2:0:0:
197,230,72877,1,0,0:2:0:0:
172,226,72985,1,0,0:2:0:0:
210,318,73092,5,8,0:2:0:0:
185,314,73199,1,0,0:2:0:0:
299,381,73306,5,8,0:2:0:0:
274,377,73413,1,0,0:2:0:0:
365,236,73520,6,0,P|350:300|461:283,1,204.000003890991,2|0,0:2|0:2,0:0:0:0:
490,194,73949,5,12,0:2:0:0:
388,151,74092,1,0,0:2:0:0:
404,148,74163,1,2,0:2:0:0:
489,24,74377,5,0,1:2:0:0:
460,44,74485,1,0,0:2:0:0:
425,51,74592,1,0,0:2:0:0:
390,43,74699,1,0,0:2:0:0:
299,113,74806,6,0,L|288:179,1,51.999997619629,8|0,0:2|0:2,0:0:0:0:
361,304,75020,2,0,L|353:356,1,51.999997619629,2|0,0:2|0:2,0:0:0:0:
388,151,75235,2,0,L|377:217,1,51.999997619629,0|0,1:2|0:2,0:0:0:0:
264,318,75449,2,0,L|255:369,1,51.999997619629,2|0,0:2|0:2,0:0:0:0:
411,311,75663,5,8,0:2:0:0:
309,268,75806,1,0,0:2:0:0:
325,265,75877,1,2,0:2:0:0:
509,181,76092,6,0,L|458:173,1,51.999997619629,0|0,1:2|0:2,0:0:0:0:
314,183,76306,2,0,L|263:175,1,51.999997619629,2|0,0:2|0:2,0:0:0:0:
346,28,76520,5,8,0:2:0:0:
389,130,76663,1,0,0:2:0:0:
392,114,76735,1,2,0:2:0:0:
203,127,76949,1,0,1:2:0:0:
203,127,77163,1,0,0:2:0:0:
331,227,77377,5,8,0:2:0:0:
229,270,77520,1,0,0:2:0:0:
245,273,77592,1,2,0:2:0:0:
384,335,77806,5,0,1:2:0:0:
389,370,77913,1,0,0:2:0:0:
431,279,78020,1,2,0:2:0:0:
261,183,78235,5,8,0:2:0:0:
394,149,78377,1,0,0:2:0:0:
378,146,78449,1,2,0:2:0:0:
263,44,78663,6,0,L|274:110,1,51.999997619629,0|0,1:2|0:2,0:0:0:0:
349,224,78877,2,0,L|360:290,1,51.999997619629,2|0,0:2|0:2,0:0:0:0:
228,259,79092,5,8,0:2:0:0:
179,157,79235,1,0,0:2:0:0:
176,173,79306,1,2,0:2:0:0:
94,365,79520,6,0,L|105:299,1,51.999997619629,0|0,1:2|0:2,0:0:0:0:
71,169,79735,2,0,L|79:118,1,51.999997619629,2|0,0:2|0:2,0:0:0:0:
155,67,79949,5,8,0:2:0:0:
36,11,80092,1,0,0:2:0:0:
52,8,80163,1,2,0:2:0:0:
71,169,80377,6,0,B|65:205|65:205|81:231|81:231|71:287,1,103.999995239258,0|0,1:2|0:2,0:0:0:0:
198,59,80806,5,12,0:2:0:0:
155,161,80949,1,0,0:2:0:0:
152,145,81020,1,2,0:2:0:0:
143,274,81235,5,0,1:2:0:0:
172,254,81342,1,0,0:2:0:0:
207,247,81449,1,0,0:2:0:0:
242,255,81556,1,0,0:2:0:0:
319,354,81663,6,0,L|308:288,1,51.999997619629,8|0,0:2|0:2,0:0:0:0:
381,163,81877,2,0,L|373:111,1,51.999997619629,2|0,0:2|0:2,0:0:0:0:
408,316,82092,2,0,L|397:250,1,51.999997619629,0|0,1:2|0:2,0:0:0:0:
284,149,82306,2,0,L|275:98,1,51.999997619629,2|0,0:2|0:2,0:0:0:0:
238,260,82520,5,8,0:2:0:0:
356,217,82663,1,0,0:2:0:0:
340,214,82735,1,2,0:2:0:0:
379,331,82949,5,0,1:2:0:0:
384,366,83056,1,0,0:2:0:0:
426,275,83163,1,2,0:2:0:0:
284,149,83377,5,8,0:2:0:0:
241,276,83520,1,0,0:2:0:0:
238,260,83592,1,2,0:2:0:0:
146,80,83806,5,0,1:2:0:0:
141,115,83913,1,0,0:0:0:0:
62,70,84020,2,0,L|51:4,1,51.999997619629,0|0,0:2|0:0,0:0:0:0:
195,177,84235,5,12,0:2:0:0:
83,208,84377,1,0,0:2:0:0:
99,211,84449,1,2,0:2:0:0:
255,275,84663,5,0,3:3:0:0:
220,284,84770,1,0,0:2:0:0:
192,305,84877,1,0,0:2:0:0:
179,338,84985,1,0,0:2:0:0:
313,365,85092,5,0,0:2:0:0:
348,238,85235,1,0,0:2:0:0:
351,254,85306,1,2,0:2:0:0:
443,384,85520,6,0,L|432:318,1,51.999997619629,0|0,3:2|0:2,0:0:0:0:
457,206,85735,2,0,L|446:140,1,51.999997619629,0|0,0:2|0:2,0:0:0:0:
279,85,85949,5,0,3:2:0:0:
284,50,86056,1,0,0:2:0:0:
378,186,86163,5,0,3:2:0:0:
383,221,86270,1,0,0:2:0:0:
275,270,86377,6,0,L|280:239,2,25.9999988098145,0|0|0,3:2|0:2|0:2,0:0:0:0:
334,128,86592,5,0,3:2:0:0:
339,163,86699,1,0,0:2:0:0:
371,43,86806,6,0,L|340:38,2,25.9999988098145,0|0|0,3:2|0:2|0:2,0:0:0:0:
227,130,87020,2,0,L|258:125,2,25.9999988098145,8|0|0,0:1|0:2|0:2,0:0:0:0:
200,16,87235,6,0,P|202:104|110:83,1,204.000003890991,8|0,0:1|0:2,0:0:0:0:
7,168,87663,5,12,0:2:0:0:
106,215,87806,1,0,0:2:0:0:
90,218,87877,1,2,0:2:0:0:
44,282,87985,1,0,0:2:0:0:
127,368,88092,6,0,L|138:302,1,51.999997619629,8|0,1:3|0:2,0:0:0:0:
202,192,88306,1,2,0:2:0:0:
207,227,88413,1,0,0:2:0:0:
256,339,88520,5,8,0:0:0:0:
355,292,88663,1,0,0:2:0:0:
339,289,88735,1,2,0:2:0:0:
293,225,88842,1,0,0:2:0:0:
376,139,88949,6,0,L|387:205,1,51.999997619629,8|0,1:3|0:2,0:0:0:0:
466,323,89163,1,2,0:2:0:0:
471,288,89270,1,0,0:2:0:0:
488,191,89377,5,8,0:2:0:0:
443,77,89520,1,0,0:2:0:0:
440,93,89592,1,2,0:2:0:0:
376,139,89699,1,0,0:2:0:0:
331,12,89806,6,0,L|397:1,1,51.999997619629,8|0,1:3|0:2,0:0:0:0:
268,91,90020,1,2,0:2:0:0:
233,86,90127,1,0,0:2:0:0:
376,139,90235,5,8,0:2:0:0:
262,184,90377,1,0,0:2:0:0:
278,187,90449,1,2,0:2:0:0:
324,251,90556,1,0,0:2:0:0:
445,254,90663,5,8,1:3:0:0:
440,219,90770,1,0,0:2:0:0:
405,224,90877,1,2,0:2:0:0:
410,259,90985,1,0,0:2:0:0:
324,325,91092,5,8,0:2:0:0:
298,192,91235,1,0,0:2:0:0:
295,208,91306,1,2,0:2:0:0:
231,254,91413,1,0,0:2:0:0:
191,382,91520,6,0,L|183:331,1,51.999997619629,8|0,1:3|0:2,0:0:0:0:
116,241,91735,1,2,0:2:0:0:
111,206,91842,1,0,0:2:0:0:
199,216,91949,5,8,0:2:0:0:
106,122,92092,1,0,0:2:0:0:
122,125,92163,1,2,0:2:0:0:
177,69,92270,1,0,0:2:0:0:
269,186,92377,5,8,1:3:0:0:
274,221,92485,1,0,0:2:0:0:
334,295,92592,1,2,0:2:0:0:
339,330,92699,1,0,0:2:0:0:
257,380,92806,5,8,0:2:0:0:
217,285,92949,1,0,0:2:0:0:
214,301,93020,1,2,0:2:0:0:
150,347,93127,1,0,0:2:0:0:
141,234,93235,5,8,1:3:0:0:
146,199,93342,1,0,0:2:0:0:
106,122,93449,1,2,0:2:0:0:
111,87,93556,1,0,0:2:0:0:
216,147,93663,5,8,0:2:0:0:
255,264,93806,1,0,0:2:0:0:
258,248,93877,1,2,0:2:0:0:
321,202,93985,1,0,0:2:0:0:
333,342,94092,5,8,1:3:0:0:
338,307,94199,1,0,0:2:0:0:
373,312,94306,1,2,0:2:0:0:
368,347,94413,1,0,0:2:0:0:
512,279,94520,5,12,0:2:0:0:
397,239,94663,1,0,0:2:0:0:
413,236,94735,1,2,0:2:0:0:
458,171,94842,1,0,0:2:0:0:
290,141,94949,6,0,L|224:130,1,51.999997619629,8|0,1:3|0:2,0:0:0:0:
419,106,95163,1,2,0:2:0:0:
384,101,95270,1,0,0:2:0:0:
385,198,95377,5,8,0:0:0:0:
270,254,95520,1,0,0:2:0:0:
286,257,95592,1,2,0:2:0:0:
331,322,95699,1,0,0:2:0:0:
309,158,95806,6,0,L|298:92,1,51.999997619629,8|0,1:3|0:2,0:0:0:0:
395,279,96020,1,2,0:2:0:0:
390,244,96127,1,0,0:2:0:0:
451,157,96235,5,8,0:2:0:0:
360,15,96377,1,0,0:2:0:0:
357,31,96449,1,2,0:2:0:0:
292,76,96556,1,0,0:2:0:0:
430,124,96663,6,0,L|364:135,1,51.999997619629,8|0,1:3|0:2,0:0:0:0:
287,200,96877,1,2,0:2:0:0:
252,205,96985,1,0,0:2:0:0:
397,247,97092,5,8,0:2:0:0:
262,292,97235,1,0,0:2:0:0:
278,295,97306,1,2,0:2:0:0:
334,351,97413,1,0,0:2:0:0:
357,217,97520,5,8,1:3:0:0:
362,252,97627,1,0,0:2:0:0:
397,247,97735,1,2,0:2:0:0:
392,212,97842,1,0,0:2:0:0:
261,271,97949,6,0,B|267:307|267:307|251:333|251:333|261:389,2,103.999995239258,12|0|8,0:2|0:2|0:3,0:0:0:0:
112,224,98592,1,0,0:2:0:0:
257,166,98806,1,0,3:2:0:0:
161,127,98949,1,0,0:2:0:0:
161,127,99020,1,0,0:2:0:0:
230,90,99127,1,0,0:2:0:0:
110,52,99235,5,8,0:3:0:0:
147,54,99342,1,0,0:2:0:0:
181,40,99449,1,0,0:2:0:0:
207,14,99556,1,0,0:2:0:0:
265,121,99663,6,0,L|199:132,1,51.999997619629,8|0,0:2|0:0,0:0:0:0:
76,189,99877,2,0,L|10:200,1,51.999997619629,10|0,0:2|0:2,0:0:0:0:
256,215,100092,2,0,L|190:226,1,51.999997619629,8|0,0:0|0:2,0:0:0:0:
67,283,100306,2,0,L|1:294,1,51.999997619629,10|0,0:2|0:2,0:0:0:0:
138,113,100520,5,10,0:2:0:0:
138,113,100735,2,0,B|144:77|144:77|128:51|128:51|138:-5,2,103.999995239258,10|10|10,0:1|0:1|0:1,0:0:0:0:
176,275,101377,5,12,0:2:0:0:
210,144,101520,1,0,0:2:0:0:
213,160,101592,1,2,0:2:0:0:
277,206,101699,1,0,0:2:0:0:
113,210,101806,6,0,L|47:199,1,51.999997619629,8|0,1:3|0:2,0:0:0:0:
69,331,102020,1,2,0:2:0:0:
74,296,102127,1,0,0:2:0:0:
156,372,102235,5,8,0:0:0:0:
194,248,102377,1,0,0:2:0:0:
197,264,102449,1,2,0:2:0:0:
261,310,102556,1,0,0:2:0:0:
303,188,102663,6,0,L|237:177,1,51.999997619629,8|0,1:3|0:2,0:0:0:0:
298,62,102877,1,2,0:2:0:0:
293,97,102985,1,0,0:2:0:0:
381,234,103092,5,8,0:2:0:0:
257,272,103235,1,0,0:2:0:0:
273,275,103306,1,2,0:2:0:0:
319,339,103413,1,0,0:2:0:0:
330,172,103520,6,0,L|341:106,1,51.999997619629,8|0,1:3|0:2,0:0:0:0:
448,176,103735,1,2,0:2:0:0:
413,171,103842,1,0,0:2:0:0:
249,193,103949,5,8,0:2:0:0:
223,60,104092,1,0,0:2:0:0:
220,76,104163,1,2,0:2:0:0:
156,122,104270,1,0,0:2:0:0:
159,247,104377,5,8,1:3:0:0:
166,212,104485,1,0,0:2:0:0:
131,205,104592,1,2,0:2:0:0:
124,239,104699,1,0,0:2:0:0:
211,157,104806,5,8,0:2:0:0:
78,131,104949,1,0,0:2:0:0:
94,128,105020,1,2,0:2:0:0:
140,64,105127,1,0,0:2:0:0:
146,225,105235,6,0,L|154:276,1,51.999997619629,8|0,1:3|0:2,0:0:0:0:
33,270,105449,1,2,0:2:0:0:
68,265,105556,1,0,0:2:0:0:
199,353,105663,5,8,0:2:0:0:
247,224,105806,1,0,0:2:0:0:
249,240,105877,1,2,0:2:0:0:
311,288,105985,1,0,0:2:0:0:
341,164,106092,5,8,1:3:0:0:
306,159,106199,1,0,0:2:0:0:
227,94,106306,1,2,0:2:0:0:
192,89,106413,1,0,0:2:0:0:
197,188,106520,5,8,0:2:0:0:
90,84,106663,1,0,0:2:0:0:
106,81,106735,1,2,0:2:0:0:
152,17,106842,1,0,0:2:0:0:
122,183,106949,5,8,1:3:0:0:
127,218,107056,1,0,0:2:0:0:
93,316,107163,1,2,0:2:0:0:
98,351,107270,1,0,0:2:0:0:
8,270,107377,5,8,0:2:0:0:
56,121,107520,1,0,0:2:0:0:
59,137,107592,1,2,0:2:0:0:
122,183,107699,1,0,0:2:0:0:
85,281,107806,5,8,1:3:0:0:
120,274,107913,1,0,0:2:0:0:
127,309,108020,1,2,0:2:0:0:
93,316,108127,1,0,0:2:0:0:
190,227,108235,5,8,0:2:0:0:
221,367,108377,1,0,0:2:0:0:
224,351,108449,1,2,0:2:0:0:
289,306,108556,1,0,0:2:0:0:
264,162,108663,6,0,L|275:228,1,51.999997619629,8|0,1:3|0:2,0:0:0:0:
386,172,108877,1,2,0:2:0:0:
351,177,108985,1,0,0:2:0:0:
441,239,109092,5,8,0:0:0:0:
312,277,109235,1,0,0:2:0:0:
328,280,109306,1,2,0:2:0:0:
373,345,109413,1,0,0:2:0:0:
504,273,109520,6,0,L|515:207,1,51.999997619629,8|0,1:3|0:2,0:0:0:0:
406,234,109735,1,2,0:2:0:0:
441,239,109842,1,0,0:2:0:0:
375,147,109949,5,12,0:2:0:0:
328,280,110092,1,0,0:2:0:0:
325,264,110163,1,2,0:2:0:0:
260,219,110270,1,0,0:2:0:0:
209,333,110377,6,0,L|220:399,1,51.999997619629,8|0,1:3|0:2,0:0:0:0:
101,378,110592,1,2,0:2:0:0:
136,373,110699,1,0,0:2:0:0:
287,291,110806,5,8,0:2:0:0:
124,261,110949,1,0,0:2:0:0:
140,258,111020,1,2,0:2:0:0:
196,202,111127,1,0,0:2:0:0:
209,333,111235,5,8,1:3:0:0:
215,368,111342,1,0,0:2:0:0:
179,373,111449,1,2,0:2:0:0:
174,338,111556,1,0,0:2:0:0:
273,248,111663,5,12,0:2:0:0:
311,364,111806,1,0,0:2:0:0:
314,348,111877,1,2,0:2:0:0:
370,292,111985,1,0,0:2:0:0:
316,173,112092,6,0,L|250:162,1,51.999997619629,8|0,1:3|0:2,0:0:0:0:
307,54,112306,1,0,0:2:0:0:
302,89,112413,1,0,0:2:0:0:
214,217,112520,5,8,3:2:0:0:
176,101,112663,1,0,0:2:0:0:
173,117,112735,1,2,0:2:0:0:
117,173,112842,1,0,0:2:0:0:
281,153,112949,5,8,1:3:0:0:
316,148,113056,1,0,0:2:0:0:
320,266,113163,1,0,0:2:0:0:
315,231,113270,1,0,0:2:0:0:
209,301,113377,5,12,0:2:0:0:
214,336,113485,1,0,0:0:0:0:
249,331,113592,1,2,0:2:0:0:
244,296,113699,1,0,0:2:0:0:
137,334,113806,5,0,0:3:0:0:
102,339,113913,1,0,0:2:0:0:
101,220,114020,1,2,0:2:0:0:
106,255,114127,1,0,0:2:0:0:
189,227,114235,5,0,0:2:0:0:
189,227,114449,2,0,L|255:216,1,51.999997619629,8|0,0:1|0:2,0:0:0:0:
384,125,114663,2,0,L|450:114,1,51.999997619629,8|0,0:1|0:2,0:0:0:0:
219,63,114877,2,0,L|285:52,1,51.999997619629,8|0,0:1|0:2,0:0:0:0:
363,234,115092,5,12,0:2:0:0:
242,301,115235,1,0,0:2:0:0:
258,304,115306,1,2,0:2:0:0:
423,357,115520,1,0,1:2:0:0:
276,196,115735,5,2,0:2:0:0:
271,231,115842,1,0,0:0:0:0:
175,201,115949,6,0,L|206:206,2,25.9999988098145,8|0|0,0:2|0:0|0:0,0:0:0:0:
204,90,116163,5,2,0:2:0:0:
199,125,116270,1,0,0:0:0:0:
306,125,116377,5,0,1:2:0:0:
271,120,116485,1,0,0:2:0:0:
276,85,116592,1,2,0:2:0:0:
311,90,116699,1,0,0:2:0:0:
373,48,116806,5,8,0:2:0:0:
498,99,116949,1,0,0:2:0:0:
482,102,117020,1,2,0:2:0:0:
360,194,117235,1,0,1:2:0:0:
360,194,117449,1,2,0:2:0:0:
503,344,117663,5,8,0:2:0:0:
458,211,117806,1,0,0:2:0:0:
455,227,117877,1,2,0:2:0:0:
400,282,117985,1,0,0:0:0:0:
288,353,118092,5,0,1:2:0:0:
323,348,118199,1,0,0:2:0:0:
318,313,118306,1,2,0:2:0:0:
283,318,118413,1,0,0:2:0:0:
225,245,118520,5,8,0:2:0:0:
179,368,118663,1,0,0:2:0:0:
176,352,118735,1,2,0:2:0:0:
93,207,118949,5,0,1:2:0:0:
88,242,119056,1,0,0:2:0:0:
135,134,119163,2,0,L|69:123,1,51.999997619629,2|0,0:2|0:0,0:0:0:0:
26,345,119377,5,8,0:2:0:0:
159,300,119520,1,0,0:2:0:0:
143,297,119592,1,2,0:2:0:0:
88,242,119699,1,0,0:0:0:0:
225,192,119806,5,0,1:2:0:0:
220,227,119913,1,0,0:2:0:0:
185,222,120020,1,2,0:2:0:0:
190,187,120127,1,0,0:2:0:0:
289,130,120235,5,8,0:2:0:0:
314,255,120377,1,0,0:2:0:0:
317,239,120449,1,2,0:2:0:0:
380,192,120556,1,0,0:0:0:0:
380,332,120663,5,0,1:2:0:0:
345,327,120770,1,0,0:2:0:0:
448,262,120877,1,2,0:2:0:0:
483,257,120985,1,0,0:0:0:0:
380,192,121092,5,8,0:2:0:0:
512,166,121235,1,0,0:2:0:0:
496,163,121306,1,2,0:2:0:0:
449,100,121413,1,0,0:0:0:0:
333,102,121520,5,0,1:2:0:0:
338,67,121627,1,0,0:2:0:0:
373,72,121735,1,2,0:2:0:0:
368,107,121842,1,0,0:2:0:0:
264,163,121949,5,8,0:2:0:0:
396,189,122092,1,0,0:2:0:0:
380,192,122163,1,2,0:2:0:0:
449,303,122377,5,0,1:2:0:0:
484,308,122485,1,0,0:2:0:0:
488,180,122592,2,0,L|477:246,1,51.999997619629,2|0,0:2|0:0,0:0:0:0:
345,377,122806,5,8,0:2:0:0:
320,252,122949,1,0,0:2:0:0:
317,268,123020,1,2,0:2:0:0:
254,315,123127,1,0,0:0:0:0:
213,188,123235,5,0,1:2:0:0:
248,193,123342,1,0,0:2:0:0:
243,228,123449,1,2,0:2:0:0:
208,223,123556,1,0,0:2:0:0:
160,107,123663,5,12,0:2:0:0:
128,260,123806,1,0,0:2:0:0:
125,244,123877,1,2,0:2:0:0:
62,197,123985,1,0,0:0:0:0:
55,319,124092,5,0,1:2:0:0:
90,324,124199,1,0,0:2:0:0:
1,362,124306,1,2,0:2:0:0:
161,161,124520,5,8,0:2:0:0:
193,314,124663,1,0,0:2:0:0:
196,298,124735,1,2,0:2:0:0:
259,251,124842,1,0,0:0:0:0:
288,366,124949,5,0,1:2:0:0:
293,331,125056,1,0,0:2:0:0:
328,336,125163,1,2,0:2:0:0:
323,371,125270,1,0,0:2:0:0:
407,313,125377,5,8,0:2:0:0:
259,251,125520,1,0,0:2:0:0:
275,248,125592,1,2,0:2:0:0:
443,188,125806,5,0,1:2:0:0:
448,223,125913,1,0,0:2:0:0:
403,119,126020,2,0,L|469:108,1,51.999997619629,2|0,0:2|0:0,0:0:0:0:
351,15,126235,5,8,0:2:0:0:
319,168,126377,1,0,0:2:0:0:
316,152,126449,1,2,0:2:0:0:
253,105,126556,1,0,0:0:0:0:
244,236,126663,5,0,1:2:0:0:
239,201,126770,1,0,0:2:0:0:
204,206,126877,1,2,0:2:0:0:
209,241,126985,1,0,0:2:0:0:
156,320,127092,5,12,0:2:0:0:
161,355,127199,1,0,0:0:0:0:
79,231,127306,5,2,0:2:0:0:
84,196,127413,1,0,0:0:0:0:
160,275,127520,5,0,0:0:0:0:
125,280,127627,1,0,0:2:0:0:
58,333,127735,5,2,0:2:0:0:
23,328,127842,1,0,0:0:0:0:
135,376,127949,5,0,0:0:0:0:
135,376,128163,2,0,B|171:370|171:370|197:386|197:386|253:376,2,103.999995239258,8|8|8,0:1|0:1|0:1,0:0:0:0:
135,376,128806,1,4,0:0:0:0:
90,84,135663,5,4,3:2:0:0:
129,220,135806,1,0,0:2:0:0:
132,204,135877,1,2,0:2:0:0:
157,335,136092,6,0,L|105:343,1,51.999997619629,8|0,0:3|0:2,0:0:0:0:
273,265,136306,2,0,L|221:273,1,51.999997619629,0|0,0:2|0:2,0:0:0:0:
314,180,136520,5,0,3:2:0:0:
353,316,136663,1,0,0:2:0:0:
356,300,136735,1,2,0:2:0:0:
462,210,136949,6,0,L|470:261,1,51.999997619629,8|0,0:3|0:2,0:0:0:0:
385,85,137163,2,0,L|393:136,1,51.999997619629,0|0,0:2|0:2,0:0:0:0:
359,231,137377,5,0,3:2:0:0:
223,192,137520,1,0,0:2:0:0:
239,189,137592,1,2,0:2:0:0:
173,314,137806,6,0,L|239:325,1,51.999997619629,8|0,0:3|0:2,0:0:0:0:
36,240,138020,2,0,L|102:251,1,51.999997619629,0|0,0:2|0:2,0:0:0:0:
162,192,138235,5,0,3:2:0:0:
105,349,138377,1,0,0:2:0:0:
102,333,138449,1,2,0:2:0:0:
234,212,138663,5,8,0:3:0:0:
269,217,138770,1,0,0:2:0:0:
264,252,138877,1,0,0:2:0:0:
229,247,138985,1,0,0:2:0:0:
275,144,139092,5,0,3:2:0:0:
411,105,139235,1,0,0:2:0:0:
395,102,139306,1,2,0:2:0:0:
363,321,139520,6,0,B|357:285|357:285|373:259|373:259|363:203,1,103.999995239258,8|0,0:3|0:2,0:0:0:0:
360,186,139842,1,0,0:2:0:0:
286,237,139949,5,0,3:2:0:0:
247,373,140092,1,0,0:2:0:0:
244,357,140163,1,2,0:2:0:0:
188,186,140377,6,0,L|199:252,1,51.999997619629,8|0,0:3|0:2,0:0:0:0:
314,322,140592,2,0,L|323:374,1,51.999997619629,0|0,0:2|0:2,0:0:0:0:
422,365,140806,5,0,3:2:0:0:
508,249,141020,1,0,3:2:0:0:
424,130,141235,1,2,3:2:0:0:
286,173,141449,1,2,0:2:0:0:
285,317,141663,1,2,0:2:0:0:
384,246,141877,5,8,0:1:0:0:
384,246,142092,1,8,0:1:0:0:
320,11,142520,5,12,0:2:0:0:
270,121,142663,1,0,0:2:0:0:
267,105,142735,1,2,0:2:0:0:
203,59,142842,1,0,0:2:0:0:
179,183,142949,5,8,1:3:0:0:
214,188,143056,1,0,0:2:0:0:
180,293,143163,1,2,0:2:0:0:
185,258,143270,1,0,0:2:0:0:
230,364,143377,5,8,0:0:0:0:
280,254,143520,1,0,0:2:0:0:
283,270,143592,1,2,0:2:0:0:
347,316,143699,1,0,0:2:0:0:
374,194,143806,5,8,1:3:0:0:
339,189,143913,1,0,0:2:0:0:
454,227,144020,1,2,0:2:0:0:
459,192,144127,1,0,0:2:0:0:
368,116,144235,5,8,0:2:0:0:
482,71,144377,1,0,0:2:0:0:
466,68,144449,1,2,0:2:0:0:
420,4,144556,1,0,0:2:0:0:
440,148,144663,5,8,1:3:0:0:
445,183,144770,1,0,0:2:0:0:
410,273,144877,1,2,0:2:0:0:
415,308,144985,1,0,0:2:0:0:
499,266,145092,5,8,0:2:0:0:
309,229,145235,1,0,0:2:0:0:
325,226,145306,1,2,0:2:0:0:
371,162,145413,1,0,0:2:0:0:
253,150,145520,5,8,1:3:0:0:
288,145,145627,1,0,0:2:0:0:
283,110,145735,1,2,0:2:0:0:
248,115,145842,1,0,0:2:0:0:
199,213,145949,5,8,0:2:0:0:
173,80,146092,1,0,0:2:0:0:
170,96,146163,1,2,0:2:0:0:
106,142,146270,1,0,0:2:0:0:
251,157,146377,5,8,1:3:0:0:
286,162,146485,1,0,0:2:0:0:
254,271,146592,1,2,0:2:0:0:
259,236,146699,1,0,0:2:0:0:
340,267,146806,5,8,0:2:0:0:
382,134,146949,1,0,0:2:0:0:
385,150,147020,1,2,0:2:0:0:
452,190,147127,1,0,0:2:0:0:
449,303,147235,5,8,1:3:0:0:
414,308,147342,1,0,0:2:0:0:
334,357,147449,1,2,0:2:0:0:
299,362,147556,1,0,0:2:0:0:
230,261,147663,5,8,0:2:0:0:
192,380,147806,1,0,0:2:0:0:
189,364,147877,1,2,0:2:0:0:
125,318,147985,1,0,0:2:0:0:
155,233,148092,5,8,1:3:0:0:
120,228,148199,1,0,0:2:0:0:
43,268,148306,1,2,0:2:0:0:
8,263,148413,1,0,0:2:0:0:
42,162,148520,5,8,0:2:0:0:
183,132,148663,1,0,0:2:0:0:
167,129,148735,1,2,0:2:0:0:
121,66,148842,1,0,0:2:0:0:
254,24,148949,5,8,1:3:0:0:
249,59,149056,1,0,0:2:0:0:
214,54,149163,1,2,0:2:0:0:
219,19,149270,1,0,0:2:0:0:
287,160,149377,5,8,0:2:0:0:
334,30,149520,1,0,0:2:0:0:
337,46,149592,1,2,0:2:0:0:
402,91,149699,1,0,0:2:0:0:
351,198,149806,5,8,1:3:0:0:
356,233,149913,1,0,0:2:0:0:
466,200,150020,1,2,0:2:0:0:
431,205,150127,1,0,0:2:0:0:
461,287,150235,5,8,0:0:0:0:
342,316,150377,1,0,0:2:0:0:
358,319,150449,1,2,0:2:0:0:
403,384,150556,1,0,0:2:0:0:
280,382,150663,5,8,1:3:0:0:
275,347,150770,1,0,0:2:0:0:
167,384,150877,1,2,0:2:0:0:
202,379,150985,1,0,0:2:0:0:
167,304,151092,5,12,0:2:0:0:
297,257,151235,1,0,0:2:0:0:
281,254,151306,1,2,0:2:0:0:
236,189,151413,1,0,0:2:0:0:
374,173,151520,5,8,1:3:0:0:
369,208,151627,1,0,0:2:0:0:
486,207,151735,1,2,0:2:0:0:
451,202,151842,1,0,0:2:0:0:
300,134,151949,5,8,0:2:0:0:
435,89,152092,1,0,0:2:0:0:
419,86,152163,1,2,0:2:0:0:
363,30,152270,1,0,0:2:0:0:
374,173,152377,5,8,1:3:0:0:
369,208,152485,1,0,0:2:0:0:
334,203,152592,1,2,0:2:0:0:
339,168,152699,1,0,0:2:0:0:
277,248,152806,5,12,0:2:0:0:
251,115,152949,1,0,0:2:0:0:
248,131,153020,1,2,0:2:0:0:
184,177,153127,1,0,0:2:0:0:
339,168,153235,5,8,1:3:0:0:
374,173,153342,1,0,0:2:0:0:
342,282,153449,1,2,0:2:0:0:
347,247,153556,1,0,0:2:0:0:
397,94,153663,5,8,0:2:0:0:
439,227,153806,1,0,0:2:0:0:
442,211,153877,1,2,0:2:0:0:
509,171,153985,1,0,0:2:0:0:
506,303,154092,5,8,1:3:0:0:
471,308,154199,1,0,0:2:0:0:
391,357,154306,1,2,0:2:0:0:
356,362,154413,1,0,0:2:0:0:
397,267,154520,5,12,0:2:0:0:
432,272,154627,1,0,0:0:0:0:
308,190,154735,5,2,0:2:0:0:
273,195,154842,1,0,0:2:0:0:
352,271,154949,5,0,0:2:0:0:
357,236,155056,1,0,0:2:0:0:
410,169,155163,5,2,0:2:0:0:
405,134,155270,1,0,0:2:0:0:
453,246,155377,5,2,0:2:0:0:
453,246,155592,2,0,L|464:312,1,51.999997619629,8|0,0:1|0:2,0:0:0:0:
299,138,155806,2,0,L|310:204,1,51.999997619629,8|0,0:1|0:2,0:0:0:0:
253,333,156020,2,0,L|264:399,1,51.999997619629,8|0,0:1|0:2,0:0:0:0:
152,199,156235,5,12,0:2:0:0:
