osu file format v14

[General]
AudioFilename: audio.mp3
AudioLeadIn: 0
PreviewTime: 15654
Countdown: 0
SampleSet: Soft
StackLeniency: 0.6
Mode: 0
LetterboxInBreaks: 0
WidescreenStoryboard: 1

[Editor]
DistanceSpacing: 1.1
BeatDivisor: 4
GridSize: 32
TimelineZoom: 1

[Metadata]
Title:Koigokoro
TitleUnicode:恋ゴコロ
Artist:Primastella
ArtistUnicode:ぷりますてら
Creator:Trynna
Version:Hard
Source:ルーセントハート
Tags:icekalt net0 ataraxia testo cut short ver imai sena sakagami nao tsukishima komugi saiya noir korosuke lucent heart
BeatmapID:1610221
BeatmapSetID:750963

[Difficulty]
HPDrainRate:4.8
CircleSize:4
OverallDifficulty:6
ApproachRate:6.8
SliderMultiplier:1.5
SliderTickRate:1

[Events]
//Background and Video events
0,0,"trynnya attacks.jpg",0,0
//Break Periods
//Storyboard Layer 0 (Background)
//Storyboard Layer 1 (Fail)
//Storyboard Layer 2 (Pass)
//Storyboard Layer 3 (Foreground)
//Storyboard Sound Samples

[TimingPoints]
1940,428.571428571429,4,2,1,60,1,0
1940,-133.333333333333,4,2,1,60,0,0
8797,-111.111111111111,4,2,1,60,0,0
15225,-142.857142857143,4,2,1,60,0,0
15654,-100,4,2,1,75,0,1
29368,-100,4,2,2,75,0,1
30654,-142.857142857143,4,2,1,60,0,0
31082,-111.111111111111,4,2,1,60,0,0
44368,-142.857142857143,4,2,1,60,0,0
44797,-100,4,2,1,75,0,1
72225,-100,4,2,1,60,0,0

[Colours]
Combo1 : 255,255,255
Combo2 : 251,155,224
Combo3 : 248,139,142
Combo4 : 248,211,143
Combo5 : 184,241,120

[HitObjects]
80,124,1940,6,0,B|192:120,1,112.500004291535,4|2,0:0|0:0,0:0:0:0:
256,72,2582,1,0,0:0:0:0:
312,128,2797,2,0,P|315:155|313:183,1,56.2500021457673,2|2,0:0|0:0,0:0:0:0:
260,240,3225,2,0,P|256:267|258:295,1,56.2500021457673,0|2,0:0|0:0,0:0:0:0:
340,344,3654,6,0,B|380:345|412:352|412:352|424:332|420:312,2,112.500004291535,0|0|2,0:0|0:0|0:0,0:0:0:0:
184,356,4940,1,2,0:0:0:0:
72,244,5368,6,0,L|79:131,1,112.500004291535,0|0,0:0|0:0,0:0:0:0:
80,132,6225,2,0,P|120:136|144:132,1,56.2500021457673,2|2,0:0|0:0,0:0:0:0:
168,60,6654,2,0,P|140:55|112:58,1,56.2500021457673,0|2,0:0|0:0,0:0:0:0:
224,128,7082,5,0,0:0:0:0:
292,89,7297,1,2,0:0:0:0:
291,170,7511,1,0,0:0:0:0:
360,132,7725,1,0,0:0:0:0:
420,191,7940,2,0,P|424:248|420:304,1,112.500004291535,2|0,0:0|0:0,0:0:0:0:
420,304,8797,6,0,B|356:292|360:336|288:319,1,134.999995880127,2|8,0:3|0:0,0:0:0:0:
208,356,9440,1,0,0:0:0:0:
136,308,9654,2,0,P|135:275|138:241,1,67.4999979400635,2|2,0:0|0:0,0:0:0:0:
216,200,10082,2,0,P|219:233|218:267,1,67.4999979400635,8|2,0:0|0:0,0:0:0:0:
80,184,10511,5,0,0:0:0:0:
72,96,10725,1,2,0:0:0:0:
152,132,10940,1,8,0:0:0:0:
144,44,11154,1,0,0:0:0:0:
224,80,11368,2,0,B|328:84|328:84|303:102,1,134.999995880127,2|10,0:0|0:0,0:0:0:0:
456,20,12225,6,0,P|483:80|461:142,1,134.999995880127,4|8,0:0|0:0,0:0:0:0:
500,312,13082,1,0,0:0:0:0:
504,224,13297,1,2,0:0:0:0:
416,220,13511,1,8,0:0:0:0:
412,308,13726,1,2,0:0:0:0:
332,260,13940,6,0,P|298:261|266:271,1,67.4999979400635,2|2,0:0|0:0,0:0:0:0:
200,328,14368,2,0,P|166:326|134:316,1,67.4999979400635,8|2,0:0|0:0,0:0:0:0:
76,248,14797,1,2,0:0:0:0:
160,208,15011,1,8,0:1:0:0:
68,144,15225,6,0,L|68:65,1,78.7499975967408,8|0,0:1|0:0,0:0:0:0:
56,44,15654,6,0,B|132:24|128:68|203:52,1,150,4|2,2:1|1:2,0:0:0:0:
292,40,16297,1,2,0:0:0:0:
256,124,16511,2,0,P|252:163|256:200,1,75,0|2,0:0|0:0,0:0:0:0:
340,232,16940,2,0,P|344:195|340:158,1,75,0|2,1:0|0:0,0:0:0:0:
268,288,17368,5,0,0:0:0:0:
192,240,17582,1,2,0:0:0:0:
116,292,17797,1,0,1:0:0:0:
192,240,18011,1,0,0:0:0:0:
124,180,18225,2,0,B|123:125|123:125|112:88|112:88|112:32,1,150,2|0,0:0|1:0,0:0:0:0:
288,72,19082,6,0,B|344:88|344:88|433:69,1,150,4|0,0:0|1:0,0:0:0:0:
500,132,19725,1,0,0:0:0:0:
440,196,19940,2,0,P|435:234|440:271,1,75,2|2,0:0|0:0,0:0:0:0:
384,340,20368,2,0,P|345:335|309:340,1,75,0|2,1:0|0:0,0:0:0:0:
216,296,20797,5,0,1:0:0:0:
288,240,21011,1,2,1:2:0:0:
220,180,21225,2,0,L|220:105,1,75,0|2,0:0|1:2,0:0:0:0:
288,44,21654,2,0,P|220:15|153:45,1,150,2|0,0:0|1:0,0:0:0:0:
36,180,22511,6,0,L|39:329,1,150,6|2,0:0|1:2,0:0:0:0:
120,288,23154,1,2,0:0:0:0:
192,340,23368,2,0,L|272:340,1,75,0|2,0:0|0:0,0:0:0:0:
304,260,23797,2,0,L|224:260,1,75,0|2,1:0|0:0,0:0:0:0:
384,304,24225,5,4,0:0:0:0:
380,212,24440,1,2,0:0:0:0:
460,256,24654,1,0,1:0:0:0:
456,164,24869,1,0,0:0:0:0:
376,124,25082,2,0,B|288:124|288:124|272:148|291:182,1,150,2|0,0:0|1:0,0:0:0:0:
408,44,25940,6,0,L|258:44,1,150,4|2,0:1|0:0,0:0:0:0:
172,76,26582,1,8,0:0:0:0:
172,76,27011,1,8,0:0:0:0:
96,124,27225,1,2,0:0:0:0:
172,173,27440,1,2,0:0:0:0:
124,260,27654,6,0,L|124:335,1,75,0|0,1:0|1:0,0:0:0:0:
208,300,28082,2,0,P|244:303|283:300,1,75,0|0,1:0|1:0,0:0:0:0:
360,348,28511,1,0,0:0:0:0:
360,348,28725,1,8,0:0:0:0:
360,256,28940,1,8,1:0:0:0:
440,300,29154,1,0,0:0:0:0:
424,204,29368,6,0,P|359:171|293:203,1,150,8|8,0:0|0:0,0:0:0:0:
293,201,30225,2,0,L|218:197,1,75,8|8,0:0|0:0,0:0:0:0:
168,120,30654,6,0,L|84:124,1,78.7499975967408,2|0,0:3|0:3,0:0:0:0:
72,144,31082,6,0,P|77:177|73:210,1,67.4999979400635,4|2,0:0|0:0,0:0:0:0:
42,293,31511,2,0,P|99:283|153:297,1,101.249996910095,10|0,0:2|0:0,0:0:0:0:
140,291,31940,1,0,0:0:0:0:
212,340,32154,1,2,0:0:0:0:
289,298,32368,1,8,0:0:0:0:
215,249,32582,1,2,0:0:0:0:
296,198,32797,6,0,P|288:165|292:132,1,67.4999979400635,2|2,0:0|0:0,0:0:0:0:
254,52,33225,2,0,L|321:50,1,67.4999979400635,8|0,0:0|0:0,0:0:0:0:
211,125,33654,2,0,B|153:145|110:123|110:123|134:104,1,134.999995880127,2|8,0:0|0:0,0:0:0:0:
321,50,34511,6,0,B|390:33|388:75|453:60,1,134.999995880127,2|8,0:0|0:0,0:0:0:0:
446,235,35368,2,0,L|447:167,1,67.4999979400635,2|2,0:0|0:0,0:0:0:0:
366,199,35797,2,0,L|364:266,1,67.4999979400635,8|2,0:0|0:0,0:0:0:0:
428,326,36225,6,0,P|366:301|303:322,1,134.999995880127,0|8,0:0|0:0,0:0:0:0:
218,300,36868,1,0,0:0:0:0:
218,300,37082,2,0,L|150:307,1,67.4999979400635,2|0,0:0|0:0,0:0:0:0:
92,241,37511,2,0,P|112:214|121:182,1,67.4999979400635,8|0,0:0|0:0,0:0:0:0:
60,110,37940,6,0,P|122:130|183:103,1,134.999995880127,4|8,0:1|0:2,0:0:0:0:
256,68,38582,1,0,0:0:0:0:
329,101,38797,2,0,L|401:106,1,67.4999979400635,2|2,0:0|0:0,0:0:0:0:
431,33,39225,2,0,L|359:28,1,67.4999979400635,8|2,0:0|0:0,0:0:0:0:
473,139,39654,6,0,P|445:200|440:267,1,134.999995880127,0|8,0:0|0:0,0:0:0:0:
377,317,40297,1,0,0:0:0:0:
377,317,40511,2,0,L|309:314,1,67.4999979400635,2|0,0:0|0:0,0:0:0:0:
235,279,40940,2,0,L|232:346,1,67.4999979400635,8|0,0:2|0:0,0:0:0:0:
145,289,41368,6,0,B|79:284|87:327|16:320,1,134.999995880127,8|2,0:0|0:0,0:0:0:0:
44,160,42225,2,0,P|30:196|26:238,1,67.4999979400635,0|0,0:0|3:0,0:0:0:0:
130,168,42654,2,0,P|124:134|111:103,1,67.4999979400635,2|0,0:0|3:0,0:0:0:0:
172,50,43082,2,0,L|205:50,3,33.7499989700318,2|0|0|0,0:0|0:0|0:0|0:0,0:0:0:0:
232,32,43511,2,0,L|265:32,3,33.7499989700318,2|0|0|0,0:0|0:0|0:0|0:0,0:0:0:0:
289,53,43940,1,2,0:0:0:0:
366,30,44154,1,0,1:0:0:0:
446,57,44368,6,0,P|452:85|448:138,1,78.7499975967408,8|0,1:0|0:0,0:0:0:0:
463,159,44797,6,0,B|389:145|398:190|316:177,1,150,4|2,2:1|1:2,0:0:0:0:
257,245,45440,1,2,0:0:0:0:
319,309,45654,2,0,L|393:314,1,75,0|2,0:0|0:0,0:0:0:0:
199,311,46082,2,0,L|124:316,1,75,0|2,1:0|0:0,0:0:0:0:
58,237,46511,5,0,0:0:0:0:
146,221,46725,1,2,0:0:0:0:
132,131,46940,1,0,1:0:0:0:
44,147,47154,1,0,0:0:0:0:
152,142,47368,2,0,P|180:101|171:0,1,150,2|0,0:0|1:2,0:0:0:0:
334,82,48225,6,0,P|406:64|478:84,1,150,4|2,0:2|1:2,0:0:0:0:
434,163,48868,1,0,0:0:0:0:
484,237,49082,2,0,L|484:317,1,75,2|2,0:0|0:0,0:0:0:0:
393,314,49511,2,0,L|393:234,1,75,0|2,1:0|0:0,0:0:0:0:
296,275,49940,6,0,B|242:273|242:273|202:291|202:291|149:290,1,150,0|0,1:0|0:0,0:0:0:0:
66,257,50582,1,0,1:2:0:0:
134,198,50797,2,0,L|130:48,1,150,2|0,0:0|1:0,0:0:0:0:
301,102,51654,6,0,P|266:47|223:95,1,150,6|2,0:0|1:2,0:0:0:0:
256,179,52297,1,2,0:0:0:0:
345,169,52511,2,0,P|382:167|418:175,2,75,0|2|0,0:0|0:0|1:0,0:0:0:0:
313,253,53154,1,2,0:0:0:0:
356,340,53368,6,0,P|320:349|283:345,1,75,0|2,0:0|0:0,0:0:0:0:
194,359,53797,2,0,P|158:349|121:353,1,75,0|0,1:0|0:0,0:0:0:0:
57,290,54225,2,0,B|41:213|83:222|65:142,1,150,2|0,0:0|1:0,0:0:0:0:
220,49,55082,6,0,P|288:74|357:49,1,150,4|0,0:1|1:0,0:0:0:0:
443,76,55725,1,8,0:0:0:0:
379,140,55940,2,0,L|383:219,1,75,0|8,0:0|0:0,0:0:0:0:
441,283,56368,1,2,0:0:0:0:
351,292,56582,1,2,0:0:0:0:
276,341,56797,6,0,P|270:305|248:275,1,75,0|0,1:0|1:0,0:0:0:0:
158,275,57225,2,0,P|135:304|130:341,1,75,0|0,1:0|1:0,0:0:0:0:
204,205,57654,1,2,0:0:0:0:
204,205,57868,1,8,0:0:0:0:
206,115,58082,1,8,0:0:0:0:
128,160,58297,1,8,0:0:0:0:
126,63,58511,6,0,P|188:26|259:45,1,150,4|2,2:1|1:2,0:0:0:0:
346,71,59154,1,2,0:0:0:0:
421,22,59368,2,0,L|506:28,1,75,0|2,0:0|0:0,0:0:0:0:
497,117,59797,2,0,L|422:122,1,75,0|2,1:0|0:0,0:0:0:0:
376,207,60225,5,0,0:0:0:0:
296,165,60440,1,2,0:0:0:0:
221,215,60654,1,0,1:0:0:0:
301,257,60869,1,0,0:0:0:0:
244,326,61082,2,0,P|175:299|103:318,1,150,2|0,0:0|1:0,0:0:0:0:
41,142,61940,6,0,B|94:116|94:116|183:132,1,150,4|2,0:0|1:2,0:0:0:0:
263,93,62582,1,0,0:0:0:0:
344,130,62797,2,0,P|352:92|344:55,1,75,2|2,0:0|0:0,0:0:0:0:
431,96,63225,2,0,L|506:94,1,75,0|2,1:0|0:0,0:0:0:0:
470,187,63654,5,0,1:0:0:0:
406,251,63868,1,2,1:2:0:0:
470,313,64082,1,0,0:0:0:0:
406,251,64297,1,0,1:0:0:0:
336,308,64511,2,0,P|284:294|178:312,1,150,2|0,0:0|1:0,0:0:0:0:
48,194,65368,6,0,B|148:192|148:192|157:168|147:143,1,150,6|2,0:0|1:2,0:0:0:0:
116,66,66011,1,2,0:0:0:0:
197,74,66225,2,0,P|221:101|234:137,1,75,0|2,0:0|0:0,0:0:0:0:
316,135,66654,2,0,P|328:100|353:72,1,75,0|2,1:0|0:0,0:0:0:0:
440,33,67082,5,0,0:0:0:0:
445,115,67297,1,2,0:0:0:0:
496,179,67511,1,0,1:0:0:0:
414,187,67725,1,0,0:0:0:0:
460,254,67940,2,0,P|390:267|339:216,1,150,2|0,0:0|1:0,0:0:0:0:
209,318,68797,6,0,P|138:296|66:316,1,150,4|2,0:1|1:2,0:0:0:0:
14,252,69440,1,0,0:0:0:0:
76,197,69654,2,0,P|73:159|69:122,1,75,2|2,0:0|0:0,0:0:0:0:
25,52,70082,2,0,P|61:42|98:45,1,75,0|2,1:0|0:0,0:0:0:0:
184,93,70511,6,0,B|258:104|256:64|331:78,2,150,10|2|0,0:0|0:0|0:0,0:0:0:0:
153,169,71582,1,0,1:0:0:0:
193,241,71797,1,0,1:0:0:0:
154,313,72011,1,0,1:0:0:0:
243,353,72225,6,0,P|306:346|399:348,1,150,0|0,1:0|1:0,0:0:0:0:
373,183,73082,2,0,P|351:213|342:249,1,75,0|0,1:0|1:0,0:0:0:0:
424,247,73511,6,0,L|412:83,1,150,2|4,0:0|2:1,0:0:0:0:
