osu file format v14

[General]
AudioFilename: audio.mp3
AudioLeadIn: 0
PreviewTime: 128347
Countdown: 1
SampleSet: Soft
StackLeniency: 0.4
Mode: 0
LetterboxInBreaks: 0
WidescreenStoryboard: 0

[Editor]
Bookmarks: 13571,39285,52142,58571,64129,70557
DistanceSpacing: 2
BeatDivisor: 4
GridSize: 8
TimelineZoom: 1

[Metadata]
Title:in the Garden
TitleUnicode:in the Garden
Artist:Primary
ArtistUnicode:Primary
Creator:TenkaiPalm
Version:Extra
Source:
Tags:
BeatmapID:1227488
BeatmapSetID:579729

[Difficulty]
HPDrainRate:6
CircleSize:4
OverallDifficulty:8.6
ApproachRate:9.3
SliderMultiplier:1.8
SliderTickRate:1

[Events]
//Background and Video events
0,0,"asdf.jpg",0,0
//Break Periods
2,87699,96856
2,157610,166499
//Storyboard Layer 0 (Background)
//Storyboard Layer 1 (Fail)
//Storyboard Layer 2 (Pass)
//Storyboard Layer 3 (Foreground)
//Storyboard Sound Samples

[TimingPoints]
714,267.857142857143,4,2,0,100,1,0
714,-200,4,2,1,40,0,0
12901,-200,4,2,1,5,0,0
13571,-86.9565217391304,4,2,90,80,0,1
26428,-153.846153846154,4,2,90,55,0,0
39285,-142.857142857143,4,2,90,55,0,0
52142,-125,4,2,90,55,0,0
57767,-200,4,2,90,60,0,0
58571,-86.9565217391304,4,2,10,60,0,1
58638,-86.9565217391304,4,2,90,60,0,1
60178,-86.9565217391304,4,2,12,60,0,1
60245,-86.9565217391304,4,2,90,60,0,1
61785,-86.9565217391304,4,2,13,60,0,1
61852,-86.9565217391304,4,2,90,60,0,1
63392,-86.9565217391304,4,2,12,60,0,1
63459,-86.9565217391304,4,2,90,60,0,1
64196,-86.9565217391304,4,2,11,60,0,1
64263,-86.9565217391304,4,2,90,60,0,1
64999,-86.9565217391304,4,2,10,60,0,1
65066,-86.9565217391304,4,2,90,60,0,1
66606,-86.9565217391304,4,2,12,60,0,1
66673,-86.9565217391304,4,2,90,60,0,1
68214,-86.9565217391304,4,2,13,60,0,1
68280,-86.9565217391304,4,2,90,60,0,1
69821,-86.9565217391304,4,2,12,60,0,1
69888,-86.9565217391304,4,2,90,60,0,1
70624,-86.9565217391304,4,2,11,60,0,1
70691,-86.9565217391304,4,2,90,60,0,1
71160,-86.9565217391304,4,2,90,60,0,0
71428,-86.9565217391304,4,2,10,45,0,1
71495,-86.9565217391304,4,2,90,60,0,1
73035,-86.9565217391304,4,2,12,60,0,1
73102,-86.9565217391304,4,2,90,60,0,1
74642,-86.9565217391304,4,2,13,60,0,1
74709,-86.9565217391304,4,2,90,60,0,1
76249,-86.9565217391304,4,2,12,60,0,1
76316,-86.9565217391304,4,2,90,60,0,1
77053,-86.9565217391304,4,2,11,60,0,1
77120,-86.9565217391304,4,2,90,60,0,1
77856,-86.9565217391304,4,2,10,60,0,1
77923,-86.9565217391304,4,2,90,60,0,1
79463,-86.9565217391304,4,2,12,60,0,1
79530,-86.9565217391304,4,2,90,60,0,1
81071,-86.9565217391304,4,2,13,60,0,1
81137,-86.9565217391304,4,2,90,60,0,1
82678,-86.9565217391304,4,2,12,60,0,1
82745,-86.9565217391304,4,2,90,60,0,1
83481,-86.9565217391304,4,2,11,60,0,1
83548,-86.9565217391304,4,2,90,60,0,1
84285,-86.9565217391304,4,2,12,60,0,0
84385,-86.9565217391304,4,2,90,60,0,0
97142,-142.857142857143,4,2,90,60,0,0
109999,-133.333333333333,4,2,90,60,0,0
122856,-117.647058823529,4,2,90,60,0,0
128347,-200,4,2,90,60,0,0
129285,-83.3333333333333,4,2,10,60,0,1
129352,-83.3333333333333,4,2,90,60,0,1
130892,-83.3333333333333,4,2,12,60,0,1
130959,-83.3333333333333,4,2,90,60,0,1
132499,-83.3333333333333,4,2,13,60,0,1
132566,-83.3333333333333,4,2,90,60,0,1
134106,-83.3333333333333,4,2,12,60,0,1
134173,-83.3333333333333,4,2,90,60,0,1
134910,-83.3333333333333,4,2,11,60,0,1
134977,-83.3333333333333,4,2,90,60,0,1
135713,-83.3333333333333,4,2,10,60,0,1
135780,-83.3333333333333,4,2,90,60,0,1
137320,-83.3333333333333,4,2,12,60,0,1
137387,-83.3333333333333,4,2,90,60,0,1
138928,-83.3333333333333,4,2,13,60,0,1
138994,-83.3333333333333,4,2,90,60,0,1
140535,-83.3333333333333,4,2,12,60,0,1
140602,-83.3333333333333,4,2,90,60,0,1
141338,-83.3333333333333,4,2,11,60,0,1
141405,-83.3333333333333,4,2,90,60,0,1
141874,-83.3333333333333,4,2,90,60,0,0
142142,-83.3333333333333,4,2,10,60,0,1
142209,-83.3333333333333,4,2,90,60,0,1
143749,-83.3333333333333,4,2,12,60,0,1
143816,-83.3333333333333,4,2,90,60,0,1
145356,-83.3333333333333,4,2,13,60,0,1
145423,-83.3333333333333,4,2,90,60,0,1
146963,-83.3333333333333,4,2,12,60,0,1
147030,-83.3333333333333,4,2,90,60,0,1
147767,-83.3333333333333,4,2,11,60,0,1
147834,-83.3333333333333,4,2,90,60,0,1
148570,-83.3333333333333,4,2,10,60,0,1
148637,-83.3333333333333,4,2,90,60,0,1
150177,-83.3333333333333,4,2,12,60,0,1
150244,-83.3333333333333,4,2,90,60,0,1
151785,-83.3333333333333,4,2,13,60,0,1
151851,-83.3333333333333,4,2,90,60,0,1
153392,-83.3333333333333,4,2,12,60,0,1
153459,-83.3333333333333,4,2,90,60,0,1
154195,-83.3333333333333,4,2,11,60,0,1
154262,-83.3333333333333,4,2,90,60,0,1
154999,-83.3333333333333,4,2,12,60,0,0
155099,-83.3333333333333,4,2,90,60,0,0
166785,-200,4,2,0,35,0,0
180714,-83.3333333333333,4,2,10,60,0,1
180781,-83.3333333333333,4,2,90,60,0,1
182321,-83.3333333333333,4,2,12,60,0,1
182388,-83.3333333333333,4,2,90,60,0,1
183928,-83.3333333333333,4,2,13,60,0,1
183995,-83.3333333333333,4,2,90,60,0,1
185535,-83.3333333333333,4,2,12,60,0,1
185602,-83.3333333333333,4,2,90,60,0,1
186339,-83.3333333333333,4,2,11,60,0,1
186406,-83.3333333333333,4,2,90,60,0,1
187142,-83.3333333333333,4,2,10,60,0,1
187209,-83.3333333333333,4,2,90,60,0,1
188749,-83.3333333333333,4,2,12,60,0,1
188816,-83.3333333333333,4,2,90,60,0,1
190357,-83.3333333333333,4,2,13,60,0,1
190423,-83.3333333333333,4,2,90,60,0,1
191964,-83.3333333333333,4,2,12,60,0,1
192031,-83.3333333333333,4,2,90,60,0,1
192767,-83.3333333333333,4,2,11,60,0,1
192834,-83.3333333333333,4,2,90,60,0,1
193571,-83.3333333333333,4,2,12,60,0,0
193671,-100,4,2,90,60,0,0
206428,-200,4,2,1,30,0,0

[Colours]
Combo1 : 0,230,57
Combo2 : 36,146,255
Combo3 : 255,255,53

[HitObjects]
332,109,714,6,0,P|328:163|320:211,1,90
248,251,1115,2,0,P|241:210|237:161,1,90
164,107,1517,2,0,P|160:157|152:209,1,90
136,280,2053,1,0,0:0:0:0:
332,243,2321,6,0,P|321:300|288:332,1,90
247,250,2722,2,0,P|251:203|260:142,1,90
268,70,3124,2,0,P|331:53|368:56,2,90
108,155,3928,5,0,0:0:0:0:
211,202,4196,2,0,P|210:224|206:247,1,45
225,67,4597,1,0,0:0:0:0:
149,18,4731,2,0,P|133:59|134:74,1,45
299,117,4999,2,0,P|315:73|294:17,1,90
225,67,5535,5,0,0:0:0:0:
265,195,5803,1,0,0:0:0:0:
265,195,5937,2,0,P|256:220|246:242,1,45
210,319,6205,1,0,0:0:0:0:
143,259,6339,2,0,P|121:298|128:352,1,90
298,300,6874,1,0,0:0:0:0:
322,121,7142,6,0,P|314:167|310:223,1,90
404,243,7544,2,0,P|400:196|392:141,1,90
254,91,7946,2,0,P|284:57|336:48,1,90
410,74,8481,1,0,0:0:0:0:
440,158,8749,6,0,P|436:216|415:256,1,90
327,155,9151,2,0,P|327:204|333:257,1,90
338,335,9553,1,0,0:0:0:0:
327,155,9821,1,0,0:0:0:0:
338,335,10089,1,0,0:0:0:0:
198,222,10356,6,0,P|199:268|204:321,1,90
282,268,10758,2,0,P|280:226|276:178,1,90
112,150,11160,2,0,P|111:193|117:239,1,90
136,328,11696,1,0,0:0:0:0:
205,163,11964,2,0,P|115:55|19:166,1,315
172,32,13571,6,0,P|169:76|176:139,1,103.500001974106,14|0,1:2|0:0,0:0:0:0:
199,274,13839,1,2,0:0:0:0:
253,152,13972,2,0,P|331:248|314:341,1,207.000003948212,8|0,0:0|0:0,0:0:0:0:
115,288,14374,2,0,P|99:236|91:174,1,103.500001974106,10|2,0:0|0:0,0:0:0:0:
241,50,14642,2,0,P|252:89|251:158,1,103.500001974106,10|2,0:0|0:0,0:0:0:0:
67,117,14910,2,0,P|60:72|60:2,1,103.500001974106,10|2,0:0|0:0,0:0:0:0:
48,222,15178,6,0,P|149:182|170:93,1,207.000003948212,12|2,0:0|0:0,0:0:0:0:
231,255,15580,2,0,P|262:220|272:163,1,103.500001974106,8|2,0:0|0:0,0:0:0:0:
241,50,15847,1,2,0:0:0:0:
161,277,15981,2,0,P|207:327|269:315,1,103.500001974106,8|8,0:0|0:0,0:0:0:0:
368,283,16249,5,10,0:0:0:0:
231,255,16383,1,8,0:0:0:0:
401,214,16517,5,10,0:0:0:0:
231,255,16651,1,8,0:0:0:0:
458,281,16785,6,0,P|484:241|485:182,1,103.500001974106,14|0,0:0|0:0,0:0:0:0:
451,38,17053,1,0,0:0:0:0:
317,197,17187,2,0,P|322:143|321:75,1,103.500001974106,10|0,0:0|0:0,0:0:0:0:
303,299,17455,1,2,0:0:0:0:
240,178,17589,2,0,P|227:123|222:56,1,103.500001974106,10|2,0:0|0:0,0:0:0:0:
401,214,17856,2,0,P|414:168|422:112,1,103.500001974106,10|0,0:0|0:0,0:0:0:0:
211,274,18124,2,0,P|182:224|164:167,1,103.500001974106,10|2,0:0|0:0,0:0:0:0:
303,299,18392,6,0,P|252:363|196:362,1,103.500001974106,14|0,0:0|0:0,0:0:0:0:
240,178,18660,1,0,0:0:0:0:
117,250,18794,2,0,P|94:164|101:121,1,103.500001974106,8|0,0:0|0:0,0:0:0:0:
211,274,19062,1,2,0:0:0:0:
19,171,19196,6,0,P|30:102|91:49,1,103.500001974106,14|8,0:0|0:0,0:0:0:0:
240,178,19464,2,0,P|236:229|210:273,1,103.500001974106,10|8,0:0|0:0,0:0:0:0:
169,70,19731,2,0,P|230:47|278:56,1,103.500001974106,10|10,0:0|0:0,0:0:0:0:
412,109,19999,6,0,P|417:163|402:230,1,103.500001974106,14|0,0:0|0:0,0:0:0:0:
359,359,20267,1,2,0:0:0:0:
245,246,20401,2,0,P|247:302|258:354,1,103.500001974106,8|0,0:0|0:0,0:0:0:0:
266,167,20669,1,2,0:0:0:0:
346,297,20803,6,0,P|357:248|360:194,1,103.500001974106,8|2,0:0|0:0,0:0:0:0:
149,142,21071,2,0,P|156:193|174:241,1,103.500001974106,8|2,0:0|0:0,0:0:0:0:
353,116,21339,2,0,P|348:65|334:13,1,103.500001974106,8|2,0:0|0:0,0:0:0:0:
266,167,21606,6,0,P|293:201|442:172,1,207.000003948212,14|2,0:0|0:0,0:0:0:0:
179,97,22008,2,0,P|181:144|201:204,1,103.500001974106,8|0,0:0|0:0,0:0:0:0:
294,320,22276,1,0,0:0:0:0:
353,116,22410,2,0,P|367:65|372:7,1,103.500001974106,10|8,0:0|0:0,0:0:0:0:
320,221,22678,5,10,0:0:0:0:
275,77,22812,1,8,0:0:0:0:
242,226,22946,5,10,0:0:0:0:
353,116,23080,1,8,0:0:0:0:
150,186,23214,6,0,P|163:289|272:321,1,207.000003948212,14|2,0:0|0:0,0:0:0:0:
395,184,23615,2,0,P|395:236|383:307,1,103.500001974106,8|0,0:0|0:0,0:0:0:0:
221,154,23883,1,2,0:0:0:0:
294,320,24017,2,0,P|315:271|320:216,1,103.500001974106,8|2,0:0|0:0,0:0:0:0:
113,287,24285,2,0,P|162:314|219:326,1,103.500001974106,8|2,0:0|0:0,0:0:0:0:
66,155,24553,2,0,P|45:204|36:261,1,103.500001974106,8|2,0:0|0:0,0:0:0:0:
221,154,24821,6,0,P|207:88|188:46,1,103.500001974106,14|0,0:0|0:0,0:0:0:0:
168,213,25089,1,2,0:0:0:0:
305,143,25222,2,0,P|318:264|261:345,1,207.000003948212,8|0,0:0|0:0,0:0:0:0:
57,177,25624,6,0,P|48:228|74:277,1,103.500001974106,14|10,0:0|0:0,0:0:0:0:
221,154,25892,2,8,P|246:202|237:253,1,103.500001974106,8|10,0:0|0:0,0:0:0:0:
133,97,26160,2,8,P|177:61|251:60,1,103.500001974106,8|10,0:0|0:0,0:0:0:0:
302,90,26428,6,0,P|338:154|349:216,1,116.999994644165,12|0,0:0|0:0,0:0:0:0:
283,287,26830,1,0,0:0:0:0:
164,158,27097,1,0,0:0:0:0:
164,158,27231,2,0,P|156:221|167:277,2,116.999994644165
208,81,27901,5,0,0:0:0:0:
287,118,28035,2,0,P|293:91|288:47,1,58.4999973220826
132,42,28303,2,0,P|120:66|113:104,2,58.4999973220826
208,81,28705,1,0,0:0:0:0:
163,158,28839,2,0,P|110:178|58:155,1,116.999994644165
208,81,29240,2,0,P|249:125|246:191,1,116.999994644165
307,246,29642,6,0,P|329:213|336:174,1,58.4999973220826
331,106,29910,1,0,0:0:0:0:
230,235,30044,2,0,P|239:285|293:323,1,116.999994644165
376,311,30446,2,0,P|396:289|405:261,1,58.4999973220826
415,174,30714,1,0,0:0:0:0:
282,81,30847,2,0,P|284:140|303:211,1,116.999994644165
223,288,31249,6,0,P|198:234|185:177,1,116.999994644165
338,267,31651,2,0,P|370:235|378:202,2,58.4999973220826
287,339,32053,2,0,P|323:356|357:352,1,58.4999973220826
297,196,32321,1,0,0:0:0:0:
113,282,32589,2,0,P|177:301|226:287,1,116.999994644165,0|0,0:2|0:2,0:2:0:0:
297,196,33124,6,0,P|295:249|283:280,1,58.4999973220826
192,110,33525,1,0,0:0:0:0:
192,110,33660,2,0,P|174:181|193:240,2,116.999994644165
290,174,34329,5,0,0:0:0:0:
381,101,34463,2,0,P|382:130|376:158,1,58.4999973220826
260,79,34731,2,0,P|268:51|284:20,2,58.4999973220826
290,174,35133,1,0,0:0:0:0:
363,31,35267,1,0,0:0:0:0:
214,203,35535,2,0,P|263:252|326:247,1,116.999994644165
106,132,36071,6,0,P|99:186|107:250,1,116.999994644165
213,318,36472,2,0,P|220:260|213:202,1,116.999994644165
27,336,36874,2,0,P|68:330|98:309,1,58.4999973220826
106,247,37142,1,0,0:0:0:0:
0,179,37276,2,0,P|3:217|21:259,1,58.4999973220826
213,202,37544,1,0,0:0:0:0:
82,136,37678,6,0,P|80:194|106:247,1,116.999994644165
177,123,38080,2,0,P|166:90|136:67,2,58.4999973220826
213,202,38481,2,0,P|244:179|258:146,1,58.4999973220826
302,87,38749,2,0,P|340:144|327:211,1,116.999994644165
171,284,39285,6,0,P|250:319|301:311,1,125.999996154785,6|0,0:0|0:0,0:0:0:0:
431,241,39687,2,0,P|437:284|432:323,1,62.9999980773926
319,195,39955,1,0,0:0:0:0:
435,88,40089,2,0,P|435:119|430:150,1,62.9999980773926,8|0,0:0|0:0,0:0:0:0:
277,113,40356,2,0,P|232:151|228:216,1,125.999996154785
355,121,40758,1,0,0:0:0:0:
355,121,40892,2,0,P|347:77|271:32,1,125.999996154785,2|0,0:0|0:0,0:0:0:0:
152,121,41294,2,0,P|137:161|156:248,1,125.999996154785,2|0,0:0|0:0,0:0:0:0:
282,236,41696,1,8,0:0:0:0:
402,176,41964,6,0,P|370:172|339:166,1,62.9999980773926
219,127,42231,1,0,0:0:0:0:
282,236,42365,1,0,0:0:0:0:
288,38,42499,2,0,P|294:75|292:115,1,62.9999980773926,2|0,0:0|0:0,0:0:0:0:
166,195,42767,2,0,P|160:158|162:118,1,62.9999980773926
282,236,43035,2,0,P|291:288|287:371,1,125.999996154785,0|8,0:0|0:0,0:0:0:0:
106,262,43437,2,0,P|91:223|88:182,1,62.9999980773926
95,107,43705,1,0,0:0:0:0:
241,164,43839,2,0,P|253:116|250:83,1,62.9999980773926
169,236,44106,6,0,P|229:267|293:247,1,125.999996154785,2|0,0:0|0:0,0:0:0:0:
163,150,44508,2,0,P|107:168|83:241,1,125.999996154785,2|0,0:0|0:0,0:0:0:0:
193,338,44910,2,0,P|143:376|123:381,2,62.9999980773926,8|0|0,0:0|0:0|0:0,0:0:0:0:
306,106,45446,5,8,0:0:0:0:
306,106,45580,1,8,0:0:0:0:
306,106,45714,2,0,P|317:159|313:250,1,125.999996154785,4|0,0:0|0:0,0:0:0:0:
171,293,46115,2,0,P|159:245|160:222,1,62.9999980773926
176,106,46383,1,0,0:0:0:0:
75,181,46517,2,0,P|51:137|59:59,1,125.999996154785,8|0,0:0|0:0,0:0:0:0:
181,43,46919,2,0,P|179:93|166:125,1,62.9999980773926
132,224,47187,1,0,0:0:0:0:
289,216,47321,6,0,P|290:250|279:281,1,62.9999980773926,2|0,0:0|0:0,0:0:0:0:
253,108,47589,1,0,0:0:0:0:
369,153,47722,2,0,P|393:257|363:346,1,188.999994232178,2|8,0:0|0:0,0:0:0:0:
130,250,48392,6,0,P|135:288|129:342,1,62.9999980773926
242,195,48660,2,0,P|236:233|243:287,1,62.9999980773926
322,123,48928,2,0,P|269:91|207:93,1,125.999996154785,2|0,0:0|0:0,0:0:0:0:
365,200,49330,2,0,P|403:154|399:80,1,125.999996154785
270,174,49731,6,0,P|266:220|286:257,1,62.9999980773926,8|0,0:0|0:0,0:0:0:0:
330,347,49999,1,0,0:0:0:0:
366,261,50133,2,0,P|370:215|350:178,1,62.9999980773926
303,97,50401,1,0,0:0:0:0:
191,177,50535,2,0,P|190:236|228:310,1,125.999996154785,2|0,0:0|0:0,0:0:0:0:
364,199,50937,2,0,P|371:230|366:261,1,62.9999980773926
269,163,51205,1,0,0:0:0:0:
381,117,51339,5,8,0:0:0:0:
296,232,51472,1,8,0:0:0:0:
306,90,51606,5,8,0:0:0:0:
366,260,51740,1,8,0:0:0:0:
269,163,51874,5,8,0:0:0:0:
381,117,52008,1,8,0:0:0:0:
155,211,52142,6,0,P|149:140|192:68,1,144,14|0,0:0|0:0,0:0:0:0:
234,285,52544,2,0,P|200:324|151:333,1,72
79,295,52812,1,0,0:0:0:0:
245,207,52946,6,0,P|304:248|304:321,1,144,6|0,0:0|0:0,0:0:0:0:
166,201,53347,2,0,P|181:154|210:132,1,72
303,141,53615,1,0,0:0:0:0:
192,283,53749,6,0,P|112:268|81:205,1,144,6|0,0:0|0:0,0:0:0:0:
261,240,54151,2,0,P|273:285|260:325,1,72
173,362,54419,1,0,0:0:0:0:
201,184,54553,6,0,P|245:161|339:207,1,144,6|0,0:0|0:0,0:0:0:0:
409,267,54955,2,0,P|429:238|437:203,1,72
401,100,55222,1,0,0:0:0:0:
288,253,55356,6,0,P|290:289|298:325,1,72,6|0,0:0|0:0,0:0:0:0:
399,338,55624,2,0,P|408:288|408:260,1,72
222,190,55892,6,0,P|217:226|219:262,1,72
481,251,56160,2,0,P|480:205|470:170,1,72,4|0,0:0|0:0,0:0:0:0:
292,71,56428,6,0,P|282:106|281:142,1,72
465,100,56696,2,0,P|474:50|474:22,1,72
223,40,56964,6,8,P|210:87|207:117,1,72,12|8,0:0|0:0,0:0:0:0:
299,222,57232,2,8,P|332:207|357:170,1,72
309,18,57499,2,8,P|318:68|314:102,1,72
156,209,57767,6,0,B|122:177|73:130|56:205|173:156|140:22,1,225,8|0,0:0|0:0,0:0:0:0:
253,28,58571,6,0,P|260:72|252:137,1,103.500001974106,14|0,1:2|0:0,0:0:0:0:
202,278,58839,1,2,0:0:0:0:
371,196,58972,2,0,P|384:244|378:320,1,103.500001974106,8|0,0:0|0:0,0:0:0:0:
256,199,59240,1,2,0:0:0:0:
379,94,59374,2,0,P|383:151|363:211,1,103.500001974106,8|0,0:0|0:0,0:0:0:0:
208,139,59642,2,0,P|188:91|186:39,1,103.500001974106,8|0,0:0|0:0,0:0:0:0:
454,155,59910,2,0,P|447:198|406:278,1,103.500001974106,8|0,0:0|0:0,0:0:0:0:
291,150,60178,6,0,P|313:45|425:78,1,207.000003948212,10|0,0:0|0:0,0:0:0:0:
351,194,60580,2,0,P|311:223|248:211,1,103.500001974106,10|0,0:0|0:0,0:0:0:0:
122,132,60847,1,0,0:0:0:0:
213,37,60981,2,0,P|211:86|198:141,1,103.500001974106,8|8,0:0|0:0,0:0:0:0:
162,292,61249,5,8,0:0:0:0:
264,255,61383,1,8,0:0:0:0:
109,210,61517,5,8,0:0:0:0:
264,255,61651,1,8,0:0:0:0:
43,264,61785,6,0,P|25:204|62:134,1,103.500001974106,14|0,0:0|0:0,0:0:0:0:
149,46,62053,1,2,0:0:0:0:
235,183,62187,2,0,P|240:129|239:61,1,103.500001974106,8|0,0:0|0:0,0:0:0:0:
188,302,62455,1,2,0:0:0:0:
158,149,62589,2,0,P|150:98|151:27,1,103.500001974106,8|2,0:0|0:0,0:0:0:0:
315,141,62856,2,0,P|311:193|294:242,1,103.500001974106,0|2,0:0|0:0,0:0:0:0:
99,203,63124,2,0,P|84:157|76:96,1,103.500001974106,0|2,0:0|0:0,0:0:0:0:
182,217,63392,6,0,P|131:281|75:280,1,103.500001974106,10|0,0:0|0:0,0:0:0:0:
160,115,63660,1,2,0:0:0:0:
22,227,63794,2,0,P|3:167|1:100,1,103.500001974106,8|0,0:0|0:0,0:0:0:0:
182,217,64062,1,2,0:0:0:0:
182,217,64129,1,8,0:0:0:0:
182,217,64196,6,0,P|175:168|158:108,1,103.500001974106,10|8,0:0|0:0,0:0:0:0:
113,274,64464,2,0,P|174:306|224:294,1,103.500001974106,8|8,0:0|0:0,0:0:0:0:
355,280,64731,2,0,P|291:244|241:256,1,103.500001974106,8|8,0:0|0:0,0:0:0:0:
99,203,64999,6,0,P|84:157|76:96,1,103.500001974106,14|0,0:0|0:0,0:0:0:0:
263,246,65267,1,2,0:0:0:0:
358,86,65401,2,0,P|357:139|346:188,1,103.500001974106,8|0,0:0|0:0,0:0:0:0:
311,319,65669,1,2,0:0:0:0:
280,144,65803,6,0,P|267:194|262:246,1,103.500001974106,8|2,0:0|0:0,0:0:0:0:
429,304,66071,2,0,P|428:248|415:202,1,103.500001974106,0|2,0:0|0:0,0:0:0:0:
180,195,66339,2,0,P|181:252|195:298,1,103.500001974106,0|2,0:0|0:0,0:0:0:0:
350,210,66606,6,0,P|269:153|180:196,1,207.000003948212,2|2,0:0|0:0,0:0:0:0:
366,290,67008,2,0,P|413:263|430:204,1,103.500001974106,8|0,0:0|0:0,0:0:0:0:
367,75,67276,1,2,0:0:0:0:
262,245,67410,2,0,P|265:297|277:348,1,103.500001974106,8|8,0:0|0:0,0:0:0:0:
350,210,67678,5,8,2:3:0:0:
210,142,67812,1,8,0:0:0:0:
262,245,67946,5,8,0:0:0:0:
277,91,68080,1,8,0:0:0:0:
110,150,68214,6,0,P|119:216|168:249,1,103.500001974106,14|0,0:0|0:0,0:0:0:0:
284,173,68481,1,2,0:0:0:0:
213,41,68615,2,0,P|201:100|215:154,1,103.500001974106,8|0,0:0|0:0,0:0:0:0:
262,245,68882,1,2,0:0:0:0:
361,139,69017,2,0,P|365:194|307:258,1,103.500001974106,8|2,0:0|0:0,0:0:0:0:
277,91,69285,2,0,P|314:52|386:45,1,103.500001974106,8|2,0:0|0:0,0:0:0:0:
446,170,69553,2,0,P|441:221|409:278,1,103.500001974106,8|2,0:0|0:0,0:0:0:0:
266,312,69821,6,0,P|274:263|308:205,1,103.500001974106,10|0,0:0|0:0,0:0:0:0:
410,87,70089,1,2,0:0:0:0:
252,144,70222,2,0,P|218:183|196:230,1,103.500001974106,8|0,0:0|0:0,0:0:0:0:
340,167,70490,5,8,0:0:0:0:
340,167,70557,1,8,0:0:0:0:
340,167,70624,2,0,P|343:107|310:68,1,103.500001974106,10|8,0:0|0:0,0:0:0:0:
144,152,70892,2,8,P|116:109|122:58,1,103.500001974106
332,250,71160,2,8,P|382:240|417:199,1,103.500001974106
212,249,71428,6,0,P|237:328|357:366,1,207.000003948212,14|2,1:2|0:0,0:0:0:0:
340,167,71830,2,0,P|332:125|304:51,1,103.500001974106,8|0,1:2|0:0,0:0:0:0:
332,250,72097,1,2,0:0:0:0:
221,54,72231,2,0,P|228:95|257:170,1,103.500001974106,8|2,1:2|0:0,0:0:0:0:
145,258,72499,6,0,P|110:212|83:147,1,103.500001974106,8|2,0:0|0:0,0:0:0:0:
246,313,72767,2,0,P|298:249|308:189,1,103.500001974106,8|2,0:0|0:0,0:0:0:0:
153,98,73035,2,0,P|165:150|206:208,1,103.500001974106,10|0,0:0|0:0,0:0:0:0:
312,93,73303,1,2,0:0:0:0:
407,209,73437,2,0,P|465:112|445:19,1,207.000003948212,8|0,0:0|0:0,0:0:0:0:
312,93,73839,5,8,0:0:0:0:
327,246,73972,1,8,0:0:0:0:
391,104,74106,5,8,0:0:0:0:
258,184,74240,1,8,0:0:0:0:
377,182,74374,5,8,0:0:0:0:
238,77,74508,1,8,0:0:0:0:
186,232,74642,6,0,B|173:182|192:129,1,103.500001974106,10|0,0:0|0:0,0:0:0:0:
377,182,74910,1,2,0:0:0:0:
253,285,75044,2,0,B|272:232|256:168,1,103.500001974106,8|0,0:0|0:0,0:0:0:0:
317,34,75312,1,2,0:0:0:0:
193,131,75446,6,0,P|184:80|181:28,1,103.500001974106,8|2,0:0|0:0,0:0:0:0:
391,215,75714,2,0,P|399:163|403:112,1,103.500001974106,8|2,0:0|0:0,0:0:0:0:
215,304,75981,2,0,P|207:258|202:201,1,103.500001974106,8|2,0:0|0:0,0:0:0:0:
302,320,76249,6,0,P|266:376|195:388,1,103.500001974106,10|0,0:0|0:0,0:0:0:0:
131,271,76517,1,2,0:0:0:0:
269,145,76651,2,0,P|279:192|277:247,1,103.500001974106,8|0,0:0|0:0,0:0:0:0:
176,168,76919,1,8,0:0:0:0:
176,168,76986,1,8,0:0:0:0:
176,168,77053,6,0,P|171:96|179:50,1,103.500001974106,10|8,0:0|0:0,0:0:0:0:
265,257,77321,2,0,P|208:263|147:254,1,103.500001974106,8|8,0:0|0:0,0:0:0:0:
328,106,77589,2,0,P|341:154|344:219,1,103.500001974106,8|8,0:0|0:0,0:0:0:0:
94,234,77856,6,0,P|92:292|118:348,1,103.500001974106,14|0,0:0|0:0,0:0:0:0:
252,353,78124,1,2,0:0:0:0:
222,198,78258,2,0,P|196:252|209:301,1,103.500001974106,8|0,0:0|0:0,0:0:0:0:
299,169,78526,1,2,0:0:0:0:
122,83,78660,6,0,P|131:134|149:193,1,103.500001974106,8|2,0:0|0:0,0:0:0:0:
380,155,78928,2,0,P|389:105|391:53,1,103.500001974106,8|2,0:0|0:0,0:0:0:0:
192,29,79196,2,0,P|198:85|215:153,1,103.500001974106,8|2,0:0|0:0,0:0:0:0:
443,221,79464,2,0,P|471:130|470:16,1,207.000003948212,10|0,0:0|0:0,0:0:0:0:
309,213,79865,6,0,P|294:163|289:111,1,103.500001974106,8|0,0:0|0:0,0:0:0:0:
379,266,80133,1,2,0:0:0:0:
252,318,80267,2,0,P|227:258|219:205,1,103.500001974106,8|8,0:0|0:0,0:0:0:0:
289,112,80535,5,8,0:0:0:0:
379,266,80669,1,8,0:0:0:0:
382,123,80803,5,8,0:0:0:0:
309,213,80937,1,8,0:0:0:0:
460,158,81071,6,0,P|458:86|417:44,1,103.500001974106,14|0,0:0|0:0,0:0:0:0:
289,112,81339,1,2,0:0:0:0:
221,221,81472,2,0,P|197:175|202:124,1,103.500001974106,8|0,0:0|0:0,0:0:0:0:
309,213,81740,1,2,0:0:0:0:
189,300,81874,2,0,P|126:219|121:112,1,207.000003948212,8|8,0:0|0:0,0:0:0:0:
273,281,82276,6,8,P|267:339|235:378,1,103.500001974106,8|10,0:0|0:0,0:0:0:0:
221,221,82544,1,8,0:0:0:0:
347,238,82678,2,0,P|349:182|337:126,1,103.500001974106,10|2,0:0|0:0,0:0:0:0:
198,47,82946,2,0,P|188:97|191:149,1,103.500001974106,0|8,0:0|0:0,0:0:0:0:
297,49,83214,1,0,0:0:0:0:
110,95,83347,5,2,0:0:0:0:
110,95,83414,1,8,0:0:0:0:
110,95,83481,2,0,P|103:171|121:235,1,103.500001974106,10|8,0:0|0:0,0:0:0:0:
248,264,83749,2,0,P|253:212|245:161,1,103.500001974106,8|8,0:0|0:0,0:0:0:0:
124,274,84017,2,0,P|132:324|153:372,1,103.500001974106,8|8,0:0|0:0,0:0:0:0:
328,283,84285,1,10,0:0:0:0:
256,192,84352,12,0,87499,0:0:0:0:
195,192,97410,5,0,0:0:0:0:
228,280,97544,2,0,P|167:283|109:226,1,125.999996154785
213,102,97946,1,8,0:0:0:0:
352,229,98214,2,0,P|368:167|356:105,2,125.999996154785,0|0|2,0:0|0:0|0:0,0:0:0:0:
315,316,98884,5,0,0:0:0:0:
237,340,99017,2,0,P|238:289|255:256,1,62.9999980773926
384,363,99286,2,0,P|396:338|394:287,1,62.9999980773926
214,177,99553,2,0,P|166:221|145:281,1,125.999996154785,8|0,0:0|0:0,0:0:0:0:
133,374,99955,5,0,0:0:0:0:
54,244,100089,2,0,P|41:285|44:324,1,62.9999980773926
219,299,100356,2,0,P|229:239|208:167,1,125.999996154785,2|0,0:0|0:0,0:0:0:0:
144,252,100758,2,0,P|130:318|164:370,1,125.999996154785
358,296,101160,2,0,P|366:230|353:162,1,125.999996154785,8|0,0:0|0:0,0:0:0:0:
342,75,101562,2,0,P|304:85|283:104,1,62.9999980773926
223,165,101830,5,0,0:0:0:0:
223,164,101964,2,0,P|162:179|100:171,1,125.999996154785,2|0,0:0|0:0,0:0:0:0:
11,139,102365,2,0,P|10:199|52:254,1,125.999996154785
134,288,102767,1,8,0:0:0:0:
308,214,103035,2,0,P|327:258|301:357,1,125.999996154785
196,186,103571,1,2,0:0:0:0:
391,169,103839,6,0,P|353:143|315:132,1,62.9999980773926
252,34,104240,1,0,0:0:0:0:
252,34,104374,2,0,P|239:97|267:151,2,125.999996154785,8|0|0,0:0|0:0|0:0,0:0:0:0:
308,214,105044,5,0,0:0:0:0:
388,106,105178,2,0,P|393:147|385:192,1,62.9999980773926,2|0,0:0|0:0,0:0:0:0:
477,95,105446,2,0,P|462:46|434:23,2,62.9999980773926
435,247,105847,1,0,0:0:0:0:
312,129,105981,1,8,0:0:0:0:
310,315,106249,2,0,P|271:275|264:207,1,125.999996154785
512,216,106785,6,0,P|507:277|465:323,1,125.999996154785,2|0,0:0|0:0,0:0:0:0:
435,247,107187,2,0,P|413:160|434:111,1,125.999996154785
511,91,107589,2,0,P|455:56|371:57,1,125.999996154785,8|0,0:0|0:0,0:0:0:0:
315,170,107990,2,0,P|317:132|332:92,1,62.9999980773926
349,251,108258,1,0,0:0:0:0:
287,322,108392,2,0,B|244:298|204:296|204:296|249:254,1,125.999996154785,2|0,0:0|0:0,0:0:0:0:
435,247,108794,2,0,P|436:279|425:308,1,62.9999980773926
315,170,109062,1,0,0:0:0:0:
423,128,109196,2,0,L|415:162,1,31.4999990386963,8|0,0:0|0:0,0:0:0:0:
115,333,109999,6,0,P|168:289|251:297,1,135.000005149842,6|0,0:0|0:0,0:0:0:0:
356,379,110401,2,0,P|355:345|344:313,1,67.5000025749208
289,163,110669,2,0,P|289:196|300:228,1,67.5000025749208,0|8,0:0|0:0,0:0:0:0:
346,96,110937,2,0,P|309:72|263:73,1,67.5000025749208
204,129,111205,1,0,0:0:0:0:
288,293,111339,2,0,P|299:261|299:227,1,67.5000025749208
200,323,111606,2,0,P|258:382|320:380,1,135.000005149842,2|0,0:0|0:0,0:0:0:0:
363,186,112008,2,0,P|414:227|424:292,1,135.000005149842,2|0,0:0|0:0,0:0:0:0:
215,240,112410,1,8,0:0:0:0:
335,77,112678,6,0,P|368:87|402:87,1,67.5000025749208
249,17,112946,2,0,P|188:7|162:12,1,67.5000025749208
363,186,113214,2,0,P|450:187|494:138,1,135.000005149842,2|0,0:0|0:0,0:0:0:0:
266,221,113615,2,0,P|263:147|308:93,1,135.000005149842
249,316,114017,2,0,P|328:298|362:243,1,135.000005149842,8|0,0:0|0:0,0:0:0:0:
133,236,114419,2,0,P|175:244|204:258,1,67.5000025749208
335,374,114687,1,0,0:0:0:0:
432,183,114821,6,0,P|462:251|439:331,1,135.000005149842,2|0,0:0|0:0,0:0:0:0:
356,131,115222,2,0,P|410:94|476:103,1,135.000005149842,2|0,0:0|0:0,0:0:0:0:
341,226,115624,2,0,P|344:266|372:307,2,67.5000025749208,8|0|0,0:0|0:0|0:0,0:0:0:0:
452,304,116160,5,8,0:0:0:0:
452,304,116294,1,8,0:0:0:0:
452,304,116428,2,0,P|388:363|324:359,1,135.000005149842,6|0,0:0|0:0,0:0:0:0:
237,201,116830,2,0,P|231:250|249:292,1,67.5000025749208
356,290,117097,1,0,0:0:0:0:
318,160,117231,2,0,P|271:118|179:130,1,135.000005149842,8|0,0:0|0:0,0:0:0:0:
131,234,117633,2,0,P|126:191|149:151,1,67.5000025749208
235,266,117901,1,0,0:0:0:0:
103,317,118035,6,0,P|74:301|52:271,1,67.5000025749208,2|0,0:0|0:0,0:0:0:0:
235,266,118303,1,0,0:0:0:0:
131,234,118437,2,0,P|156:147|253:163,1,202.500007724762,2|8,0:0|0:0,0:0:0:0:
418,272,119106,6,0,P|427:231|421:191,1,67.5000025749208
476,333,119374,2,0,P|498:297|506:257,1,67.5000025749208
337,212,119642,2,0,P|370:137|417:122,1,135.000005149842,2|0,0:0|0:0,0:0:0:0:
484,50,120044,2,0,B|395:38|395:38|333:57,1,135.000005149842
262,151,120446,6,0,P|265:101|278:73,1,67.5000025749208,8|0,0:0|0:0,0:0:0:0:
337,212,120714,1,0,0:0:0:0:
215,240,120847,2,0,P|187:221|174:191,1,67.5000025749208
337,212,121115,1,0,0:0:0:0:
281,310,121249,2,0,P|212:331|147:305,1,135.000005149842,2|0,0:0|0:0,0:0:0:0:
59,274,121651,2,0,P|52:318|66:351,1,67.5000025749208
136,221,121919,1,0,0:0:0:0:
53,174,122053,5,8,0:0:0:0:
219,222,122187,1,8,0:0:0:0:
59,274,122321,5,8,0:0:0:0:
155,126,122455,1,8,0:0:0:0:
136,221,122589,5,8,0:0:0:0:
80,98,122722,1,8,0:0:0:0:
59,274,122856,6,0,P|139:314|208:279,1,153.000002918243,6|0,0:0|0:0,0:0:0:0:
155,126,123258,2,0,P|132:166|130:202,1,76.5000014591217
284,200,123526,1,0,0:0:0:0:
207,62,123660,6,0,P|132:49|74:119,1,153.000002918243,6|0,0:0|0:0,0:0:0:0:
280,113,124062,2,0,P|295:72|289:28,1,76.5000014591217
155,126,124330,1,0,0:0:0:0:
243,266,124464,6,0,P|328:266|360:190,1,153.000002918243,6|0,0:0|0:0,0:0:0:0:
173,220,124865,2,0,P|161:270|174:310,1,76.5000014591217
284,200,125133,1,0,0:0:0:0:
195,50,125267,6,0,P|100:62|71:134,1,153.000002918243,6|0,0:0|0:0,0:0:0:0:
173,220,125669,2,0,P|185:173|177:127,1,76.5000014591217
75,198,125937,1,0,0:0:0:0:
268,319,126071,6,0,P|283:267|277:230,1,76.5000014591217,6|0,0:0|0:0,0:0:0:0:
259,90,126339,2,0,P|245:125|245:163,1,76.5000014591217
362,273,126606,6,0,P|358:219|340:186,1,76.5000014591217
161,145,126874,2,0,P|159:183|172:219,1,76.5000014591217,6|0,0:0|0:0,0:0:0:0:
436,192,127142,6,0,P|423:156|399:128,1,76.5000014591217
96,237,127410,2,0,P|107:273|133:302,1,76.5000014591217
362,273,127678,5,14,0:0:0:0:
253,235,127812,1,8,0:0:0:0:
310,340,127946,5,8,0:0:0:0:
339,175,128080,1,8,0:0:0:0:
226,319,128214,5,8,0:0:0:0:
362,273,128347,1,8,0:0:0:0:
169,251,128481,6,0,P|171:145|269:102,1,225,8|0,0:0|0:0,0:0:0:0:
362,273,129285,6,0,P|386:201|378:153,1,107.999996704102,14|0,0:0|0:0,0:0:0:0:
310,340,129553,1,2,0:0:0:0:
270,103,129687,2,0,P|259:167|275:230,1,107.999996704102,8|0,0:0|0:0,0:0:0:0:
362,273,129955,1,2,0:0:0:0:
233,299,130089,2,0,P|191:263|174:194,1,107.999996704102,8|2,0:0|0:0,0:0:0:0:
357,103,130356,2,0,P|338:53|297:18,1,107.999996704102,8|2,0:0|0:0,0:0:0:0:
97,245,130624,2,8,P|92:189|121:125,1,107.999996704102,8|2,0:0|0:0,0:0:0:0:
140,325,130892,6,0,P|68:331|14:210,1,215.999993408203,10|2,0:0|0:0,0:0:0:0:
186,110,131294,2,0,P|191:166|162:230,1,107.999996704102,8|0,0:0|0:0,0:0:0:0:
64,92,131562,1,2,0:0:0:0:
270,66,131696,5,8,0:0:0:0:
173,213,131830,1,8,0:0:0:0:
330,141,131964,5,8,0:0:0:0:
186,110,132097,1,8,0:0:0:0:
253,177,132231,5,8,0:0:0:0:
270,66,132365,1,8,0:0:0:0:
172,212,132499,6,0,P|202:255|254:269,1,107.999996704102,14|0,0:0|0:0,0:0:0:0:
186,110,132767,1,2,0:0:0:0:
97,261,132901,2,0,P|85:209|103:154,1,107.999996704102,8|0,0:0|0:0,0:0:0:0:
159,317,133169,1,2,0:0:0:0:
11,221,133303,6,0,P|22:142|58:92,1,107.999996704102,8|2,0:0|0:0,0:0:0:0:
173,213,133571,2,0,P|173:285|137:347,1,107.999996704102,8|2,0:0|0:0,0:0:0:0:
99,157,133839,2,0,P|134:118|186:109,1,107.999996704102,8|2,0:0|0:0,0:0:0:0:
249,247,134106,2,0,P|282:167|228:23,1,215.999993408203,10|2,0:0|0:0,0:0:0:0:
99,157,134508,2,0,P|84:208|96:260,1,107.999996704102,8|0,0:0|0:0,0:0:0:0:
348,269,134776,5,10,0:0:0:0:
348,269,134843,1,8,0:0:0:0:
348,269,134910,2,0,P|298:242|220:263,1,107.999996704102,10|8,0:0|0:0,0:0:0:0:
31,311,135178,2,0,P|81:338|159:317,1,107.999996704102,8|8,0:0|0:0,0:0:0:0:
173,213,135446,2,0,P|123:186|45:207,1,107.999996704102,8|8,0:0|0:0,0:0:0:0:
234,372,135714,6,0,P|287:375|333:349,1,107.999996704102,14|0,0:0|0:0,0:0:0:0:
195,301,135981,1,2,0:0:0:0:
227,147,136115,2,0,P|254:196|240:261,1,107.999996704102,8|0,0:0|0:0,0:0:0:0:
138,366,136383,1,2,0:0:0:0:
8,212,136517,6,0,P|4:265|31:311,1,107.999996704102,8|2,0:0|0:0,0:0:0:0:
177,257,136785,2,0,P|123:234|69:257,1,107.999996704102,8|2,0:0|0:0,0:0:0:0:
21,119,137053,2,0,P|69:142|120:128,1,107.999996704102,8|2,0:0|0:0,0:0:0:0:
258,156,137321,6,2,P|233:64|111:67,1,215.999993408203,10|2,0:0|0:0,0:0:0:0:
177,257,137722,2,0,B|253:246|253:246|301:208,1,107.999996704102,8|0,0:0|0:0,0:0:0:0:
118,188,137990,1,2,0:0:0:0:
63,349,138124,6,0,P|51:290|69:227,1,107.999996704102,8|8,0:0|0:0,0:0:0:0:
193,339,138392,1,8,0:0:0:0:
118,188,138526,1,8,0:0:0:0:
63,349,138660,1,8,0:0:0:0:
177,257,138794,1,8,0:0:0:0:
58,139,138928,6,0,P|48:191|60:244,1,107.999996704102,14|0,0:0|0:0,0:0:0:0:
193,146,139196,1,2,0:0:0:0:
275,292,139330,2,0,P|190:268|157:233,1,107.999996704102,8|0,0:0|0:0,0:0:0:0:
126,82,139597,1,2,0:0:0:0:
350,161,139731,6,0,P|311:196|229:188,1,107.999996704102,8|2,0:0|0:0,0:0:0:0:
100,185,139999,2,0,P|139:150|221:158,1,107.999996704102,8|2,0:0|0:0,0:0:0:0:
367,253,140267,2,0,P|411:216|431:144,1,107.999996704102,8|2,0:0|0:0,0:0:0:0:
275,20,140535,6,0,P|266:75|287:136,1,107.999996704102,10|0,0:0|0:0,0:0:0:0:
408,23,140803,1,2,0:0:0:0:
268,213,140937,2,0,P|217:189|188:135,1,107.999996704102,8|0,0:0|0:0,0:0:0:0:
429,170,141205,1,8,0:0:0:0:
429,170,141272,1,8,0:0:0:0:
429,170,141339,6,8,P|441:229|414:295,1,107.999996704102,10|8,0:0|0:0,0:0:0:0:
268,109,141606,2,8,P|255:160|268:213,1,107.999996704102
321,42,141874,2,8,B|259:14|259:14|196:29,1,107.999996704102
76,151,142142,6,0,B|114:141|114:141|149:121|149:121|187:112,1,107.999996704102,14|0,0:0|0:0,0:0:0:0:
61,231,142410,1,2,0:0:0:0:
200,10,142544,2,0,P|194:60|175:116,1,107.999996704102,8|0,0:0|0:0,0:0:0:0:
146,272,142812,1,2,0:0:0:0:
52,47,142946,2,0,P|57:109|77:153,1,107.999996704102,8|0,0:0|0:0,0:0:0:0:
210,209,143214,1,8,0:0:0:0:
282,34,143347,2,0,P|276:88|258:139,1,107.999996704102,0|8,0:0|0:0,0:0:0:0:
146,272,143615,1,0,0:0:0:0:
175,114,143749,6,0,P|211:210|324:195,1,215.999993408203,10|2,0:0|0:0,0:0:0:0:
454,171,144151,2,0,P|409:143|345:140,1,107.999996704102,8|0,0:0|0:0,0:0:0:0:
494,269,144419,1,2,0:0:0:0:
384,355,144553,6,8,P|371:294|405:238,1,107.999996704102
506,114,144821,1,8,0:0:0:0:
355,138,144955,1,8,0:0:0:0:
468,38,145089,5,8,0:0:0:0:
454,171,145222,1,8,0:0:0:0:
301,81,145356,6,0,P|276:140|293:191,1,107.999996704102,14|0,0:0|0:0,0:0:0:0:
381,27,145624,1,2,0:0:0:0:
351,242,145758,2,0,P|290:271|231:254,1,107.999996704102,8|0,0:0|0:0,0:0:0:0:
111,181,146026,1,2,0:0:0:0:
213,32,146160,6,0,B|202:103|202:103|166:138,1,107.999996704102,8|2,0:0|0:0,0:0:0:0:
175,261,146428,2,0,B|119:215|119:215|106:167,1,107.999996704102,8|2,0:0|0:0,0:0:0:0:
3,119,146696,2,0,B|69:93|69:93|118:106,1,107.999996704102,8|2,0:0|0:0,0:0:0:0:
376,167,146964,6,0,B|332:157|332:157|297:134|297:134|255:123,1,107.999996704102,10|0,0:0|0:0,0:0:0:0:
433,87,147231,1,2,0:0:0:0:
200,189,147365,2,0,P|181:130|209:58,1,107.999996704102,8|0,0:0|0:0,0:0:0:0:
329,246,147633,1,8,0:0:0:0:
329,246,147700,1,8,0:0:0:0:
329,246,147767,5,10,0:0:0:0:
265,47,147901,1,8,0:0:0:0:
236,278,148035,1,8,0:0:0:0:
376,167,148169,5,8,0:0:0:0:
310,330,148303,1,8,0:0:0:0:
276,128,148437,1,8,0:0:0:0:
476,204,148571,6,0,P|436:256|368:273,1,107.999996704102,14|0,0:0|0:0,0:0:0:0:
236,278,148839,1,2,0:0:0:0:
376,167,148972,2,0,P|367:86|276:142,1,215.999993408203,8|2,0:0|0:0,0:0:0:0:
476,204,149374,6,0,P|493:149|475:62,1,107.999996704102,8|2,0:0|0:0,0:0:0:0:
294,2,149642,2,0,P|347:0|398:15,1,107.999996704102,8|2,0:0|0:0,0:0:0:0:
376,167,149910,2,0,P|323:169|272:154,1,107.999996704102,8|2,0:0|0:0,0:0:0:0:
476,204,150178,2,0,P|419:265|294:235,1,215.999993408203,10|2,0:0|0:0,0:0:0:0:
176,195,150580,2,0,P|222:160|299:160,1,107.999996704102,8|0,0:0|0:0,0:0:0:0:
159,291,150847,1,2,0:0:0:0:
96,141,150981,5,8,0:0:0:0:
256,246,151115,1,8,0:0:0:0:
76,243,151249,5,8,0:0:0:0:
270,153,151383,1,8,0:0:0:0:
238,337,151517,5,8,0:0:0:0:
176,195,151651,1,8,0:0:0:0:
363,126,151785,6,0,P|365:187|326:234,1,107.999996704102,14|0,0:0|0:0,0:0:0:0:
287,66,152053,1,2,0:0:0:0:
93,100,152187,2,0,P|143:120|196:112,1,107.999996704102,8|0,0:0|0:0,0:0:0:0:
378,32,152455,1,2,0:0:0:0:
256,246,152589,6,0,P|291:299|366:305,1,107.999996704102,8|2,0:0|0:0,0:0:0:0:
434,193,152856,2,0,P|370:196|327:258,1,107.999996704102,8|2,0:0|0:0,0:0:0:0:
486,256,153124,2,0,P|514:199|482:131,1,107.999996704102,8|2,0:0|0:0,0:0:0:0:
274,147,153392,6,0,P|246:204|278:272,1,107.999996704102,10|0,0:0|0:0,0:0:0:0:
336,94,153660,2,0,P|290:67|237:75,1,107.999996704102,2|8,0:0|0:0,0:0:0:0:
78,159,153928,2,0,P|130:166|176:139,1,107.999996704102,0|2,0:0|0:0,0:0:0:0:
8,113,154196,5,10,0:0:0:0:
52,261,154330,2,8,P|70:210|76:151,1,107.999996704102
0,22,154597,1,8,0:0:0:0:
176,138,154731,2,8,P|199:89|201:36,1,107.999996704102
0,190,154999,1,6,0:0:0:0:
256,192,155066,12,0,157410,0:0:0:0:
362,212,167053,5,0,0:0:0:0:
432,117,167321,1,0,0:0:0:0:
257,193,167589,1,0,0:0:0:0:
467,231,167856,1,2,0:0:0:0:
150,212,168660,5,2,0:0:0:0:
298,278,168928,1,2,0:0:0:0:
239,107,169196,2,2,P|258:149|254:199,1,90
54,164,170267,1,2,0:0:0:0:
54,358,170803,6,0,P|35:316|39:266,1,90,2|2,0:0|0:0,0:0:0:0:
257,306,171472,2,0,B|191:342|191:260|113:306,1,135,0|2,0:0|0:0,0:0:0:0:
362,212,172410,1,2,0:0:0:0:
239,107,172678,1,2,0:0:0:0:
256,192,173481,5,2,0:0:0:0:
432,117,173749,1,2,0:0:0:0:
391,251,174017,1,2,0:0:0:0:
158,148,174285,2,0,P|154:229|198:283,2,135,2|0|2,0:0|0:0|0:0,0:0:0:0:
297,297,175356,1,2,0:0:0:0:
223,356,175624,1,2,0:0:0:0:
393,298,175892,2,0,P|355:220|260:210,1,180,2|0,0:0|0:0,0:0:0:0:
343,371,176696,5,2,0:0:0:0:
446,195,176964,1,2,0:0:0:0:
297,297,177231,1,2,0:0:0:0:
503,298,177499,6,0,L|402:288,1,90,2|0,0:0|0:0,0:0:0:0:
258,197,177901,2,0,L|359:187,1,90
392,126,178303,1,2,0:0:0:0:
297,297,178571,1,0,0:0:0:0:
258,197,178839,1,2,0:0:0:0:
442,207,179106,2,0,P|491:135|460:54,1,180,2|0,0:0|0:0,0:0:0:0:
158,50,179910,1,2,0:0:0:0:
143,172,180178,2,0,P|126:108|159:50,1,134.999995880127,2|0,0:0|0:0,0:0:0:0:
314,145,180714,6,0,B|272:140|272:140|241:122|241:122|177:114,1,107.999996704102,14|0,0:0|0:0,0:0:0:0:
361,57,180981,1,2,0:0:0:0:
329,256,181115,2,0,P|418:247|395:113,1,215.999993408203,8|2,0:0|0:0,0:0:0:0:
222,204,181517,6,0,P|225:279|251:324,1,107.999996704102,8|2,0:0|0:0,0:0:0:0:
496,261,181785,2,0,P|514:209|512:155,1,107.999996704102,8|2,0:0|0:0,0:0:0:0:
411,335,182053,1,8,0:0:0:0:
364,183,182187,1,2,0:0:0:0:
327,361,182321,2,0,P|316:308|328:255,1,107.999996704102,10|0,0:0|0:0,0:0:0:0:
428,138,182589,1,2,0:0:0:0:
270,0,182722,2,0,P|261:98|372:81,1,215.999993408203,8|0,0:0|0:0,0:0:0:0:
171,74,183124,5,8,0:0:0:0:
226,226,183258,1,8,0:0:0:0:
91,188,183392,5,8,0:0:0:0:
239,146,183526,1,8,0:0:0:0:
139,274,183660,5,8,0:0:0:0:
165,166,183794,1,8,0:0:0:0:
211,330,183928,6,0,P|109:360|48:277,1,215.999993408203,14|2,0:0|0:0,0:0:0:0:
71,84,184330,2,0,P|91:139|85:208,1,107.999996704102,8|0,0:0|0:0,0:0:0:0:
48,283,184597,1,2,0:0:0:0:
226,226,184731,6,0,B|295:212|295:212|347:240,1,107.999996704102,8|2,0:0|0:0,0:0:0:0:
341,384,184999,2,0,B|294:331|294:331|292:272,1,107.999996704102,8|2,0:0|0:0,0:0:0:0:
421,210,185267,2,0,B|398:276|398:276|348:307,1,107.999996704102,8|2,0:0|0:0,0:0:0:0:
146,250,185535,6,0,P|126:195|132:126,1,107.999996704102,10|0,0:0|0:0,0:0:0:0:
165,29,185803,1,2,0:0:0:0:
351,102,185937,2,0,P|288:124|242:109,1,107.999996704102,8|0,0:0|0:0,0:0:0:0:
377,11,186205,6,8,P|422:10|456:30,2,53.9999983520508,8|8|10,0:0|0:0|0:0,0:0:0:0:
324,194,186472,1,8,0:0:0:0:
434,145,186606,5,8,0:0:0:0:
351,102,186740,1,8,0:0:0:0:
407,232,186874,5,8,0:0:0:0:
457,60,187008,1,8,0:0:0:0:
297,23,187142,6,0,P|255:98|326:194,1,215.999993408203,14|2,0:0|0:0,0:0:0:0:
504,266,187544,2,0,P|461:237|390:236,1,107.999996704102,8|0,0:0|0:0,0:0:0:0:
271,263,187812,1,2,0:0:0:0:
343,384,187946,6,0,P|355:314|342:270,1,107.999996704102,8|2,0:0|0:0,0:0:0:0:
194,340,188214,2,0,P|184:287|197:235,1,107.999996704102,8|2,0:0|0:0,0:0:0:0:
353,191,188481,2,0,B|281:171|281:171|235:183,1,107.999996704102,8|2,0:0|0:0,0:0:0:0:
58,149,188749,2,0,B|130:169|130:169|176:157,1,107.999996704102,10|0,0:0|0:0,0:0:0:0:
333,108,189017,1,2,0:0:0:0:
192,87,189151,2,0,P|215:0|266:68,1,215.999993408203,8|2,0:0|0:0,0:0:0:0:
196,235,189553,5,8,0:0:0:0:
58,149,189687,1,8,0:0:0:0:
248,179,189821,1,8,0:0:0:0:
71,243,189955,5,8,0:0:0:0:
192,87,190089,1,8,0:0:0:0:
141,297,190222,1,8,0:0:0:0:
107,79,190356,6,0,P|133:142|114:198,1,107.999996704102,14|0,0:0|0:0,0:0:0:0:
58,327,190624,1,2,0:0:0:0:
38,180,190758,2,0,P|73:247|206:214,1,215.999993408203,8|2,0:0|0:0,0:0:0:0:
338,225,191160,2,0,P|297:187|216:188,1,107.999996704102,8|2,0:0|0:0,0:0:0:0:
249,355,191428,2,2,B|277:304|277:304|263:243,1,107.999996704102,8|0,0:0|0:0,0:0:0:0:
193,59,191696,2,0,B|165:110|165:110|179:171,1,107.999996704102,8|2,0:0|0:0,0:0:0:0:
419,252,191964,6,0,P|419:197|387:151,1,107.999996704102,10|0,0:0|0:0,0:0:0:0:
265,255,192231,1,2,0:0:0:0:
310,48,192365,2,0,P|298:122|327:191,1,107.999996704102,8|0,0:0|0:0,0:0:0:0:
352,309,192633,1,2,0:0:0:0:
305,153,192767,6,0,P|190:168|138:76,1,215.999993408203,10|8,0:0|0:0,0:0:0:0:
395,180,193169,2,8,P|395:125|363:79,1,107.999996704102
338,225,193437,2,8,P|380:251|440:238,1,107.999996704102,8|6,0:0|0:0,0:0:0:0:
256,192,193638,12,0,196517,0:0:0:0:
226,124,196785,5,2,0:0:0:0:
333,205,196919,1,0,0:0:0:0:
428,101,197053,2,0,P|385:120|321:106,1,90
149,226,197321,2,0,P|192:207|256:221,1,90
399,340,197589,6,0,P|441:288|396:173,1,180,8|0,0:0|0:0,0:0:0:0:
305,305,197990,1,0,0:0:0:0:
343,116,198124,2,0,P|331:172|342:230,1,90
467,78,198392,6,0,B|416:56|379:34|379:34|338:40|285:41,1,180,2|0,0:0|0:0,0:0:0:0:
159,131,198794,2,0,P|214:121|253:124,1,90
334,204,199062,1,0,0:0:0:0:
467,78,199196,2,0,P|477:123|473:167,1,90,12|0,0:0|0:0,0:0:0:0:
449,303,199464,1,8,0:0:0:0:
419,224,199597,1,0,0:0:0:0:
509,241,199731,1,8,0:0:0:0:
351,298,199865,1,8,0:0:0:0:
381,135,199999,6,0,P|328:205|212:173,1,180,6|0,0:0|0:0,0:0:0:0:
57,202,200401,2,0,P|110:132|226:164,1,180
162,237,200803,2,0,P|195:270|246:288,1,90,8|0,0:0|0:0,0:0:0:0:
276,95,201071,2,0,P|244:63|203:45,1,90
381,135,201339,2,0,P|387:90|375:47,1,90
242,201,201606,6,0,P|339:241|429:198,1,180,2|0,0:0|0:0,0:0:0:0:
468,339,202008,2,0,B|423:359|423:359|354:344,1,90
252,312,202276,1,0,0:0:0:0:
82,217,202410,2,0,P|129:217|173:236,1,90,12|0,0:0|0:0,0:0:0:0:
165,331,202678,2,0,P|122:353|73:350,1,90
269,226,202946,2,0,P|269:276|249:313,1,90
229,154,203214,6,0,P|316:122|409:151,1,180,6|0,0:0|0:0,0:0:0:0:
391,59,203615,2,0,P|350:49|307:25,2,90
434,233,204017,2,0,P|490:172|461:70,1,180,8|0,0:0|0:0,0:0:0:0:
348,224,204419,2,0,P|337:282|365:344,2,90
397,153,204821,6,0,B|302:117|300:208|192:164,1,180,2|0,0:0|0:0,0:0:0:0:
157,112,205222,2,0,P|135:191|202:262,1,180,2|0,0:0|0:0,0:0:0:0:
315,311,205624,2,0,P|370:308|405:279,1,90,8|0,0:0|0:0,0:0:0:0:
212,346,205892,2,0,P|165:343|116:317,1,90,8|0,0:0|0:0,0:0:0:0:
283,222,206160,1,8,0:0:0:0:
279,383,206294,1,8,0:0:0:0:
180,152,206428,6,0,P|180:198|188:249,1,90,4|0,0:0|0:0,0:0:0:0:
269,135,206830,2,0,P|272:83|266:36,1,90
169,49,207231,2,0,P|128:63|95:109,1,90
79,194,207767,1,0,0:0:0:0:
202,274,208035,6,0,P|139:292|97:280,1,90
223,200,208437,2,0,P|286:182|328:194,1,90
301,270,208839,2,0,P|285:321|244:345,2,90
218,121,209642,6,0,P|277:100|314:103,1,90
396,184,210044,2,0,B|402:142|402:142|387:88,1,90
310,186,210446,2,0,P|319:227|359:264,1,90
483,193,210981,1,0,0:0:0:0:
443,322,211249,5,0,0:0:0:0:
321,263,211517,1,0,0:0:0:0:
321,263,211651,2,0,P|307:290|302:310,1,45
367,369,211919,1,0,0:0:0:0:
452,235,212053,2,0,P|457:284|437:328,1,90
396,184,212588,1,0,0:0:0:0:
250,97,212856,6,0,P|246:155|261:193,1,90
328,308,213258,2,0,P|332:250|317:212,1,90
256,274,213660,2,0,P|196:251|175:213,1,90
173,96,214196,1,0,0:0:0:0:
24,147,214464,6,0,B|82:163|82:163|123:160,1,90
191,254,214865,2,0,B|133:238|133:238|92:241,1,90
56,312,215267,2,0,P|19:273|22:221,2,90
186,346,216071,5,0,0:0:0:0:
349,304,216339,2,0,P|318:296|286:292,1,45
191,254,216740,2,0,P|224:249|254:242,1,45
369,224,217142,1,0,0:0:0:0:
254,151,217410,1,0,0:0:0:0:
305,293,217678,1,0,0:0:0:0:
256,192,217745,12,0,222499,0:0:0:0:
