osu file format v14

[General]
AudioFilename: audio.mp3
AudioLeadIn: 0
PreviewTime: 128401
Countdown: 0
SampleSet: Soft
StackLeniency: 0.7
Mode: 0
LetterboxInBreaks: 0
EpilepsyWarning: 1
WidescreenStoryboard: 1

[Editor]
DistanceSpacing: 1.1
BeatDivisor: 4
GridSize: 16
TimelineZoom: 2.1

[Metadata]
Title:in the Garden
TitleUnicode:in the Garden
Artist:Primary
ArtistUnicode:Primary
Creator:MrSergio
Version:Normal
Source:
Tags:yuikonnu Garven Jonimay [Vincent] Sylphi Rizen Yuii- pkhg 11th album from Meis Clauson Underflow
BeatmapID:1089982
BeatmapSetID:492525

[Difficulty]
HPDrainRate:3
CircleSize:3.5
OverallDifficulty:4
ApproachRate:5
SliderMultiplier:0.999999999999999
SliderTickRate:1

[Events]
//Background and Video events
0,0,"flowers.jpg",0,0
//Break Periods
2,87619,95862
2,167976,178630
//Storyboard Layer 0 (Background)
//Storyboard Layer 1 (Fail)
//Storyboard Layer 2 (Pass)
//Storyboard Layer 3 (Foreground)
Sprite,Foreground,Centre,"SB\lyrics\credits4b.png",320,240 S,0,22866,,0.66 F,0,22866,23134,0,1 MX,0,22866,25544,250,170 MY,0,22866,25544,300 F,0,23134,24741,1 F,0,24741,25544,1,0
Sprite,Foreground,Centre,"SB\lyrics\mrsergio.png",320,240 S,0,22866,,0.66 F,0,22866,23134,0,1 MX,0,22866,25544,360,440 MY,0,22866,25544,360 F,0,23134,24741,1 F,0,24741,25544,1,0
Sprite,Foreground,Centre,"sb\highlight.png",320,240 M,0,167776,,138,81 C,0,167776,,255,128,128 F,0,167776,167910,0,1 F,2,167910,168312,1,0
Sprite,Foreground,Centre,"sb\highlight.png",320,240 M,0,179830,,308,332 C,0,179830,,242,165,60 F,0,179830,179964,0,0.66 F,2,179964,180366,0.66,0
Sprite,Foreground,Centre,"sb\highlight.png",320,240 M,0,180098,,304,415 C,0,180098,,242,165,60 F,0,180098,180232,0,0.66 F,2,180232,180634,0.66,0
Sprite,Foreground,Centre,"sb\highlight.png",320,240 M,0,180366,,308,332 C,0,180366,,242,165,60 F,0,180366,180500,0,0.66 F,2,180500,180902,0.66,0
//Storyboard Sound Samples

[TimingPoints]
634,267.857142857143,6,2,65,55,1,0
634,-133.333333333333,6,2,65,55,0,0
2241,-133.333333333333,6,2,66,55,0,0
3848,-133.333333333333,6,2,67,55,0,0
5187,-133.333333333333,6,2,100,55,0,0
5455,-133.333333333333,6,2,66,55,0,0
5723,-133.333333333333,6,2,67,55,0,0
5857,-133.333333333333,6,2,66,55,0,0
6125,-133.333333333333,6,2,67,55,0,0
6259,-133.333333333333,6,2,68,55,0,0
6459,-133.333333333333,6,2,68,55,0,0
6526,-133.333333333333,6,2,68,55,0,0
6727,-133.333333333333,6,2,68,55,0,0
6794,-133.333333333333,6,2,68,55,0,0
6995,-133.333333333333,6,2,68,55,0,0
7062,-133.333333333333,6,2,65,55,0,0
8669,-133.333333333333,6,2,66,55,0,0
10276,-133.333333333333,6,2,67,55,0,0
11080,-133.333333333333,6,2,68,55,0,0
11348,-133.333333333333,6,2,67,55,0,0
11616,-133.333333333333,6,2,68,55,0,0
11884,-133.333333333333,6,2,68,55,0,0
13223,-133.333333333333,6,2,3,5,0,0
13424,-133.333333333333,6,2,3,5,0,0
13491,-133.333333333333,6,2,3,80,0,1
13625,-133.333333333333,6,2,1,80,0,1
15098,-133.333333333333,6,2,3,80,0,1
15232,-133.333333333333,6,2,1,80,0,1
16705,-133.333333333333,6,2,3,80,0,1
16839,-133.333333333333,6,2,1,80,0,1
18312,-133.333333333333,6,2,3,80,0,1
18446,-133.333333333333,6,2,1,80,0,1
19920,-133.333333333333,6,2,3,80,0,1
20053,-133.333333333333,6,2,1,80,0,1
21527,-133.333333333333,6,2,3,80,0,1
21661,-133.333333333333,6,2,1,80,0,1
23134,-133.333333333333,6,2,3,80,0,1
23268,-133.333333333333,6,2,1,80,0,1
24741,-133.333333333333,6,2,3,80,0,1
24875,-133.333333333333,6,2,1,80,0,1
25544,-133.333333333333,6,2,1,80,0,1
25745,-133.333333333333,6,2,1,80,0,1
25812,-133.333333333333,6,2,1,80,0,1
26013,-133.333333333333,6,2,1,80,0,1
26080,-133.333333333333,6,2,1,80,0,1
26348,-133.333333333333,6,2,2,50,0,0
26482,-133.333333333333,6,2,1,50,0,0
38468,-133.333333333333,6,2,1,50,0,0
38669,-133.333333333333,6,2,1,50,0,0
38937,-133.333333333333,6,2,1,50,0,0
39205,-133.333333333333,6,2,2,60,0,0
39339,-133.333333333333,6,2,1,60,0,0
45634,-133.333333333333,6,2,2,60,0,0
45768,-133.333333333333,6,2,1,60,0,0
52062,-133.333333333333,6,2,2,70,0,0
52196,-133.333333333333,6,2,1,50,0,0
52866,-133.333333333333,6,2,2,70,0,0
53000,-133.333333333333,6,2,1,50,0,0
53670,-133.333333333333,6,2,2,70,0,0
53803,-133.333333333333,6,2,1,50,0,0
54473,-133.333333333333,6,2,2,70,0,0
54607,-133.333333333333,6,2,1,50,0,0
55277,-133.333333333333,6,2,2,70,0,0
55411,-133.333333333333,6,2,1,55,0,0
56080,-133.333333333333,6,2,2,70,0,0
56214,-133.333333333333,6,2,1,55,0,0
56884,-133.333333333333,6,2,2,70,0,0
57018,-133.333333333333,6,2,1,60,0,0
57152,-133.333333333333,6,2,1,70,0,0
57420,-133.333333333333,6,2,1,80,0,0
57687,-133.333333333333,6,2,99,80,0,0
57955,-133.333333333333,6,2,95,50,0,0
58223,-133.333333333333,6,2,96,50,0,0
58491,-133.333333333333,6,2,75,80,0,1
58625,-133.333333333333,6,2,96,80,0,1
59562,-133.333333333333,6,2,95,80,0,1
59830,-133.333333333333,6,2,94,80,0,1
60098,-133.333333333333,6,2,76,80,0,1
60232,-133.333333333333,6,2,94,80,0,1
61169,-133.333333333333,6,2,95,80,0,1
61437,-133.333333333333,6,2,94,80,0,1
61705,-133.333333333333,6,2,77,80,0,1
61839,-133.333333333333,6,2,93,80,0,1
62776,-133.333333333333,6,2,92,80,0,1
63044,-133.333333333333,6,2,91,80,0,1
63312,-133.333333333333,6,2,78,80,0,1
63446,-133.333333333333,6,2,1,80,0,1
64116,-133.333333333333,6,2,79,80,0,1
64384,-133.333333333333,6,2,95,80,0,1
64651,-133.333333333333,6,2,96,80,0,1
64920,-133.333333333333,6,2,75,80,0,1
65053,-133.333333333333,6,2,96,80,0,1
65991,-133.333333333333,6,2,95,80,0,1
66259,-133.333333333333,6,2,94,80,0,1
66527,-133.333333333333,6,2,76,80,0,1
66660,-133.333333333333,6,2,94,80,0,1
67598,-133.333333333333,6,2,97,80,0,1
67866,-133.333333333333,6,2,94,80,0,1
68134,-133.333333333333,6,2,77,80,0,1
68268,-133.333333333333,6,2,93,80,0,1
69205,-133.333333333333,6,2,94,80,0,1
69473,-133.333333333333,6,2,95,80,0,1
69741,-133.333333333333,6,2,80,80,0,1
69875,-133.333333333333,6,2,1,80,0,1
70544,-133.333333333333,6,2,79,80,0,1
70812,-133.333333333333,6,2,95,80,0,1
71080,-133.333333333333,6,2,96,80,0,1
71348,-133.333333333333,6,2,75,80,0,1
71482,-133.333333333333,6,2,96,80,0,1
72419,-133.333333333333,6,2,95,80,0,1
72687,-133.333333333333,6,2,94,80,0,1
72955,-133.333333333333,6,2,76,80,0,1
73089,-133.333333333333,6,2,94,80,0,1
74026,-133.333333333333,6,2,95,80,0,1
74294,-133.333333333333,6,2,94,80,0,1
74562,-133.333333333333,6,2,77,80,0,1
74696,-133.333333333333,6,2,93,80,0,1
75634,-133.333333333333,6,2,92,80,0,1
75901,-133.333333333333,6,2,91,80,0,1
76170,-133.333333333333,6,2,78,80,0,1
76303,-133.333333333333,6,2,1,80,0,1
76973,-133.333333333333,6,2,79,80,0,1
77241,-133.333333333333,6,2,95,80,0,1
77509,-133.333333333333,6,2,96,80,0,1
77777,-133.333333333333,6,2,75,80,0,1
77911,-133.333333333333,6,2,96,80,0,1
78848,-133.333333333333,6,2,95,80,0,1
79116,-133.333333333333,6,2,94,80,0,1
79384,-133.333333333333,6,2,76,80,0,1
79518,-133.333333333333,6,2,94,80,0,1
80455,-133.333333333333,6,2,97,80,0,1
80723,-133.333333333333,6,2,94,80,0,1
80991,-133.333333333333,6,2,77,80,0,1
81125,-133.333333333333,6,2,93,80,0,1
82062,-133.333333333333,6,2,94,80,0,1
82330,-133.333333333333,6,2,95,80,0,1
82598,-133.333333333333,6,2,80,80,0,1
82732,-133.333333333333,6,2,1,80,0,1
83401,-133.333333333333,6,2,82,80,0,1
83535,-133.333333333333,6,2,1,80,0,1
83937,-133.333333333333,6,2,96,80,0,1
84205,-133.333333333333,6,2,81,80,0,0
87420,-133.333333333333,6,2,1,80,0,0
90634,-133.333333333333,6,2,0,80,0,0
90700,-133.333333333333,6,2,1,80,0,0
97062,-133.333333333333,6,2,2,50,0,0
97196,-133.333333333333,6,2,1,50,0,0
109919,-133.333333333333,6,2,2,60,0,0
110053,-133.333333333333,6,2,1,60,0,0
116348,-133.333333333333,6,2,2,60,0,0
116482,-133.333333333333,6,2,1,60,0,0
122776,-133.333333333333,6,2,2,70,0,0
122910,-133.333333333333,6,2,1,50,0,0
123580,-133.333333333333,6,2,2,70,0,0
123714,-133.333333333333,6,2,1,50,0,0
124383,-133.333333333333,6,2,2,70,0,0
124517,-133.333333333333,6,2,1,50,0,0
125187,-133.333333333333,6,2,2,70,0,0
125321,-133.333333333333,6,2,1,50,0,0
125991,-133.333333333333,6,2,2,70,0,0
126124,-133.333333333333,6,2,1,55,0,0
126794,-133.333333333333,6,2,2,70,0,0
126928,-133.333333333333,6,2,1,55,0,0
127598,-133.333333333333,6,2,2,70,0,0
127732,-133.333333333333,6,2,1,60,0,0
127866,-133.333333333333,6,2,1,70,0,0
128133,-133.333333333333,6,2,1,80,0,0
128401,-133.333333333333,6,2,99,80,0,0
128535,-133.333333333333,6,2,1,60,0,0
128669,-133.333333333333,6,2,95,60,0,0
128937,-133.333333333333,6,2,96,60,0,0
129205,-133.333333333333,6,2,75,85,0,1
129339,-133.333333333333,6,2,96,85,0,1
130276,-133.333333333333,6,2,95,85,0,1
130544,-133.333333333333,6,2,94,85,0,1
130812,-133.333333333333,6,2,76,85,0,1
130946,-133.333333333333,6,2,94,85,0,1
131884,-133.333333333333,6,2,95,85,0,1
132151,-133.333333333333,6,2,94,85,0,1
132419,-133.333333333333,6,2,77,85,0,1
132553,-133.333333333333,6,2,93,85,0,1
133491,-133.333333333333,6,2,92,85,0,1
133759,-133.333333333333,6,2,91,85,0,1
134026,-133.333333333333,6,2,78,85,0,1
134160,-133.333333333333,6,2,1,85,0,1
134830,-133.333333333333,6,2,79,85,0,1
135098,-133.333333333333,6,2,95,85,0,1
135366,-133.333333333333,6,2,96,85,0,1
135633,-133.333333333333,6,2,75,85,0,1
135767,-133.333333333333,6,2,96,85,0,1
136705,-133.333333333333,6,2,95,85,0,1
136973,-133.333333333333,6,2,94,85,0,1
137241,-133.333333333333,6,2,76,85,0,1
137374,-133.333333333333,6,2,94,85,0,1
138312,-133.333333333333,6,2,97,85,0,1
138580,-133.333333333333,6,2,94,85,0,1
138848,-133.333333333333,6,2,77,85,0,1
138982,-133.333333333333,6,2,93,85,0,1
139919,-133.333333333333,6,2,94,85,0,1
140187,-133.333333333333,6,2,95,85,0,1
140455,-133.333333333333,6,2,80,85,0,1
140589,-133.333333333333,6,2,1,85,0,1
141259,-133.333333333333,6,2,79,85,0,1
141526,-133.333333333333,6,2,95,85,0,1
141794,-133.333333333333,6,2,96,85,0,1
142062,-133.333333333333,6,2,75,85,0,1
142196,-133.333333333333,6,2,96,85,0,1
143134,-133.333333333333,6,2,95,85,0,1
143401,-133.333333333333,6,2,94,85,0,1
143669,-133.333333333333,6,2,76,85,0,1
143803,-133.333333333333,6,2,94,85,0,1
144741,-133.333333333333,6,2,95,85,0,1
145009,-133.333333333333,6,2,94,85,0,1
145276,-133.333333333333,6,2,77,85,0,1
145410,-133.333333333333,6,2,93,85,0,1
146348,-133.333333333333,6,2,92,85,0,1
146616,-133.333333333333,6,2,91,85,0,1
146883,-133.333333333333,6,2,78,85,0,1
147017,-133.333333333333,6,2,1,85,0,1
147687,-133.333333333333,6,2,79,85,0,1
147955,-133.333333333333,6,2,95,85,0,1
148223,-133.333333333333,6,2,96,85,0,1
148491,-133.333333333333,6,2,75,85,0,1
148624,-133.333333333333,6,2,96,85,0,1
149562,-133.333333333333,6,2,95,85,0,1
149830,-133.333333333333,6,2,94,85,0,1
150098,-133.333333333333,6,2,76,85,0,1
150232,-133.333333333333,6,2,94,85,0,1
151169,-133.333333333333,6,2,97,85,0,1
151437,-133.333333333333,6,2,94,85,0,1
151705,-133.333333333333,6,2,77,85,0,1
151839,-133.333333333333,6,2,93,85,0,1
152776,-133.333333333333,6,2,94,85,0,1
153044,-133.333333333333,6,2,95,85,0,1
153312,-133.333333333333,6,2,80,85,0,1
153446,-133.333333333333,6,2,1,85,0,1
154116,-133.333333333333,6,2,82,85,0,1
154250,-133.333333333333,6,2,1,85,0,1
154651,-133.333333333333,6,2,96,85,0,1
154919,-133.333333333333,6,2,81,85,0,0
155053,-133.333333333333,6,2,1,75,0,0
161348,-133.333333333333,6,2,2,75,0,0
161482,-133.333333333333,6,2,1,75,0,0
167174,-133.333333333333,6,2,1,75,0,0
167241,-133.333333333333,6,2,1,75,0,0
167442,-133.333333333333,6,2,1,75,0,0
167509,-133.333333333333,6,2,1,75,0,0
167709,-133.333333333333,6,2,1,75,0,0
167776,-133.333333333333,6,2,50,60,0,0
168580,-133.333333333333,6,2,96,45,0,0
168848,-133.333333333333,6,2,94,45,0,0
169116,-133.333333333333,6,2,91,45,0,0
170723,-133.333333333333,6,2,96,45,0,0
170991,-133.333333333333,6,2,95,45,0,0
171794,-133.333333333333,6,2,97,45,0,0
172330,-133.333333333333,6,2,93,45,0,0
172598,-133.333333333333,6,2,94,45,0,0
173401,-133.333333333333,6,2,96,45,0,0
173669,-133.333333333333,6,2,98,45,0,0
173937,-133.333333333333,6,2,97,45,0,0
175276,-133.333333333333,6,2,93,45,0,0
175544,-133.333333333333,6,2,94,45,0,0
175812,-133.333333333333,6,2,97,45,0,0
176616,-133.333333333333,6,2,94,45,0,0
177151,-133.333333333333,6,2,96,45,0,0
177419,-133.333333333333,6,2,95,45,0,0
178223,-133.333333333333,6,3,97,45,0,0
178759,-133.333333333333,6,2,93,45,0,0
179026,-133.333333333333,6,2,94,45,0,0
179830,-133.333333333333,6,2,99,80,0,0
180098,-133.333333333333,6,2,95,60,0,0
180366,-133.333333333333,6,2,96,60,0,0
180634,-133.333333333333,6,2,75,90,0,1
180767,-133.333333333333,6,2,1,90,0,1
181035,-133.333333333333,6,2,3,90,0,1
181169,-133.333333333333,6,2,1,90,0,1
181437,-133.333333333333,6,2,3,90,0,1
181571,-133.333333333333,6,2,1,90,0,1
181705,-133.333333333333,6,2,3,90,0,1
181839,-133.333333333333,6,2,1,90,0,1
181973,-133.333333333333,6,2,3,90,0,1
182107,-133.333333333333,6,2,1,90,0,1
182241,-133.333333333333,6,2,76,90,0,1
182374,-133.333333333333,6,2,1,90,0,1
182642,-133.333333333333,6,2,3,90,0,1
182776,-133.333333333333,6,2,1,90,0,1
183044,-133.333333333333,6,2,3,90,0,1
183178,-133.333333333333,6,2,1,90,0,1
183848,-133.333333333333,6,2,77,90,0,1
183982,-133.333333333333,6,2,1,90,0,1
184249,-133.333333333333,6,2,3,90,0,1
184383,-133.333333333333,6,2,1,90,0,1
184651,-133.333333333333,6,2,3,90,0,1
184785,-133.333333333333,6,2,1,90,0,1
184919,-133.333333333333,6,2,3,90,0,1
185053,-133.333333333333,6,2,1,90,0,1
185187,-133.333333333333,6,2,3,90,0,1
185321,-133.333333333333,6,2,1,90,0,1
185455,-133.333333333333,6,2,78,90,0,1
185589,-133.333333333333,6,2,1,90,0,1
185857,-133.333333333333,6,2,3,90,0,1
185991,-133.333333333333,6,2,1,90,0,1
186258,-133.333333333333,6,2,79,90,0,1
186392,-133.333333333333,6,2,1,90,0,1
187062,-133.333333333333,6,2,75,90,0,1
187196,-133.333333333333,6,2,1,90,0,1
187464,-133.333333333333,6,2,3,90,0,1
187598,-133.333333333333,6,2,1,90,0,1
187866,-133.333333333333,6,2,3,90,0,1
187999,-133.333333333333,6,2,1,90,0,1
188133,-133.333333333333,6,2,3,90,0,1
188267,-133.333333333333,6,2,1,90,0,1
188401,-133.333333333333,6,2,3,90,0,1
188535,-133.333333333333,6,2,1,90,0,1
188669,-133.333333333333,6,2,76,90,0,1
188803,-133.333333333333,6,2,1,90,0,1
189071,-133.333333333333,6,2,3,90,0,1
189205,-133.333333333333,6,2,1,90,0,1
189473,-133.333333333333,6,2,3,90,0,1
189607,-133.333333333333,6,2,1,90,0,1
190276,-133.333333333333,6,2,77,90,0,1
190410,-133.333333333333,6,2,1,90,0,1
190678,-133.333333333333,6,2,3,90,0,1
190812,-133.333333333333,6,2,1,90,0,1
191080,-133.333333333333,6,2,3,90,0,1
191214,-133.333333333333,6,2,1,90,0,1
191348,-133.333333333333,6,2,3,90,0,1
191482,-133.333333333333,6,2,1,90,0,1
191616,-133.333333333333,6,2,3,90,0,1
191749,-133.333333333333,6,2,1,90,0,1
191883,-133.333333333333,6,2,80,90,0,1
192017,-133.333333333333,6,2,1,90,0,1
192285,-133.333333333333,6,2,3,90,0,1
192419,-133.333333333333,6,2,1,90,0,1
192687,-133.333333333333,6,2,82,90,0,1
192821,-133.333333333333,6,2,1,90,0,1
193491,-133.333333333333,6,2,81,80,0,0
193624,-133.333333333333,6,2,1,80,0,0
199919,-133.333333333333,6,2,2,80,0,0
200053,-133.333333333333,6,2,1,80,0,0
203334,-133.333333333333,6,2,1,80,0,0
203401,-133.333333333333,6,2,1,80,0,0
206348,-133.333333333333,6,2,2,60,0,0
206482,-133.333333333333,6,2,65,55,0,0
207955,-133.333333333333,6,2,66,55,0,0
209562,-133.333333333333,6,2,67,55,0,0
210901,-133.333333333333,6,2,100,55,0,0
211169,-133.333333333333,6,2,66,55,0,0
211437,-133.333333333333,6,2,67,67,0,0
211571,-133.333333333333,6,2,66,55,0,0
211839,-133.333333333333,6,2,67,55,0,0
211973,-133.333333333333,6,2,68,55,0,0
212776,-133.333333333333,6,2,65,55,0,0
214384,-133.333333333333,6,2,66,55,0,0
215991,-133.333333333333,6,2,67,55,0,0
216794,-133.333333333333,6,2,68,55,0,0
217062,-133.333333333333,6,2,67,55,0,0
217330,-133.333333333333,6,2,68,55,0,0
217665,-133.333333333333,6,2,1,30,0,0
218401,-133.333333333333,6,2,1,25,0,0
219205,-133.333333333333,6,2,1,20,0,0
220009,-133.333333333333,6,2,1,15,0,0
220812,-133.333333333333,6,2,1,10,0,0
221080,-133.333333333333,6,2,1,9,0,0
221348,-133.333333333333,6,2,1,8,0,0
221616,-133.333333333333,6,2,1,7,0,0
221883,-133.333333333333,6,2,1,6,0,0
222151,-133.333333333333,6,2,1,5,0,0

[Colours]
Combo1 : 235,122,204
Combo2 : 255,128,128
Combo3 : 242,165,60
Combo4 : 236,230,98
Combo5 : 145,231,67
Combo6 : 79,194,227
Combo7 : 82,136,218
Combo8 : 184,95,222

[HitObjects]
161,199,634,6,0,P|146:168|151:90,2,112.500004291535,2|2|8,0:0|0:0|0:0,0:0:0:0:
208,266,1705,2,0,P|220:294|215:350,1,75.000002861023,4|8,0:0|0:0,0:0:0:0:
300,355,2241,6,0,B|373:364|373:364|418:353,2,112.500004291535,2|2|8,0:0|0:0|0:0,0:0:0:0:
219,337,3312,2,0,P|180:330|137:341,1,75.000002861023,4|8,0:0|0:0,0:0:0:0:
64,349,3848,6,0,L|53:265,1,75.000002861023,2|4,0:0|0:0,0:0:0:0:
87,249,4250,2,0,P|107:199|86:137,1,112.500004291534,2|2,0:0|0:0,0:0:0:0:
158,94,4919,2,0,L|247:99,1,75.000002861023,8|2,0:0|0:0,0:0:0:0:
304,57,5455,6,0,P|316:104|369:156,1,112.500004291534,8|8,0:0|0:0,0:0:0:0:
468,209,6259,2,0,P|467:241|450:290,2,75.000002861023,2|4|8,0:0|0:0|0:0,0:0:0:0:
495,131,7062,6,0,P|476:85|486:19,2,112.500004291534,2|2|8,0:0|0:0|0:0,0:0:0:0:
468,209,8134,2,0,L|392:224,1,75.000002861023,4|8,0:0|0:0,0:0:0:0:
331,277,8669,6,0,P|350:323|340:389,2,112.500004291534,2|2|8,0:0|0:0|0:0,0:0:0:0:
267,223,9741,2,0,L|191:208,1,75.000002861023,4|8,0:0|0:0,0:0:0:0:
116,237,10276,6,0,P|111:199|127:165,1,75.000002861023,2|4,0:0|0:0,0:0:0:0:
111,127,10678,2,0,P|154:97|180:35,1,112.500004291534,2|2,0:0|0:0,0:0:0:0:
254,89,11348,2,0,P|291:96|330:85,1,75.000002861023,4|2,0:0|0:0,0:0:0:0:
401,50,11884,5,4,0:0:0:0:
255,63,13491,6,0,P|265:98|260:146,1,75.000002861023,14|4,0:0|0:0,0:0:0:0:
291,166,13892,2,0,P|281:201|252:239,1,75.000002861023,10|4,0:0|0:0,0:0:0:0:
265,273,14294,2,0,P|238:298|194:316,2,75.000002861023,10|10|10,0:0|0:0|0:0,0:0:0:0:
329,325,15098,6,0,P|354:334|406:327,1,75.000002861023,14|4,0:0|0:0,0:0:0:0:
426,295,15500,1,10,0:0:0:0:
336,210,15901,2,0,P|317:182|342:66,1,150.000005722046,10|10,0:0|0:0,0:0:0:0:
257,42,16705,6,0,L|140:48,2,112.500004291534,14|10|10,0:0|0:0|0:0,0:0:0:0:
334,73,17776,1,10,0:0:0:0:
404,30,18044,1,10,0:0:0:0:
476,69,18312,6,0,B|476:139|476:139|449:174,2,112.500004291534,14|10|10,0:0|0:0|0:0,0:0:0:0:
404,30,19384,2,0,P|369:38|327:31,1,75.000002861023,10|10,3:0|0:0,0:0:0:0:
260,76,19919,6,0,B|247:129|247:129|251:155,1,75.000002861023,14|4,0:0|0:0,0:0:0:0:
222,180,20321,2,0,B|238:232|238:232|254:252,1,75.000002861023,10|4,0:0|0:0,0:0:0:0:
228,282,20723,2,0,B|268:318|268:318|293:327,2,75.000002861023,10|10|10,0:0|0:0|0:0,0:0:0:0:
154,319,21526,6,0,B|112:330|112:330|81:328,1,75.000002861023,14|4,0:0|0:0,0:0:0:0:
46,303,21928,1,10,0:0:0:0:
124,206,22330,2,0,B|136:152|136:152|127:110|127:110|141:47,1,150.000005722046,10|6,0:0|3:0,0:0:0:0:
216,86,23134,6,0,P|249:86|336:67,2,112.500004291534,14|10|10,0:0|0:0|0:0,0:0:0:0:
138,59,24205,1,10,0:0:0:0:
62,92,24473,1,10,0:0:0:0:
38,171,24741,6,0,L|49:288,2,112.500004291534,14|10|10,0:0|0:0|0:0,0:0:0:0:
119,181,25812,2,0,P|156:188|199:179,1,75.000002861023,10|10,3:0|0:0,0:0:0:0:
265,142,26348,5,14,0:0:0:0:
272,265,26750,2,0,P|311:250|386:259,1,112.500004291534,0|0,0:0|0:0,0:0:0:0:
450,300,27419,1,0,0:0:0:0:
471,136,27955,6,0,B|487:79|487:79|478:22,1,112.500004291534,2|0,0:0|0:0,0:0:0:0:
366,79,28759,2,0,L|285:76,1,75.000002861023,0|0,0:0|0:0,0:0:0:0:
216,111,29294,1,0,0:0:0:0:
142,149,29562,6,0,P|166:178|242:192,1,112.500004291534,2|0,0:0|0:0,0:0:0:0:
335,268,30366,2,0,L|413:237,2,75.000002861023,0|0|0,0:0|0:0|0:0,0:0:0:0:
273,321,31169,6,0,B|223:305|223:339|162:319,1,112.500004291534,2|0,0:0|0:0,0:0:0:0:
75,231,31973,2,0,L|82:145,2,75.000002861023,2|2|0,0:0|0:0|0:0,0:0:0:0:
33,302,32776,5,2,0:0:0:0:
115,306,33044,2,0,B|184:281|186:329|262:297,1,150.000005722046,0|0,0:0|0:0,0:0:0:0:
335,336,33848,2,0,P|374:343|419:330,1,75.000002861023,0|0,0:0|0:0,0:0:0:0:
453,265,34384,6,0,B|463:229|463:229|447:153,2,112.500004291534,2|0|0,0:0|0:0|0:0,0:0:0:0:
379,226,35455,2,0,L|364:145,1,75.000002861023,0|0,0:0|0:0,0:0:0:0:
337,74,35991,6,0,P|293:83|229:67,1,112.500004291534,2|0,0:0|0:0,0:0:0:0:
151,164,36794,2,0,P|193:167|233:191,1,75.000002861023,0|0,0:0|0:0,0:0:0:0:
233,221,37196,2,0,P|266:236|303:238,1,75.000002861023,0|0,0:0|0:0,0:0:0:0:
343,226,37598,6,0,B|355:174|322:173|342:115,1,112.500004291534,2|0,0:0|0:0,0:0:0:0:
457,70,38401,2,0,P|465:110|458:150,2,75.000002861023,2|2|0,0:0|0:0|0:0,0:0:0:0:
379,40,39205,5,14,0:0:0:0:
280,115,39607,2,0,P|230:126|162:100,1,112.500004291534,0|8,0:0|0:0,0:0:0:0:
91,95,40276,2,0,P|53:112|33:148,1,75.000002861023
50,221,40812,6,0,L|41:308,1,75.000002861023,6|0,0:0|0:0,0:0:0:0:
61,332,41214,1,4,0:0:0:0:
179,297,41616,2,0,L|265:300,2,75.000002861023,8|0|0,0:0|0:0|0:0,0:0:0:0:
137,225,42419,6,0,P|129:181|147:107,1,112.500004291534,6|0,0:0|0:0,0:0:0:0:
257,67,43223,2,0,P|270:121|262:176,1,112.500004291534,8|0,0:0|0:0,0:0:0:0:
232,296,44026,6,0,B|287:315|287:285|342:303,1,112.500004291534,6|4,0:0|0:0,0:0:0:0:
452,245,44830,2,0,L|462:163,1,75.000002861023,10|6,0:0|0:0,0:0:0:0:
416,100,45366,2,0,L|369:94,1,37.5000014305115,8|8,0:0|0:0,0:0:0:0:
342,75,45634,6,0,L|227:93,2,112.500004291534,14|0|8,0:0|0:0|0:0,0:0:0:0:
404,21,46705,2,0,L|485:27,1,75.000002861023,0|0,0:0|0:0,0:0:0:0:
493,107,47241,6,0,P|482:141|441:170,1,75.000002861023,6|0,0:0|0:0,0:0:0:0:
411,160,47642,1,4,0:0:0:0:
302,220,48044,2,0,P|305:246|343:293,2,75.000002861023,8|0|0,0:0|0:0|0:0,0:0:0:0:
241,163,48848,6,0,P|202:153|126:175,1,112.500004291534,6|0,0:0|0:0,0:0:0:0:
65,274,49651,2,0,L|76:349,2,75.000002861023,8|0|0,0:0|0:0|0:0,0:0:0:0:
26,200,50455,6,0,L|33:41,1,150.000005722046,6|0,0:0|0:0,0:0:0:0:
110,77,51259,2,0,L|188:69,2,75.000002861023,10|10|4,0:0|3:0|3:0,0:0:0:0:
32,50,52062,5,14,0:0:0:0:
253,161,52866,1,14,0:0:0:0:
471,44,53669,6,0,B|451:116|494:116|470:199,1,150.000005722046,14|0,0:0|0:0,0:0:0:0:
397,155,54473,2,0,P|362:141|257:173,1,150.000005722046,14|4,0:0|3:0,0:0:0:0:
185,209,55276,6,0,B|165:137|208:137|185:61,1,150.000005722046,14|0,0:0|0:0,0:0:0:0:
111,99,56080,2,0,L|28:93,2,75.000002861023,14|8|8,0:0|0:0|0:0,0:0:0:0:
185,61,56884,6,0,L|268:55,2,75.000002861023,14|10|10,0:0|0:0|0:0,0:0:0:0:
115,15,57687,1,14,0:0:0:0:
82,260,58491,6,0,B|113:259|113:259|128:265|128:265|162:266,1,75.000002861023,14|6,0:0|0:0,0:0:0:0:
190,288,58892,2,0,B|221:287|221:287|236:293|236:293|270:294,1,75.000002861023,10|6,0:0|0:0,0:0:0:0:
300,313,59294,2,0,B|331:312|331:312|346:318|346:318|380:319,2,75.000002861023,10|10|10,0:0|0:0|0:0,0:0:0:0:
320,232,60098,6,0,P|337:195|330:150,1,75.000002861023,14|4,0:0|0:0,0:0:0:0:
304,132,60500,1,8,0:0:0:0:
198,196,60901,2,0,P|179:134|213:46,1,150.000005722046,10|10,0:0|0:0,0:0:0:0:
282,27,61705,6,0,L|368:42,1,75.000002861023,14|6,0:0|0:0,0:0:0:0:
359,81,62107,2,0,L|415:147,1,75.000002861023,10|6,0:0|0:0,2:0:0:0:
389,176,62509,2,0,L|389:263,2,75.000002861023,10|10|10,0:0|0:0|0:0,2:0:0:0:
308,157,63312,6,0,B|271:152|271:152|192:168,1,112.500004291534,14|8,0:0|0:0,0:0:0:0:
126,269,64116,2,0,P|114:302|78:335,2,75.000002861023,10|10|10,0:0|3:0|0:0,0:0:0:0:
73,205,64919,6,0,P|67:159|80:124,1,75.000002861023,14|6,0:0|0:0,0:0:0:0:
116,138,65321,2,0,P|140:98|173:80,1,75.000002861023,10|4,0:0|0:0,2:0:0:0:
202,100,65723,2,0,P|246:86|282:92,2,75.000002861023,10|10|10,0:0|0:0|0:0,2:0:0:0:
248,168,66526,6,0,P|312:170|347:138,2,112.500004291534,14|8|10,0:0|0:0|0:0,0:0:0:0:
201,236,67598,2,0,P|191:268|199:311,1,75.000002861023,10|6,3:0|3:0,0:0:0:0:
267,352,68134,6,0,B|322:354|322:354|350:340,1,75.000002861023,14|6,0:0|0:0,0:0:0:0:
380,348,68535,2,0,B|423:314|423:314|435:285,1,75.000002861023,10|6,0:0|0:0,2:0:0:0:
471,286,68937,2,0,B|482:232|482:232|473:202,1,75.000002861023,10|10,0:0|0:0,2:0:0:0:
454,133,69473,1,10,0:0:0:0:
384,87,69741,6,0,P|333:87|273:54,2,112.500004291534,14|8|10,0:0|0:0|0:0,0:0:0:0:
417,162,70812,2,0,P|419:195|398:237,1,75.000002861023,10|10,3:0|0:0,0:0:0:0:
329,271,71348,6,0,P|296:271|259:290,1,75.000002861023,14|6,0:0|0:0,0:0:0:0:
220,275,71750,2,0,P|187:275|150:256,1,75.000002861023,10|6,0:0|0:0,0:0:0:0:
118,282,72151,2,0,P|80:283|47:306,2,75.000002861023,10|10|10,0:0|0:0|0:0,0:0:0:0:
112,364,72955,6,0,P|134:373|228:368,1,112.500004291534,14|8,0:0|0:0,0:0:0:0:
321,297,73759,2,0,B|351:222|290:221|324:137,1,150.000005722046,10|10,0:0|0:0,0:0:0:0:
273,81,74562,6,0,P|243:103|228:143,1,75.000002861023,14|6,0:0|0:0,0:0:0:0:
190,154,74964,2,0,P|184:190|202:229,1,75.000002861023,10|4,0:0|0:0,0:0:0:0:
183,262,75366,2,0,P|205:292|245:307,2,75.000002861023,10|10|10,0:0|0:0|0:0,0:0:0:0:
100,269,76169,6,0,B|75:247|75:247|51:172,1,112.500004291534,14|8,0:0|0:0,0:0:0:0:
146,92,76973,2,0,L|152:14,2,75.000002861023,10|10|10,0:0|0:3|0:0,0:0:0:0:
209,145,77776,6,0,L|290:155,1,75.000002861023,14|6,0:0|0:0,0:0:0:0:
313,182,78178,2,0,L|392:163,1,75.000002861023,10|6,0:0|0:0,0:0:0:0:
422,185,78580,2,0,L|490:140,2,75.000002861023,10|10|10,0:0|0:0|0:0,2:0:0:0:
382,257,79384,6,0,P|364:291|327:310,1,75.000002861023,14|4,0:0|0:0,0:0:0:0:
291,308,79785,1,8,0:0:0:0:
176,261,80187,2,0,P|111:250|33:294,1,150.000005722046,10|6,0:0|3:0,0:0:0:0:
3,212,80991,6,0,L|11:91,1,112.500004291534,14|10,0:0|0:0,0:0:0:0:
117,37,81794,2,0,L|193:27,2,75.000002861023,10|10|10,0:0|0:0|0:0,0:0:0:0:
35,20,82598,5,14,0:0:0:0:
224,179,83401,2,0,P|232:206|211:332,1,150.000005722046,10|10,0:0|0:0,0:0:0:0:
146,369,84205,5,14,0:0:0:0:
256,192,84339,12,4,87419,0:0:0:0:
333,98,97062,6,0,P|327:127|263:180,1,112.500004291534,14|0,0:0|0:0,0:0:0:0:
143,167,97866,2,0,L|63:162,2,75.000002861023,8|0|0,0:0|0:0|0:0,0:0:0:0:
192,233,98669,6,0,P|189:264|162:308,1,75.000002861023,6|0,0:0|0:0,0:0:0:0:
128,315,99071,1,0,0:0:0:0:
243,358,99473,2,0,L|327:356,2,75.000002861023,8|0|0,0:0|0:0|0:0,0:0:0:0:
268,279,100276,6,0,L|275:153,1,112.500004291534,6|0,0:0|0:0,0:0:0:0:
158,122,101080,2,0,L|164:234,1,112.500004291534,8|0,0:0|0:0,0:0:0:0:
56,295,101884,6,0,B|34:267|34:267|38:174,1,112.500004291534,6|0,0:0|0:0,0:0:0:0:
92,79,102687,2,0,P|129:71|171:79,1,75.000002861023,10|2,0:0|0:0,0:0:0:0:
239,112,103223,1,0,0:0:0:0:
315,142,103491,6,0,P|367:145|437:137,2,112.500004291534,6|0|8,0:0|0:0|0:0,0:0:0:0:
252,195,104562,2,0,P|234:210|173:221,1,75.000002861023,0|0,0:0|0:0,0:0:0:0:
122,167,105098,6,0,L|108:45,2,112.500004291534,6|0|8,0:0|0:0|0:0,0:0:0:0:
70,231,106169,2,0,L|62:319,1,75.000002861023,0|0,0:0|0:0,0:0:0:0:
145,293,106705,6,0,P|175:287|220:299,1,75.000002861023,6|0,0:0|0:0,0:0:0:0:
252,319,107107,1,0,0:0:0:0:
372,348,107509,2,0,P|402:346|451:322,2,75.000002861023,8|0|0,0:0|0:0|0:0,0:0:0:0:
325,279,108312,6,0,B|301:207|346:207|324:123,1,150.000005722046,6|0,0:0|0:0,0:0:0:0:
285,59,109116,1,10,0:0:0:0:
53,145,109919,6,0,P|82:154|134:221,1,112.500004291534,14|0,0:0|0:0,0:0:0:0:
133,339,110723,2,0,B|110:346|110:346|58:340,2,75.000002861023,8|0|0,0:0|0:0|0:0,0:0:0:0:
203,296,111526,6,0,P|224:286|284:286,1,75.000002861023,6|0,0:0|0:0,0:0:0:0:
313,299,111928,1,4,0:0:0:0:
429,340,112330,2,0,L|437:252,1,75.000002861023,8|0,0:0|0:0,0:0:0:0:
406,187,112866,1,0,0:0:0:0:
377,109,113134,6,0,P|334:102|264:114,2,112.500004291534,6|0|8,0:0|0:0|0:0,0:0:0:0:
458,123,114205,1,0,0:0:0:0:
406,187,114473,1,0,0:0:0:0:
330,220,114741,6,0,P|309:251|309:288,1,75.000002861023,6|0,0:0|0:0,0:0:0:0:
320,327,115142,1,4,0:0:0:0:
199,357,115544,2,0,P|165:362|123:343,1,75.000002861023,10|2,0:0|0:0,0:0:0:0:
82,277,116080,2,0,L|71:238,1,37.5000014305115,8|8,0:0|0:0,0:0:0:0:
36,219,116348,6,0,L|162:214,1,112.500004291534,14|0,0:0|0:0,0:0:0:0:
234,125,117151,2,0,L|239:45,2,75.000002861023,8|0|0,0:0|0:0|0:0,0:0:0:0:
291,185,117955,6,0,P|301:220|287:266,1,75.000002861023,6|0,0:0|0:0,0:0:0:0:
258,281,118357,2,0,P|248:316|262:362,1,75.000002861023,4|0,0:0|0:0,0:0:0:0:
289,377,118759,2,0,L|438:362,1,150.000005722046,8|0,0:0|0:0,0:0:0:0:
470,286,119562,6,0,L|478:197,1,75.000002861023,6|0,0:0|0:0,0:0:0:0:
453,177,119964,1,0,0:0:0:0:
348,243,120366,2,0,L|274:253,1,75.000002861023,8|0,0:0|0:0,0:0:0:0:
237,232,120767,1,0,0:0:0:0:
149,144,121169,6,0,P|121:147|41:241,1,150.000005722046,6|0,0:0|0:0,0:0:0:0:
52,313,121973,2,0,L|139:324,1,75.000002861023,10|10,0:0|3:0,0:0:0:0:
195,367,122509,1,4,3:0:0:0:
258,314,122776,5,14,0:0:0:0:
87,133,123580,1,14,0:0:0:0:
334,125,124384,6,0,P|347:151|337:276,1,150.000005722046,14|0,0:0|0:0,0:0:0:0:
273,316,125187,2,0,B|204:291|201:347|126:317,1,150.000005722046,14|4,0:0|3:0,0:0:0:0:
59,270,125991,6,0,P|46:244|56:119,1,150.000005722046,14|0,0:0|0:0,0:0:0:0:
119,79,126794,2,0,P|138:48|141:8,2,75.000002861023,14|8|8,0:0|0:0|0:0,0:0:0:0:
169,145,127598,6,0,P|150:176|147:216,2,75.000002861023,14|10|10,0:0|0:0|0:0,0:0:0:0:
230,89,128401,1,14,0:0:0:0:
347,307,129205,6,0,B|355:253|355:253|347:231,1,75.000002861023,14|6,0:0|0:0,0:0:0:0:
319,203,129607,2,0,B|311:149|311:149|319:127,1,75.000002861023,10|6,0:0|0:0,0:0:0:0:
354,109,130009,2,0,B|362:55|362:55|354:33,2,75.000002861023,10|10|10,0:0|0:0|0:0,0:0:0:0:
412,166,130812,6,0,P|423:198|459:225,1,75.000002861023,14|4,0:0|0:0,0:0:0:0:
495,215,131214,1,8,0:0:0:0:
473,336,131616,2,0,B|435:331|435:331|364:359|364:359|323:355,1,150.000005722046,10|10,0:0|0:0,0:0:0:0:
255,318,132419,6,0,P|213:313|169:325,1,75.000002861023,14|6,0:0|0:0,0:0:0:0:
182,278,132821,2,0,P|148:252|104:239,1,75.000002861023,10|4,0:0|0:0,2:0:0:0:
131,202,133223,2,0,P|115:162|84:129,2,75.000002861023,10|10|10,0:0|0:0|0:0,2:0:0:0:
211,183,134026,6,0,P|273:187|327:158,1,112.500004291534,14|8,0:0|0:0,0:0:0:0:
416,91,134830,2,0,L|424:14,2,75.000002861023,10|10|10,0:0|3:0|0:0,0:0:0:0:
477,146,135634,6,0,L|464:225,1,75.000002861023,14|6,0:0|0:0,0:0:0:0:
427,238,136035,2,0,L|432:315,1,75.000002861023,10|6,0:0|0:0,0:0:0:0:
411,348,136437,2,0,L|489:356,2,75.000002861023,10|10|10,0:0|0:0|0:0,0:0:0:0:
330,330,137241,6,0,P|298:321|245:330,1,75.000002861023,14|4,0:0|0:0,0:0:0:0:
219,341,137642,1,8,0:0:0:0:
95,335,138044,2,0,P|109:269|48:204,1,150.000005722046,10|6,0:0|3:0,0:0:0:0:
12,140,138848,6,0,P|33:110|73:96,1,75.000002861023,14|6,0:0|0:0,0:0:0:0:
96,66,139250,2,0,P|140:73|171:58,1,75.000002861023,10|6,0:0|0:0,0:0:0:0:
203,80,139651,2,0,P|235:67|279:76,2,75.000002861023,10|10|10,0:0|0:0|0:0,0:0:0:0:
168,155,140455,6,0,L|178:274,1,112.500004291534,14|8,0:0|0:0,0:0:0:0:
88,353,141259,2,0,L|13:347,2,75.000002861023,10|10|10,0:0|3:0|0:0,0:0:0:0:
170,359,142062,6,0,L|251:357,1,75.000002861023,14|6,0:0|0:0,0:0:0:0:
266,321,142464,2,0,L|342:334,1,75.000002861023,10|6,0:0|0:0,0:0:0:0:
374,311,142866,2,0,L|438:352,2,75.000002861023,10|10|10,0:0|0:0|0:0,0:0:0:0:
330,241,143669,6,0,P|318:215|327:162,1,75.000002861023,14|4,0:0|0:0,0:0:0:0:
346,135,144071,1,8,0:0:0:0:
211,144,144473,2,0,B|138:173|138:127|59:149,1,150.000005722046,10|10,0:0|0:0,0:0:0:0:
96,227,145276,6,0,P|88:260|58:290,1,75.000002861023,14|6,0:0|0:0,0:0:0:0:
74,327,145678,2,0,P|106:317|147:328,1,75.000002861023,10|6,0:0|0:0,0:0:0:0:
185,339,146080,2,0,P|220:348|256:339,2,75.000002861023,10|10|10,0:0|0:0|0:0,0:0:0:0:
223,265,146884,6,0,P|236:233|229:143,1,112.500004291534,14|8,0:0|0:0,0:0:0:0:
172,48,147687,2,0,P|210:54|257:37,1,75.000002861023,10|10,0:0|3:0,0:0:0:0:
323,17,148223,1,10,0:0:0:0:
397,52,148491,6,0,L|480:59,1,75.000002861023,14|6,0:0|0:0,0:0:0:0:
495,92,148892,2,0,L|489:168,1,75.000002861023,10|4,0:0|0:0,0:0:0:0:
461,197,149294,2,0,L|467:273,2,75.000002861023,10|10|10,0:0|0:0|0:0,0:0:0:0:
390,152,150098,6,0,B|364:154|340:172|340:172|305:157|272:171,2,112.500004291534,14|8|10,0:0|0:0|0:0,0:0:0:0:
461,197,151169,1,10,3:0:0:0:
468,114,151437,1,6,3:0:0:0:
399,68,151705,6,0,P|354:63|328:42,1,75.000002861023,14|6,0:0|0:0,0:0:0:0:
304,77,152107,2,0,P|270:92|229:90,1,75.000002861023,10|6,0:0|0:0,0:0:0:0:
203,120,152509,2,0,L|198:205,2,75.000002861023,10|10|10,0:0|0:0|0:0,0:0:0:0:
137,69,153312,6,0,P|89:55|19:77,1,112.500004291534,14|8,0:0|0:0,0:0:0:0:
15,193,154116,2,0,B|33:228|33:228|26:299|26:299|46:336,1,150.000005722046,10|10,0:0|0:0,0:0:0:0:
120,366,154919,5,14,0:0:0:0:
256,192,155053,12,10,157330,0:0:0:0:
404,59,158134,6,0,L|406:177,1,112.500004291534,6|0,0:0|0:0,0:0:0:0:
297,111,158937,2,0,L|302:32,2,75.000002861023,10|0|0,0:0|0:0|0:0,0:0:0:0:
231,161,159741,6,0,L|241:287,1,112.500004291534,6|4,0:0|0:0,0:0:0:0:
143,194,160544,2,0,L|147:113,1,75.000002861023,10|6,0:0|0:0,0:0:0:0:
114,42,161080,2,0,L|76:41,1,37.5000014305115,10|8,0:0|0:0,0:0:0:0:
38,25,161348,6,0,B|50:81|11:81|33:148,1,112.500004291534,14|0,0:0|0:0,0:0:0:0:
52,256,162151,2,0,P|53:290|36:332,2,75.000002861023,10|0|0,0:0|0:0|0:0,0:0:0:0:
98,187,162955,6,0,P|133:174|214:189,1,112.500004291534,6|4,0:0|0:0,0:0:0:0:
312,247,163759,2,0,L|310:326,2,75.000002861023,10|0|0,0:0|0:0|0:0,0:0:0:0:
350,173,164562,6,0,B|372:133|372:133|372:55,1,112.500004291534,6|0,0:0|0:0,0:0:0:0:
264,3,165366,2,0,B|242:43|242:43|242:109,1,112.500004291534,10|0,0:0|0:0,0:0:0:0:
179,216,166169,6,0,P|175:254|64:204,1,225.000008583069,6|10,0:0|0:0,0:0:0:0:
103,136,167241,1,10,3:0:0:0:
147,66,167509,1,6,3:0:0:0:
74,27,167776,5,14,0:0:0:0:
244,278,179830,6,0,L|240:361,2,75.000002861023,2|2|2,0:0|0:0|0:0,0:0:0:0:
216,199,180634,6,0,L|138:192,1,75.000002861023,14|6,0:0|0:0,0:0:0:0:
128,153,181035,2,0,L|52:156,1,75.000002861023,14|6,0:0|0:0,0:0:0:0:
16,174,181437,2,0,L|22:89,2,75.000002861023,14|14|14,0:0|0:0|0:0,0:0:0:0:
24,256,182241,6,0,B|14:293|14:293|46:326|36:375,1,112.500004291534,14|14,0:0|0:0,0:0:0:0:
162,348,183044,1,14,0:0:0:0:
230,301,183312,1,10,0:3:0:0:
312,306,183580,1,6,0:3:0:0:
379,353,183848,6,0,P|396:331|396:279,1,75.000002861023,14|6,0:0|0:0,0:0:0:0:
419,249,184250,2,0,P|402:227|402:175,1,75.000002861023,14|6,0:0|0:0,0:0:0:0:
374,148,184651,2,0,P|391:126|391:74,2,75.000002861023,14|14|14,0:0|0:0|0:0,0:0:0:0:
312,92,185455,6,0,B|278:80|278:80|200:81,1,112.500004291534,14|14,0:0|0:0,0:0:0:0:
87,129,186259,1,14,0:0:0:0:
107,208,186526,1,10,3:0:0:0:
128,287,186794,1,10,0:0:0:0:
188,230,187062,6,0,P|216:223|264:230,1,75.000002861023,14|6,0:0|0:0,0:0:0:0:
301,216,187464,2,0,L|303:125,1,75.000002861023,14|6,0:0|0:0,0:0:0:0:
338,120,187866,2,0,P|374:126|411:118,2,75.000002861023,14|14|14,0:0|0:0|0:0,0:0:0:0:
371,44,188669,6,0,P|414:34|484:73,1,112.500004291534,14|14,0:0|0:0,0:0:0:0:
475,185,189473,1,14,0:0:0:0:
408,233,189741,1,10,3:0:0:0:
423,314,190009,1,6,3:0:0:0:
355,360,190276,6,0,P|316:365|276:352,1,75.000002861023,14|6,0:0|0:0,0:0:0:0:
245,328,190678,2,0,P|215:316|164:330,1,75.000002861023,14|4,0:0|0:0,0:0:0:0:
150,361,191080,2,0,P|113:372|77:363,2,75.000002861023,14|14|14,0:0|0:0|0:0,0:0:0:0:
109,288,191884,6,0,L|114:166,1,112.500004291534,14|14,0:0|0:0,0:0:0:0:
205,93,192687,2,0,L|211:259,1,150.000005722046,14|10,0:0|0:0,0:0:0:0:
261,308,193491,5,14,0:0:0:0:
256,192,193625,12,6,196705,0:0:0:0:
242,95,197509,6,0,P|193:105|91:69,1,150.000005722046,8|0,0:0|0:0,0:0:0:0:
46,139,198312,6,0,B|32:171|43:198|43:198|42:221|11:247,2,112.500004291534,6|4|8,0:0|0:0|0:0,0:0:0:0:
99,75,199384,1,4,0:0:0:0:
150,11,199651,2,0,L|192:17,1,37.5000014305115,8|8,0:0|0:0,0:0:0:0:
211,49,199919,6,0,L|338:39,1,112.500004291534,14|0,0:0|0:0,0:0:0:0:
430,102,200723,2,0,L|444:21,2,75.000002861023,8|0|0,0:0|0:0|0:0,0:0:0:0:
363,151,201526,6,0,L|368:272,1,112.500004291534,6|4,0:0|0:0,0:0:0:0:
250,221,202330,2,0,L|168:227,2,75.000002861023,8|0|0,0:0|0:0|0:0,0:0:0:0:
296,152,203134,6,0,P|306:111|287:34,2,112.500004291534,6|0|8,0:0|0:0|0:0,0:0:0:0:
250,221,204205,1,0,0:0:0:0:
292,291,204473,1,0,0:0:0:0:
234,350,204741,6,0,B|184:375|184:328|115:354,1,112.500004291534,6|8,0:0|0:0,0:0:0:0:
1,359,205544,2,0,L|5:276,1,75.000002861023,8|8,0:0|3:0,0:0:0:0:
49,214,206080,1,4,3:0:0:0:
20,136,206348,6,0,P|35:99|24:17,2,112.500004291534,14|2|8,0:0|0:0|0:0,0:0:0:0:
49,214,207419,2,0,L|59:290,1,75.000002861023,4|8,0:0|0:0,0:0:0:0:
121,342,207955,6,0,B|197:347|197:347|240:332,2,112.500004291534,2|2|8,0:0|0:0|0:0,0:0:0:0:
148,264,209026,2,0,P|163:238|165:189,1,75.000002861023,4|8,0:0|0:0,0:0:0:0:
126,120,209562,6,0,L|205:111,1,75.000002861023,2|4,0:0|0:0,0:0:0:0:
224,77,209964,2,0,L|346:83,1,112.500004291534,2|2,0:0|0:0,0:0:0:0:
320,166,210634,2,0,P|313:203|329:245,1,75.000002861023,8|2,0:0|0:0,0:0:0:0:
384,293,211169,6,0,P|342:321|276:301,1,112.500004291534,8|8,0:0|0:0,0:0:0:0:
206,217,211973,2,0,P|180:207|127:210,2,75.000002861023,2|4|8,0:0|0:0|0:0,0:0:0:0:
287,205,212776,6,0,P|345:213|411:198,2,112.500004291534,2|2|8,0:0|0:0|0:0,0:0:0:0:
235,140,213848,2,0,P|242:107|235:57,1,75.000002861023,4|8,0:0|0:0,0:0:0:0:
162,32,214384,6,0,B|93:38|93:38|37:26,2,112.500004291534,2|2|8,0:0|0:0|0:0,0:0:0:0:
237,66,215455,2,0,L|316:69,1,75.000002861023,4|8,0:0|0:0,0:0:0:0:
386,31,215991,6,0,B|454:43|454:43|505:34,2,112.500004291534,2|2|4,0:0|0:0|0:0,0:0:0:0:
311,68,217062,2,0,P|303:98|320:141,1,75.000002861023,4|2,0:0|0:0,0:0:0:0:
364,206,217598,5,4,0:0:0:0:
256,192,217732,12,0,222419,0:0:0:0:
