osu file format v14

[General]
AudioFilename: -Primary-yuiko-in the Garden-------.mp3
AudioLeadIn: 0
PreviewTime: 128475
Countdown: 0
SampleSet: Soft
StackLeniency: 0.7
Mode: 3
LetterboxInBreaks: 0
SpecialStyle: 0
WidescreenStoryboard: 0

[Editor]
Bookmarks: 13565,26422,39279,52136,58565,71422,84279,97136,109993,122850,129279,142136,154993,167850,180708,193565,206422
DistanceSpacing: 1.1
BeatDivisor: 4
GridSize: 4
TimelineZoom: 1.2

[Metadata]
Title:in the Garden
TitleUnicode:in the Garden
Artist:Primary
ArtistUnicode:Primary
Creator:Mat
Version:LordRaika's 7K Hard
Source:
Tags:From GardeN yuiko yuikonnu meis clauson laughingcomet Julie LordRaika Hydria
BeatmapID:1037391
BeatmapSetID:361117

[Difficulty]
HPDrainRate:8.2
CircleSize:7
OverallDifficulty:7.8
ApproachRate:5
SliderMultiplier:1.4
SliderTickRate:1

[Events]
//Background and Video events
0,0,"animegarden.png",0,0
//Break Periods
//Storyboard Layer 0 (Background)
//Storyboard Layer 1 (Fail)
//Storyboard Layer 2 (Pass)
//Storyboard Layer 3 (Foreground)
//Storyboard Sound Samples
Sample,11891,0,"F6S.wav",65
Sample,11924,0,"G5S.wav",72
Sample,58699,0,"LR4_KickTBCRs.wav",40
Sample,58833,0,"LR_Tom Hit Y.wav",95
Sample,129413,0,"LR4_KickTBCRs.wav",40
Sample,129547,0,"LR_Tom Hit Y.wav",95
Sample,180841,0,"LR4_KickTBCRs.wav",40
Sample,180975,0,"LR_Tom Hit Y.wav",95

[TimingPoints]
708,267.857142857143,6,2,81,22,1,0
13163,-14.5560407569141,6,2,81,22,0,0
13230,-100,6,2,81,22,0,0
13565,-100,6,3,81,44,0,1
13632,-100,6,3,81,44,0,0
26422,-100,6,1,81,35,0,0
50931,-90.9090909090909,6,1,81,35,0,0
50998,-111.111111111111,6,1,81,35,0,0
51065,-86.9565217391304,6,1,81,35,0,0
51132,-117.647058823529,6,1,81,35,0,0
51199,-83.3333333333333,6,1,81,35,0,0
51266,-125,6,1,81,35,0,0
51333,-80,6,1,81,35,0,0
51399,-133.333333333333,6,1,81,35,0,0
51466,-76.9230769230769,6,1,81,35,0,0
51533,-142.857142857143,6,1,81,35,0,0
51600,-74.0740740740741,6,1,81,35,0,0
51667,-153.846153846154,6,1,81,35,0,0
51734,-71.4285714285714,6,1,81,35,0,0
51801,-166.666666666667,6,1,81,35,0,0
51868,-68.9655172413793,6,1,81,35,0,0
51935,-181.818181818182,6,1,81,35,0,0
52002,-66.6666666666667,6,1,81,35,0,0
52069,-200,6,1,81,35,0,0
52136,-76.9230769230769,6,3,81,40,0,0
52203,-142.857142857143,6,3,81,40,0,0
52270,-100,6,3,81,40,0,0
52940,-76.9230769230769,6,3,81,40,0,0
53007,-142.857142857143,6,3,81,40,0,0
53074,-100,6,3,81,40,0,0
53743,-76.9230769230769,6,3,81,40,0,0
53810,-142.857142857143,6,3,81,40,0,0
53877,-100,6,3,81,40,0,0
54547,-76.9230769230769,6,3,81,40,0,0
54614,-142.857142857143,6,3,81,40,0,0
54681,-100,6,3,81,40,0,0
55350,-74.0740740740741,6,3,81,40,0,0
55417,-153.846153846154,6,3,81,40,0,0
55484,-100,6,3,81,40,0,0
56154,-71.4285714285714,6,3,81,40,0,0
56221,-166.666666666667,6,3,81,40,0,0
56288,-100,6,3,81,40,0,0
56958,-68.9655172413793,6,3,81,40,0,0
57024,-181.818181818182,6,3,81,40,0,0
57091,-100,6,3,81,40,0,0
57761,-52.0833333333333,6,3,81,40,0,0
57795,-250,6,3,81,40,0,0
58029,-52.0833333333333,6,3,81,40,0,0
58062,-250,6,3,81,40,0,0
58297,-52.0833333333333,6,3,81,40,0,0
58330,-250,6,3,81,40,0,0
58565,-100,6,3,81,51,0,1
60975,-79.3650793650794,6,3,81,51,0,1
61042,-135.135135135135,6,3,81,51,0,1
61109,-79.3650793650794,6,3,81,51,0,1
61176,-135.135135135135,6,3,81,51,0,1
61243,-79.3650793650794,6,3,81,51,0,1
61310,-135.135135135135,6,3,81,51,0,1
61377,-79.3650793650794,6,3,81,51,0,1
61444,-135.135135135135,6,3,81,51,0,1
61511,-79.3650793650794,6,3,81,51,0,1
61578,-135.135135135135,6,3,81,51,0,1
61645,-79.3650793650794,6,3,81,51,0,1
61712,-135.135135135135,6,3,81,51,0,1
61779,-100,6,3,81,51,0,1
64190,-79.3650793650794,6,3,81,51,0,1
64257,-135.135135135135,6,3,81,51,0,1
64324,-79.3650793650794,6,3,81,51,0,1
64391,-135.135135135135,6,3,81,51,0,1
64458,-79.3650793650794,6,3,81,51,0,1
64524,-135.135135135135,6,3,81,51,0,1
64591,-79.3650793650794,6,3,81,51,0,1
64658,-135.135135135135,6,3,81,51,0,1
64725,-79.3650793650794,6,3,81,51,0,1
64792,-135.135135135135,6,3,81,51,0,1
64859,-79.3650793650794,6,3,81,51,0,1
64926,-135.135135135135,6,3,81,51,0,1
64993,-100,6,3,81,51,0,1
67404,-79.3650793650794,6,3,81,51,0,1
67471,-135.135135135135,6,3,81,51,0,1
67538,-79.3650793650794,6,3,81,51,0,1
67605,-135.135135135135,6,3,81,51,0,1
67672,-79.3650793650794,6,3,81,51,0,1
67739,-135.135135135135,6,3,81,51,0,1
67806,-79.3650793650794,6,3,81,51,0,1
67873,-135.135135135135,6,3,81,51,0,1
67940,-79.3650793650794,6,3,81,51,0,1
68007,-135.135135135135,6,3,81,51,0,1
68074,-79.3650793650794,6,3,81,51,0,1
68141,-135.135135135135,6,3,81,51,0,1
68208,-100,6,3,81,51,0,1
70618,-79.3650793650794,6,3,81,51,0,1
70685,-135.135135135135,6,3,81,51,0,1
70752,-79.3650793650794,6,3,81,51,0,1
70819,-135.135135135135,6,3,81,51,0,1
70886,-79.3650793650794,6,3,81,51,0,1
70953,-135.135135135135,6,3,81,51,0,1
71020,-79.3650793650794,6,3,81,51,0,1
71087,-135.135135135135,6,3,81,51,0,1
71154,-79.3650793650794,6,3,81,51,0,1
71221,-135.135135135135,6,3,81,51,0,1
71288,-79.3650793650794,6,3,81,51,0,1
71355,-135.135135135135,6,3,81,51,0,1
71422,-100,6,3,81,51,0,1
73833,-79.3650793650794,6,3,81,51,0,1
73899,-135.135135135135,6,3,81,51,0,1
73966,-79.3650793650794,6,3,81,51,0,1
74033,-135.135135135135,6,3,81,51,0,1
74100,-79.3650793650794,6,3,81,51,0,1
74167,-135.135135135135,6,3,81,51,0,1
74234,-79.3650793650794,6,3,81,51,0,1
74301,-135.135135135135,6,3,81,51,0,1
74368,-79.3650793650794,6,3,81,51,0,1
74435,-135.135135135135,6,3,81,51,0,1
74502,-79.3650793650794,6,3,81,51,0,1
74569,-135.135135135135,6,3,81,51,0,1
74636,-100,6,3,81,51,0,1
77047,-79.3650793650794,6,3,81,51,0,1
77114,-135.135135135135,6,3,81,51,0,1
77181,-79.3650793650794,6,3,81,51,0,1
77248,-135.135135135135,6,3,81,51,0,1
77315,-79.3650793650794,6,3,81,51,0,1
77382,-135.135135135135,6,3,81,51,0,1
77449,-79.3650793650794,6,3,81,51,0,1
77516,-135.135135135135,6,3,81,51,0,1
77583,-79.3650793650794,6,3,81,51,0,1
77649,-135.135135135135,6,3,81,51,0,1
77716,-79.3650793650794,6,3,81,51,0,1
77783,-135.135135135135,6,3,81,51,0,1
77850,-100,6,3,81,51,0,1
80261,-79.3650793650794,6,3,81,51,0,1
80328,-135.135135135135,6,3,81,51,0,1
80395,-79.3650793650794,6,3,81,51,0,1
80462,-135.135135135135,6,3,81,51,0,1
80529,-79.3650793650794,6,3,81,51,0,1
80596,-135.135135135135,6,3,81,51,0,1
80663,-79.3650793650794,6,3,81,51,0,1
80730,-135.135135135135,6,3,81,51,0,1
80797,-79.3650793650794,6,3,81,51,0,1
80864,-135.135135135135,6,3,81,51,0,1
80931,-79.3650793650794,6,3,81,51,0,1
80998,-135.135135135135,6,3,81,51,0,1
81065,-100,6,3,81,51,0,1
83475,-79.3650793650794,6,3,81,51,0,1
83542,-135.135135135135,6,3,81,51,0,1
83609,-79.3650793650794,6,3,81,51,0,1
83676,-135.135135135135,6,3,81,51,0,1
83743,-79.3650793650794,6,3,81,51,0,1
83810,-135.135135135135,6,3,81,51,0,1
83877,-83.3333333333333,6,3,81,51,0,1
83944,-125,6,3,81,51,0,1
84011,-86.9565217391304,6,3,81,51,0,1
84078,-117.647058823529,6,3,81,51,0,1
84145,-90.9090909090909,6,3,81,51,0,1
84212,-111.111111111111,6,3,81,51,0,1
84279,-100,6,3,81,44,0,0
97136,-100,6,1,81,35,0,0
122047,-80,6,1,81,35,0,0
122114,-133.333333333333,6,1,81,35,0,0
122181,-76.9230769230769,6,1,81,35,0,0
122248,-142.857142857143,6,1,81,35,0,0
122315,-74.0740740740741,6,1,81,35,0,0
122382,-153.846153846154,6,1,81,35,0,0
122449,-71.4285714285714,6,1,81,35,0,0
122516,-166.666666666667,6,1,81,35,0,0
122583,-68.9655172413793,6,1,81,35,0,0
122649,-181.818181818182,6,1,81,35,0,0
122716,-66.6666666666667,6,1,81,35,0,0
122783,-200,6,1,81,35,0,0
122850,-76.9230769230769,6,3,81,80,0,0
122917,-142.857142857143,6,3,81,80,0,0
122984,-100,6,3,81,80,0,0
123654,-76.9230769230769,6,3,81,80,0,0
123721,-142.857142857143,6,3,81,80,0,0
123788,-100,6,3,81,80,0,0
124458,-76.9230769230769,6,3,81,80,0,0
124524,-142.857142857143,6,3,81,80,0,0
124591,-100,6,3,81,80,0,0
125261,-76.9230769230769,6,3,81,80,0,0
125328,-142.857142857143,6,3,81,80,0,0
125395,-100,6,3,81,80,0,0
126065,-74.0740740740741,6,3,81,80,0,0
126132,-153.846153846154,6,3,81,80,0,0
126199,-100,6,3,81,80,0,0
126868,-71.4285714285714,6,3,81,80,0,0
126935,-166.666666666667,6,3,81,80,0,0
127002,-100,6,3,81,80,0,0
127672,-68.9655172413793,6,3,81,80,0,0
127739,-181.818181818182,6,3,81,80,0,0
127806,-100,6,3,81,80,0,0
128475,-52.0833333333333,6,3,81,80,0,0
128509,-250,6,3,81,80,0,0
128743,-52.0833333333333,6,3,81,80,0,0
128777,-250,6,3,81,80,0,0
129011,-52.0833333333333,6,3,81,80,0,0
129045,-250,6,3,81,80,0,0
129279,-100,6,3,81,51,0,1
131690,-79.3650793650794,6,3,81,51,0,1
131757,-135.135135135135,6,3,81,51,0,1
131824,-79.3650793650794,6,3,81,51,0,1
131891,-135.135135135135,6,3,81,51,0,1
131958,-79.3650793650794,6,3,81,51,0,1
132024,-135.135135135135,6,3,81,51,0,1
132091,-79.3650793650794,6,3,81,51,0,1
132158,-135.135135135135,6,3,81,51,0,1
132225,-79.3650793650794,6,3,81,51,0,1
132292,-135.135135135135,6,3,81,51,0,1
132359,-79.3650793650794,6,3,81,51,0,1
132426,-135.135135135135,6,3,81,51,0,1
132493,-100,6,3,81,51,0,1
134904,-79.3650793650794,6,3,81,51,0,1
134971,-135.135135135135,6,3,81,51,0,1
135038,-79.3650793650794,6,3,81,51,0,1
135105,-135.135135135135,6,3,81,51,0,1
135172,-79.3650793650794,6,3,81,51,0,1
135239,-135.135135135135,6,3,81,51,0,1
135306,-79.3650793650794,6,3,81,51,0,1
135373,-135.135135135135,6,3,81,51,0,1
135440,-79.3650793650794,6,3,81,51,0,1
135507,-135.135135135135,6,3,81,51,0,1
135574,-79.3650793650794,6,3,81,51,0,1
135641,-135.135135135135,6,3,81,51,0,1
135708,-100,6,3,81,51,0,1
138118,-79.3650793650794,6,3,81,51,0,1
138185,-135.135135135135,6,3,81,51,0,1
138252,-79.3650793650794,6,3,81,51,0,1
138319,-135.135135135135,6,3,81,51,0,1
138386,-79.3650793650794,6,3,81,51,0,1
138453,-135.135135135135,6,3,81,51,0,1
138520,-79.3650793650794,6,3,81,51,0,1
138587,-135.135135135135,6,3,81,51,0,1
138654,-79.3650793650794,6,3,81,51,0,1
138721,-135.135135135135,6,3,81,51,0,1
138788,-79.3650793650794,6,3,81,51,0,1
138855,-135.135135135135,6,3,81,51,0,1
138922,-100,6,3,81,51,0,1
141333,-79.3650793650794,6,3,81,51,0,1
141399,-135.135135135135,6,3,81,51,0,1
141466,-79.3650793650794,6,3,81,51,0,1
141533,-135.135135135135,6,3,81,51,0,1
141600,-79.3650793650794,6,3,81,51,0,1
141667,-135.135135135135,6,3,81,51,0,1
141734,-79.3650793650794,6,3,81,51,0,1
141801,-135.135135135135,6,3,81,51,0,1
141868,-79.3650793650794,6,3,81,51,0,1
141935,-135.135135135135,6,3,81,51,0,1
142002,-79.3650793650794,6,3,81,51,0,1
142069,-135.135135135135,6,3,81,51,0,1
142136,-100,6,3,81,51,0,1
144547,-79.3650793650794,6,3,81,51,0,1
144614,-135.135135135135,6,3,81,51,0,1
144681,-79.3650793650794,6,3,81,51,0,1
144748,-135.135135135135,6,3,81,51,0,1
144815,-79.3650793650794,6,3,81,51,0,1
144882,-135.135135135135,6,3,81,51,0,1
144949,-79.3650793650794,6,3,81,51,0,1
145016,-135.135135135135,6,3,81,51,0,1
145083,-79.3650793650794,6,3,81,51,0,1
145149,-135.135135135135,6,3,81,51,0,1
145216,-79.3650793650794,6,3,81,51,0,1
145283,-135.135135135135,6,3,81,51,0,1
145350,-100,6,3,81,51,0,1
147761,-79.3650793650794,6,3,81,51,0,1
147828,-135.135135135135,6,3,81,51,0,1
147895,-79.3650793650794,6,3,81,51,0,1
147962,-135.135135135135,6,3,81,51,0,1
148029,-79.3650793650794,6,3,81,51,0,1
148096,-135.135135135135,6,3,81,51,0,1
148163,-79.3650793650794,6,3,81,51,0,1
148230,-135.135135135135,6,3,81,51,0,1
148297,-79.3650793650794,6,3,81,51,0,1
148364,-135.135135135135,6,3,81,51,0,1
148431,-79.3650793650794,6,3,81,51,0,1
148498,-135.135135135135,6,3,81,51,0,1
148565,-100,6,3,81,51,0,1
150975,-79.3650793650794,6,3,81,51,0,1
151042,-135.135135135135,6,3,81,51,0,1
151109,-79.3650793650794,6,3,81,51,0,1
151176,-135.135135135135,6,3,81,51,0,1
151243,-79.3650793650794,6,3,81,51,0,1
151310,-135.135135135135,6,3,81,51,0,1
151377,-79.3650793650794,6,3,81,51,0,1
151444,-135.135135135135,6,3,81,51,0,1
151511,-79.3650793650794,6,3,81,51,0,1
151578,-135.135135135135,6,3,81,51,0,1
151645,-79.3650793650794,6,3,81,51,0,1
151712,-135.135135135135,6,3,81,51,0,1
151779,-100,6,3,81,51,0,1
154190,-79.3650793650794,6,3,81,51,0,1
154257,-135.135135135135,6,3,81,51,0,1
154324,-79.3650793650794,6,3,81,51,0,1
154391,-135.135135135135,6,3,81,51,0,1
154458,-79.3650793650794,6,3,81,51,0,1
154524,-135.135135135135,6,3,81,51,0,1
154591,-83.3333333333333,6,3,81,51,0,1
154658,-125,6,3,81,51,0,1
154725,-86.9565217391304,6,3,81,51,0,1
154792,-117.647058823529,6,3,81,51,0,1
154859,-90.9090909090909,6,3,81,51,0,1
154926,-111.111111111111,6,3,81,51,0,1
154993,-100,6,3,81,40,0,0
167850,-116.279069767442,6,2,81,22,0,0
180306,-17.3913043478261,6,2,81,22,0,0
180339,-116.279069767442,6,2,81,22,0,0
180708,-100,6,3,81,51,0,1
183118,-79.3650793650794,6,3,81,51,0,1
183185,-135.135135135135,6,3,81,51,0,1
183252,-79.3650793650794,6,3,81,51,0,1
183319,-135.135135135135,6,3,81,51,0,1
183386,-79.3650793650794,6,3,81,51,0,1
183453,-135.135135135135,6,3,81,51,0,1
183520,-79.3650793650794,6,3,81,51,0,1
183587,-135.135135135135,6,3,81,51,0,1
183654,-79.3650793650794,6,3,81,51,0,1
183721,-135.135135135135,6,3,81,51,0,1
183788,-79.3650793650794,6,3,81,51,0,1
183855,-135.135135135135,6,3,81,51,0,1
183922,-100,6,3,81,51,0,1
186333,-79.3650793650794,6,3,81,51,0,1
186399,-135.135135135135,6,3,81,51,0,1
186466,-79.3650793650794,6,3,81,51,0,1
186533,-135.135135135135,6,3,81,51,0,1
186600,-79.3650793650794,6,3,81,51,0,1
186667,-135.135135135135,6,3,81,51,0,1
186734,-79.3650793650794,6,3,81,51,0,1
186801,-135.135135135135,6,3,81,51,0,1
186868,-79.3650793650794,6,3,81,51,0,1
186935,-135.135135135135,6,3,81,51,0,1
187002,-79.3650793650794,6,3,81,51,0,1
187069,-135.135135135135,6,3,81,51,0,1
187136,-100,6,3,81,51,0,1
189547,-79.3650793650794,6,3,81,51,0,1
189614,-135.135135135135,6,3,81,51,0,1
189681,-79.3650793650794,6,3,81,51,0,1
189748,-135.135135135135,6,3,81,51,0,1
189815,-79.3650793650794,6,3,81,51,0,1
189882,-135.135135135135,6,3,81,51,0,1
189949,-79.3650793650794,6,3,81,51,0,1
190016,-135.135135135135,6,3,81,51,0,1
190083,-79.3650793650794,6,3,81,51,0,1
190149,-135.135135135135,6,3,81,51,0,1
190216,-79.3650793650794,6,3,81,51,0,1
190283,-135.135135135135,6,3,81,51,0,1
190350,-100,6,3,81,51,0,1
192761,-79.3650793650794,6,3,81,51,0,1
192828,-135.135135135135,6,3,81,51,0,1
192895,-79.3650793650794,6,3,81,51,0,1
192962,-135.135135135135,6,3,81,51,0,1
193029,-79.3650793650794,6,3,81,51,0,1
193096,-135.135135135135,6,3,81,51,0,1
193163,-83.3333333333333,6,3,81,51,0,1
193230,-125,6,3,81,51,0,1
193297,-86.9565217391304,6,3,81,51,0,1
193364,-117.647058823529,6,3,81,51,0,1
193431,-90.9090909090909,6,3,81,51,0,1
193498,-111.111111111111,6,3,81,51,0,1
193565,-100,6,3,81,44,0,0
206422,-100,6,2,81,22,0,0

[HitObjects]
475,192,708,5,0,0:0:0:100:A#7S_Bb7S.wav
182,192,708,1,0,0:0:0:90:D#5S_Eb5S.wav
329,192,975,1,0,0:0:0:100:F7S.wav
475,192,1109,1,0,0:0:0:100:A#7S_Bb7S.wav
329,192,1377,1,0,0:0:0:100:F7S.wav
402,192,1511,1,0,0:0:0:100:A7S.wav
329,192,1779,1,0,0:0:0:100:F7S.wav
402,192,2047,1,0,0:0:0:100:A7S.wav
329,192,2315,1,0,0:0:0:100:F7S.wav
109,192,2315,1,0,0:0:0:90:F5S.wav
36,192,2583,1,0,0:0:0:100:A#6S_Bb6S.wav
329,192,2716,1,0,0:0:0:100:F7S.wav
36,192,2984,1,0,0:0:0:100:A#6S_Bb6S.wav
256,192,3118,1,0,0:0:0:100:D7S.wav
36,192,3386,1,0,0:0:0:100:A#6S_Bb6S.wav
256,192,3654,1,0,0:0:0:100:D7S.wav
109,192,3922,1,0,0:0:0:56:C6S.wav
329,192,3922,1,0,0:0:0:100:C7S.wav
36,192,3922,1,0,0:0:0:56:F5S.wav
182,192,4190,1,0,0:0:0:100:F6S.wav
329,192,4324,1,0,0:0:0:100:C7S.wav
182,192,4591,1,0,0:0:0:100:F6S.wav
329,192,4725,1,0,0:0:0:100:C7S.wav
402,192,4993,1,0,0:0:0:100:D7S.wav
475,192,5261,1,0,0:0:0:100:D#7S_Eb7S.wav
402,192,5529,1,0,0:0:0:100:D7S.wav
109,192,5529,1,0,0:0:0:90:G5S.wav
256,192,5797,1,0,0:0:0:100:F6S.wav
402,192,5931,1,0,0:0:0:100:D7S.wav
256,192,6199,1,0,0:0:0:100:F6S.wav
402,192,6333,128,0,7136:0:0:0:100:C7S.wav
182,192,6333,1,0,0:0:0:90:F5S.wav
256,192,6600,128,0,7136:0:0:0:100:A#6S_Bb6S.wav
109,192,6868,128,0,7136:0:0:0:100:A6S.wav
475,192,7136,1,0,0:0:0:100:A#7S_Bb7S.wav
36,192,7136,1,0,0:0:0:90:D#5S_Eb5S.wav
256,192,7404,1,0,0:0:0:100:F7S.wav
475,192,7538,1,0,0:0:0:100:A#7S_Bb7S.wav
256,192,7806,1,0,0:0:0:100:F7S.wav
402,192,7940,1,0,0:0:0:100:A7S.wav
256,192,8208,1,0,0:0:0:100:F7S.wav
402,192,8475,1,0,0:0:0:100:A7S.wav
329,192,8743,1,0,0:0:0:100:F7S.wav
109,192,8743,1,0,0:0:0:90:F5S.wav
182,192,9011,1,0,0:0:0:100:A#6S_Bb6S.wav
329,192,9145,1,0,0:0:0:100:F7S.wav
182,192,9413,1,0,0:0:0:100:A#6S_Bb6S.wav
256,192,9547,1,0,0:0:0:100:D7S.wav
182,192,9815,1,0,0:0:0:100:A#6S_Bb6S.wav
256,192,10083,1,0,0:0:0:100:D7S.wav
36,192,10350,1,0,0:0:0:56:F5S.wav
402,192,10350,1,0,0:0:0:100:C7S.wav
182,192,10350,1,0,0:0:0:56:C6S.wav
109,192,10618,1,0,0:0:0:100:F6S.wav
402,192,10752,1,0,0:0:0:100:C7S.wav
109,192,11020,1,0,0:0:0:100:F6S.wav
329,192,11154,1,0,0:0:0:100:A#6S_Bb6S.wav
109,192,11422,1,0,0:0:0:100:F6S.wav
475,192,11690,1,0,0:0:0:100:C7S.wav
256,192,11891,1,0,0:0:0:65:F6S.wav
329,192,11924,1,0,0:0:0:88:G6S.wav
109,192,11958,128,0,13163:0:0:0:72:A#5S_Bb5S.wav
402,192,11958,128,0,13163:0:0:0:100:A#6S_Bb6S.wav
36,192,13565,5,4,0:0:0:0:
475,192,13565,1,0,0:0:0:95:LR_Drum Hit Clap Sn.wav
109,192,13565,1,0,0:0:0:0:
329,192,13699,1,0,0:0:0:0:
182,192,13833,1,0,0:0:0:0:
36,192,13966,1,2,0:0:0:0:
475,192,13966,1,0,0:0:0:80:LR_Drum Hit Drop High.wav
182,192,14100,1,0,0:0:0:0:
329,192,14234,1,0,0:0:0:0:
402,192,14368,1,0,0:0:0:95:LR_Drum Hit Clap Sn.wav
475,192,14368,1,8,0:0:0:0:
256,192,14502,1,0,0:0:0:0:
36,192,14636,1,2,0:0:0:0:
109,192,14636,1,0,0:0:0:80:LR_Drum Hit Drop High.wav
256,192,14770,1,0,0:0:0:0:
475,192,14904,1,2,0:0:0:0:
402,192,14904,1,0,0:0:0:80:LR_Drum Hit Drop High.wav
256,192,15038,1,0,0:0:0:0:
36,192,15172,1,8,0:0:0:0:
475,192,15172,1,0,0:0:0:95:LR_Drum Hit Clap Sn.wav
182,192,15306,1,0,0:0:0:0:
329,192,15440,1,0,0:0:0:0:
36,192,15574,1,2,0:0:0:0:
475,192,15574,1,0,0:0:0:80:LR_Drum Hit Drop High.wav
329,192,15708,1,0,0:0:0:0:
182,192,15841,1,0,0:0:0:0:
109,192,15975,1,8,0:0:0:0:
329,192,15975,1,0,0:0:0:95:LR_Drum Hit Clap Sn.wav
182,192,16109,1,0,0:0:0:95:LR_Drum Hit Clap Sn.wav
402,192,16109,1,0,0:0:0:0:
256,192,16243,1,0,0:0:0:100:LR_Tom Hit X.wav
329,192,16377,1,0,0:0:0:65:LR_Tom Hit X.wav
109,192,16377,1,0,0:0:0:40:LR5_Tom Drop Sn.wav
182,192,16511,1,0,0:0:0:100:LR_Tom Hit Y.wav
256,192,16645,1,0,0:0:0:100:LR_Tom Hit Z.wav
36,192,16645,1,4,0:0:1:65:
475,192,16779,1,4,0:0:0:0:
329,192,16779,1,0,0:0:0:95:LR_Drum Hit Clap Sn.wav
182,192,16913,1,0,0:0:0:0:
36,192,17047,1,0,0:0:0:0:
329,192,17181,1,2,0:0:0:0:
475,192,17181,1,0,0:0:0:80:LR_Drum Hit Drop High.wav
36,192,17315,1,0,0:0:0:0:
182,192,17449,1,0,0:0:0:0:
475,192,17583,1,0,0:0:0:95:LR_Drum Hit Clap Sn.wav
329,192,17583,1,8,0:0:0:0:
256,192,17716,1,0,0:0:0:0:
182,192,17850,1,2,0:0:0:0:
36,192,17850,1,0,0:0:0:80:LR_Drum Hit Drop High.wav
256,192,17984,1,0,0:0:0:0:
329,192,18118,1,0,0:0:0:95:LR_Drum Hit Clap Sn.wav
475,192,18118,1,8,0:0:0:0:
256,192,18252,1,0,0:0:0:0:
36,192,18386,1,8,0:0:0:0:
182,192,18386,1,0,0:0:0:80:LR_Drum Hit Drop High.wav
402,192,18520,1,0,0:0:0:0:
329,192,18654,1,0,0:0:0:0:
256,192,18788,1,2,0:0:0:0:
109,192,18788,1,0,0:0:0:95:LR_Drum Hit Clap Sn.wav
475,192,18922,1,0,0:0:0:0:
402,192,19056,1,0,0:0:0:40:LR_Drum Hit Drop High.wav
329,192,19190,1,0,0:0:0:0:
182,192,19190,1,0,0:0:0:95:LR_Drum Hit Clap Sn.wav
109,192,19324,1,0,0:0:0:80:LR5_Tom Drop Sn.wav
182,192,19458,1,0,0:0:0:100:LR_Tom Hit Y.wav
329,192,19458,1,0,0:0:0:40:LR_Drum Hit Drop High.wav
402,192,19591,1,0,0:0:0:100:LR_Tom Hit Z.wav
182,192,19725,1,2,0:0:0:0:
329,192,19725,1,0,0:0:0:80:LR_Drum Hit Drop High.wav
109,192,19859,1,0,0:0:0:100:LR_Tom Hit Z.wav
182,192,19993,5,4,0:0:0:0:
329,192,19993,1,0,0:0:0:95:LR_Drum Hit Clap Sn.wav
475,192,20127,1,0,0:0:0:0:
402,192,20261,1,0,0:0:0:0:
182,192,20395,1,2,0:0:0:0:
329,192,20395,1,0,0:0:0:80:LR_Drum Hit Drop High.wav
36,192,20529,1,0,0:0:0:0:
109,192,20663,1,0,0:0:0:0:
182,192,20797,1,0,0:0:0:95:LR_Drum Hit Clap Sn.wav
475,192,20797,1,8,0:0:0:0:
256,192,20931,1,0,0:0:0:0:
329,192,21065,1,2,0:0:0:0:
36,192,21065,1,0,0:0:0:80:LR_Drum Hit Drop High.wav
256,192,21199,1,0,0:0:0:0:
182,192,21333,1,2,0:0:0:0:
475,192,21333,1,0,0:0:0:80:LR_Drum Hit Drop High.wav
256,192,21466,1,0,0:0:0:0:
329,192,21600,1,8,0:0:0:0:
36,192,21600,1,0,0:0:0:95:LR_Drum Hit Clap Sn.wav
256,192,21734,1,0,0:0:0:0:
182,192,21868,1,0,0:0:0:0:
109,192,22002,1,2,0:0:0:0:
402,192,22002,1,0,0:0:0:80:LR_Drum Hit Drop High.wav
329,192,22136,1,0,0:0:0:0:
256,192,22270,1,0,0:0:0:0:
182,192,22404,1,8,0:0:0:0:
36,192,22404,1,0,0:0:0:95:LR_Drum Hit Clap Sn.wav
36,192,22538,1,0,0:0:0:95:LR_Drum Hit Clap Sn.wav
182,192,22538,1,0,0:0:0:0:
329,192,22672,1,0,0:0:0:100:LR_Tom Hit X.wav
109,192,22806,1,0,0:0:0:65:LR_Tom Hit X.wav
256,192,22806,1,0,0:0:0:40:LR5_Tom Drop Sn.wav
402,192,22940,1,0,0:0:0:100:LR_Tom Hit Y.wav
329,192,23074,1,0,0:0:0:100:LR_Tom Hit Z.wav
182,192,23074,1,4,0:0:1:65:
36,192,23208,1,4,0:0:0:0:
475,192,23208,1,0,0:0:0:95:LR_Drum Hit Clap Sn.wav
109,192,23341,1,0,0:0:0:0:
182,192,23475,1,0,0:0:0:0:
36,192,23609,1,2,0:0:0:0:
475,192,23609,1,0,0:0:0:80:LR_Drum Hit Drop High.wav
402,192,23743,1,0,0:0:0:0:
329,192,23877,1,0,0:0:0:0:
182,192,24011,1,0,0:0:0:95:LR_Drum Hit Clap Sn.wav
109,192,24011,1,8,0:0:0:0:
256,192,24145,1,0,0:0:0:0:
402,192,24279,1,2,0:0:0:0:
329,192,24279,1,0,0:0:0:80:LR_Drum Hit Drop High.wav
256,192,24413,1,0,0:0:0:0:
182,192,24547,1,0,0:0:0:95:LR_Drum Hit Clap Sn.wav
109,192,24547,1,8,0:0:0:0:
256,192,24681,1,0,0:0:0:0:
329,192,24815,1,8,0:0:0:0:
402,192,24815,1,0,0:0:0:80:LR_Drum Hit Drop High.wav
182,192,24949,1,0,0:0:0:0:
36,192,25083,1,0,0:0:0:0:
109,192,25216,1,2,0:0:0:0:
182,192,25216,1,0,0:0:0:95:LR_Drum Hit Clap Sn.wav
329,192,25350,1,0,0:0:0:0:
475,192,25484,1,0,0:0:0:0:
182,192,25618,1,0,0:0:0:95:LR_Drum Hit Clap Sn.wav
36,192,25618,1,0,0:0:0:0:
475,192,25752,1,0,0:0:0:0:
329,192,25752,1,0,0:0:0:80:LR5_Tom Drop Sn.wav
182,192,25886,1,0,0:0:0:40:LR_Drum Hit Drop High.wav
36,192,25886,1,0,0:0:0:100:LR_Tom Hit Y.wav
256,192,26020,1,0,0:0:0:0:
402,192,26020,1,0,0:0:0:100:LR_Tom Hit Z.wav
109,192,26154,1,0,0:0:0:80:LR_Drum Hit Drop High.wav
256,192,26288,1,0,0:0:0:0:
402,192,26288,1,0,0:0:0:100:LR_Tom Hit Z.wav
475,192,26422,1,4,3:0:0:0:
36,192,26422,128,0,27895:0:0:0:0:
182,192,26422,1,0,0:0:0:0:
329,192,27225,1,0,0:0:0:0:
475,192,27493,1,0,0:0:0:0:
36,192,28029,128,0,28096:2:0:0:0:
329,192,28029,128,0,28096:2:0:0:0:
109,192,28833,1,0,0:0:0:0:
402,192,29100,1,0,0:0:0:0:
109,192,29368,1,0,0:0:0:0:
182,192,29636,128,0,29703:2:0:0:0:
329,192,29636,128,0,29703:2:0:0:0:
402,192,30440,1,0,0:0:0:0:
109,192,30708,1,0,0:0:0:0:
182,192,31243,128,0,31310:2:0:0:0:
475,192,31243,128,0,31310:2:0:0:0:
109,192,32047,1,0,0:0:0:0:
402,192,32315,1,0,0:0:0:0:
256,192,32583,1,0,0:0:0:0:
182,192,32850,128,0,32917:2:0:0:0:
329,192,32850,128,0,32917:2:0:0:0:
109,192,33654,1,0,0:0:0:0:
329,192,33922,1,0,0:0:0:0:
402,192,34458,128,0,34524:2:0:0:0:
182,192,34458,128,0,34524:2:0:0:0:
329,192,34859,1,0,0:0:0:0:
402,192,35261,1,0,0:0:0:0:
182,192,35529,1,0,0:0:0:0:
329,192,36065,128,0,36132:2:0:0:0:
36,192,36065,128,0,36132:2:0:0:0:
182,192,36466,1,0,0:0:0:0:
109,192,36868,1,0,0:0:0:0:
402,192,37136,1,0,0:0:0:0:
402,192,37672,128,0,37739:2:0:0:0:
182,192,37672,128,0,37739:2:0:0:0:
256,192,38074,1,0,0:0:0:0:
109,192,38475,1,0,0:0:0:0:
402,192,38743,1,0,0:0:0:0:
36,192,39011,128,0,39145:0:0:0:0:
475,192,39011,128,0,39145:0:0:0:0:
475,192,39279,5,4,3:0:0:0:
256,192,39279,1,0,0:0:0:0:
36,192,39279,1,0,0:0:0:0:
182,192,39949,1,0,0:0:0:53:LR4_KickTBCRs.wav
329,192,40083,1,0,0:0:0:62:LR_Drum Hit Clap Sn.wav
36,192,40083,1,0,0:0:0:87:LR_Drum Rpd x2.wav
402,192,40350,1,0,0:0:0:0:
109,192,40886,128,0,40953:2:0:0:0:
256,192,40886,128,0,40953:0:0:0:53:LR4_KickTBCRs.wav
329,192,41288,1,0,0:0:0:53:LR4_KickTBCRs.wav
329,192,41556,1,0,0:0:0:40:LR4_KickTBCRs.wav
109,192,41690,1,0,0:0:0:87:LR_Drum Rpd x2.wav
475,192,41690,1,0,0:0:0:62:LR_Drum Hit Clap Sn.wav
256,192,41958,1,0,0:0:0:40:LR4_KickTBCRs.wav
182,192,42225,1,0,0:0:0:53:LR4_KickTBCRs.wav
109,192,42493,128,0,42560:2:0:0:0:
329,192,42493,128,0,42560:0:0:0:53:LR4_KickTBCRs.wav
329,192,43163,1,0,0:0:0:53:LR4_KickTBCRs.wav
475,192,43297,1,0,0:0:0:62:LR_Drum Hit Clap Sn.wav
36,192,43297,1,0,0:0:0:87:LR_Drum Rpd x2.wav
182,192,43565,1,0,0:0:0:40:LR4_KickTBCRs.wav
329,192,43833,1,0,0:0:0:40:LR4_KickTBCRs.wav
36,192,44100,128,0,44167:2:0:0:0:
402,192,44100,128,0,44167:0:0:0:53:LR4_KickTBCRs.wav
182,192,44502,1,0,0:0:0:40:LR4_KickTBCRs.wav
182,192,44770,1,0,0:0:0:53:LR4_KickTBCRs.wav
402,192,44904,1,0,0:0:0:62:LR_Drum Hit Clap Sn.wav
109,192,44904,1,0,0:0:0:87:LR_Drum Rpd x2.wav
182,192,45172,1,0,0:0:0:40:LR4_KickTBCRs.wav
329,192,45440,1,0,0:0:0:62:LR_Drum Hit Clap Sn.wav
402,192,45440,1,0,0:0:0:87:LR_Drum Rpd x2.wav
109,192,45574,1,0,0:0:0:87:LR_Drum Rpd x2.wav
182,192,45574,1,0,0:0:0:62:LR_Drum Hit Clap Sn.wav
256,192,45708,1,4,3:0:0:0:
475,192,45708,128,0,45774:2:0:0:0:
36,192,45708,128,0,45774:2:0:0:0:
329,192,46109,1,0,0:0:0:40:LR4_KickTBCRs.wav
182,192,46377,1,0,0:0:0:53:LR4_KickTBCRs.wav
402,192,46511,1,0,0:0:0:62:LR_Drum Hit Clap Sn.wav
36,192,46511,1,0,0:0:0:87:LR_Drum Rpd x2.wav
475,192,46779,1,0,0:0:0:0:
402,192,47315,128,0,47382:2:0:0:0:
182,192,47315,128,0,47382:0:0:0:53:LR4_KickTBCRs.wav
109,192,47716,1,0,0:0:0:53:LR4_KickTBCRs.wav
109,192,47984,1,0,0:0:0:40:LR4_KickTBCRs.wav
182,192,48118,1,0,0:0:0:87:LR_Drum Rpd x2.wav
402,192,48118,1,0,0:0:0:62:LR_Drum Hit Clap Sn.wav
329,192,48386,1,0,0:0:0:40:LR4_KickTBCRs.wav
256,192,48654,1,0,0:0:0:53:LR4_KickTBCRs.wav
109,192,48922,128,0,48989:2:0:0:0:
329,192,48922,128,0,48989:0:0:0:53:LR4_KickTBCRs.wav
256,192,49324,1,0,0:0:0:40:LR4_KickTBCRs.wav
109,192,49591,1,0,0:0:0:53:LR4_KickTBCRs.wav
329,192,49725,1,0,0:0:0:62:LR_Drum Hit Clap Sn.wav
182,192,49725,1,0,0:0:0:87:LR_Drum Rpd x2.wav
256,192,49993,1,0,0:0:0:40:LR4_KickTBCRs.wav
402,192,50261,1,0,0:0:0:40:LR4_KickTBCRs.wav
182,192,50395,1,0,0:0:0:0:
329,192,50529,128,0,50596:2:0:0:0:
36,192,50529,128,0,50596:0:0:0:53:LR4_KickTBCRs.wav
109,192,50797,1,0,0:0:0:85:LR_Drum Rpd x2.wav
402,192,50931,5,0,0:0:0:55:LR_Drum Hit Clap Sn.wav
182,192,51065,5,0,0:0:0:70:LR5_Tom Normal Sn.wav
329,192,51199,1,0,0:0:0:80:LR5_Tom Drop Sn.wav
109,192,51333,1,0,0:0:0:62:LR_Drum Hit Clap Sn.wav
256,192,51333,1,0,0:0:0:62:LR_Drum Hit Drop High.wav
36,192,51466,1,0,0:0:0:62:LR_Drum Hit Drop High.wav
402,192,51466,1,0,0:0:0:62:LR_Drum Hit Clap Sn.wav
182,192,51600,1,0,0:0:0:55:LR_Drum Hit Clap Sn.wav
329,192,51734,1,0,0:0:0:65:LR_Drum Rpd x2.wav
109,192,51868,1,0,0:0:0:55:LR_Drum Hit Clap Sn.wav
256,192,52002,1,0,0:0:0:65:LR_Drum Rpd x2.wav
402,192,52136,1,0,0:0:0:0:
475,192,52136,1,0,0:0:0:0:
36,192,52136,128,4,52672:3:0:0:0:
475,192,52404,1,0,0:0:0:0:
475,192,52672,1,0,0:0:0:0:
109,192,52672,1,0,0:0:0:0:
329,192,52940,1,0,0:0:0:0:
402,192,52940,1,8,0:0:0:0:
182,192,52940,128,4,53475:0:0:0:0:
402,192,53208,1,0,0:0:0:0:
402,192,53475,1,0,0:0:0:0:
36,192,53475,1,0,0:0:0:0:
182,192,53743,1,4,0:0:0:0:
109,192,53743,1,2,0:0:0:0:
329,192,53743,128,0,54279:0:0:0:0:
109,192,54011,1,0,0:0:0:0:
109,192,54279,1,0,0:0:0:0:
402,192,54279,1,0,0:0:0:0:
36,192,54547,1,4,0:0:0:0:
109,192,54547,1,0,0:0:0:0:
475,192,54547,128,8,55083:0:0:0:0:
36,192,54815,1,0,0:0:0:0:
36,192,55083,1,0,0:0:0:0:
329,192,55083,1,0,0:0:0:0:
182,192,55216,1,0,0:0:0:0:
109,192,55350,1,4,0:0:0:0:
402,192,55350,1,2,0:0:0:0:
256,192,55350,1,0,0:0:0:0:
182,192,55484,1,0,0:0:0:0:
329,192,55618,1,0,0:0:0:0:
182,192,55752,1,0,0:0:0:0:
329,192,55886,1,0,0:0:0:0:
402,192,55886,1,0,0:0:0:0:
475,192,56154,1,8,0:0:0:0:
36,192,56154,1,4,0:0:0:0:
256,192,56154,1,0,0:0:0:0:
402,192,56288,1,0,0:0:0:0:
109,192,56422,1,0,0:0:0:0:
402,192,56556,1,0,0:0:0:0:
109,192,56690,1,0,0:0:0:0:
182,192,56690,1,0,0:0:0:0:
36,192,56958,1,4,0:0:0:0:
475,192,56958,1,2,0:0:0:0:
256,192,56958,1,0,0:0:0:0:
109,192,57091,1,0,0:0:0:0:
182,192,57091,1,0,0:0:0:0:
329,192,57225,1,0,0:0:0:0:
402,192,57225,1,0,0:0:0:0:
109,192,57359,1,0,0:0:0:0:
182,192,57359,1,0,0:0:0:0:
329,192,57493,1,0,0:0:0:0:
402,192,57493,1,0,0:0:0:0:
109,192,57627,1,0,0:0:0:0:
182,192,57627,1,0,0:0:0:0:
256,192,57761,5,8,0:0:0:0:
475,192,57761,1,2,0:0:0:0:
36,192,57761,1,4,0:0:0:0:
256,192,58565,5,4,0:0:0:0:
402,192,58565,1,0,0:0:0:95:LR_Drum Hit Clap Sn.wav
109,192,58565,1,0,0:0:0:0:
329,192,58966,1,2,0:0:0:0:
182,192,58966,1,0,0:0:0:80:LR_Drum Hit Drop High.wav
475,192,59100,1,0,0:0:0:40:LR4_KickTBCRs.wav
402,192,59234,1,0,0:0:0:95:LR_Tom Hit Y.wav
182,192,59368,1,0,0:0:0:95:LR_Drum Hit Clap Sn.wav
329,192,59368,1,8,0:0:0:0:
109,192,59502,1,0,0:0:0:40:LR4_KickTBCRs.wav
329,192,59636,1,2,0:0:0:0:
182,192,59636,1,0,0:0:0:80:LR_Drum Hit Drop High.wav
402,192,59770,1,0,0:0:0:28:LR4_KickTBCRs.wav
182,192,59904,1,2,0:0:0:0:
329,192,59904,1,0,0:0:0:80:LR_Drum Hit Drop High.wav
109,192,60038,1,0,0:0:0:40:LR4_KickTBCRs.wav
329,192,60172,1,8,0:0:0:0:
182,192,60172,1,0,0:0:0:95:LR_Drum Hit Clap Sn.wav
402,192,60306,1,0,0:0:0:40:LR4_KickTBCRs.wav
475,192,60440,1,0,0:0:0:95:LR_Tom Hit Y.wav
256,192,60574,1,2,0:0:0:0:
109,192,60574,1,0,0:0:0:80:LR_Drum Hit Drop High.wav
329,192,60708,1,0,0:0:0:40:LR4_KickTBCRs.wav
402,192,60841,1,0,0:0:0:95:LR_Tom Hit Y.wav
329,192,60975,1,8,0:0:0:0:
475,192,60975,1,0,0:0:0:95:LR_Drum Hit Clap Sn.wav
329,192,61109,1,0,0:0:0:95:LR_Drum Hit Clap Sn.wav
475,192,61109,1,0,0:0:0:0:
109,192,61243,1,0,0:0:0:65:LR5_Tom Normal Sn.wav
256,192,61377,1,0,0:0:0:65:LR5_Tom Normal Sn.wav
109,192,61511,1,0,0:0:0:65:LR5_Tom Drop Sn.wav
329,192,61645,1,0,0:0:0:65:LR5_Tom Drop Sn.wav
36,192,61779,1,4,0:0:0:0:
475,192,61779,1,0,0:0:0:95:LR_Drum Hit Clap Sn.wav
402,192,61913,1,0,0:0:0:40:LR4_KickTBCRs.wav
329,192,62047,1,0,0:0:0:95:LR_Tom Hit Y.wav
475,192,62181,1,2,0:0:0:0:
182,192,62181,1,0,0:0:0:80:LR_Drum Hit Drop High.wav
36,192,62315,1,0,0:0:0:40:LR4_KickTBCRs.wav
109,192,62449,1,0,0:0:0:95:LR_Tom Hit Y.wav
182,192,62583,1,0,0:0:0:95:LR_Drum Hit Clap Sn.wav
402,192,62583,1,8,0:0:0:0:
256,192,62716,1,0,0:0:0:40:LR4_KickTBCRs.wav
329,192,62850,1,2,0:0:0:0:
109,192,62850,1,0,0:0:0:80:LR_Drum Hit Drop High.wav
256,192,62984,1,0,0:0:0:95:LR_Tom Hit Y.wav
182,192,63118,1,0,0:0:0:95:LR_Drum Hit Clap Sn.wav
402,192,63118,1,8,0:0:0:0:
256,192,63252,1,0,0:0:0:40:LR4_KickTBCRs.wav
109,192,63386,1,8,0:0:0:0:
329,192,63386,1,0,0:0:0:80:LR_Drum Hit Drop High.wav
475,192,63520,1,0,0:0:0:40:LR4_KickTBCRs.wav
402,192,63654,1,0,0:0:0:95:LR_Tom Hit Y.wav
329,192,63788,1,2,0:0:0:0:
182,192,63788,1,0,0:0:0:95:LR_Drum Hit Clap Sn.wav
109,192,63922,1,0,0:0:0:40:LR4_KickTBCRs.wav
36,192,64056,1,0,0:0:0:40:LR_Drum Hit Drop High.wav
256,192,64123,1,0,0:0:0:42:LR_Snare Hit.wav
475,192,64190,1,0,0:0:0:95:LR_Drum Hit Clap Sn.wav
329,192,64324,1,0,0:0:0:40:LR_Drum Hit Drop High.wav
109,192,64458,1,0,0:0:0:95:LR_Drum Hit Clap Sn.wav
182,192,64458,1,0,0:0:0:0:
402,192,64591,1,0,0:0:0:100:LR_Drum Hit Clap Sn.wav
109,192,64725,1,0,0:0:0:65:LR5_Tom Normal Sn.wav
182,192,64725,1,2,0:0:0:0:
475,192,64859,1,0,0:0:0:65:LR5_Tom Drop Sn.wav
329,192,64993,5,4,0:0:0:0:
36,192,64993,1,0,0:0:0:95:LR_Drum Hit Clap Sn.wav
182,192,65127,1,0,0:0:0:40:LR4_KickTBCRs.wav
109,192,65261,1,0,0:0:0:95:LR_Tom Hit Y.wav
475,192,65395,1,2,0:0:0:0:
182,192,65395,1,0,0:0:0:80:LR_Drum Hit Drop High.wav
329,192,65529,1,0,0:0:0:40:LR4_KickTBCRs.wav
402,192,65663,1,0,0:0:0:95:LR_Tom Hit Y.wav
329,192,65797,1,0,0:0:0:95:LR_Drum Hit Clap Sn.wav
36,192,65797,1,8,0:0:0:0:
109,192,65931,1,0,0:0:0:40:LR4_KickTBCRs.wav
475,192,66065,1,2,0:0:0:0:
182,192,66065,1,0,0:0:0:80:LR_Drum Hit Drop High.wav
402,192,66199,1,0,0:0:0:28:LR4_KickTBCRs.wav
329,192,66333,1,2,0:0:0:0:
36,192,66333,1,0,0:0:0:80:LR_Drum Hit Drop High.wav
109,192,66466,1,0,0:0:0:40:LR4_KickTBCRs.wav
182,192,66600,1,8,0:0:0:0:
475,192,66600,1,0,0:0:0:95:LR_Drum Hit Clap Sn.wav
329,192,66734,1,0,0:0:0:40:LR4_KickTBCRs.wav
402,192,66868,1,0,0:0:0:95:LR_Tom Hit Y.wav
329,192,67002,1,2,0:0:0:0:
182,192,67002,1,0,0:0:0:80:LR_Drum Hit Drop High.wav
109,192,67136,1,0,0:0:0:40:LR4_KickTBCRs.wav
182,192,67270,1,0,0:0:0:95:LR_Tom Hit Y.wav
475,192,67404,1,0,0:0:0:95:LR_Drum Hit Clap Sn.wav
329,192,67404,1,8,0:0:0:0:
475,192,67538,1,0,0:0:0:95:LR_Drum Hit Clap Sn.wav
329,192,67538,1,0,0:0:0:0:
182,192,67672,1,0,0:0:0:65:LR5_Tom Normal Sn.wav
402,192,67806,1,0,0:0:0:65:LR5_Tom Normal Sn.wav
109,192,67940,1,0,0:0:0:65:LR5_Tom Drop Sn.wav
329,192,68074,1,0,0:0:0:65:LR5_Tom Drop Sn.wav
256,192,68208,1,4,0:0:0:0:
36,192,68208,1,0,0:0:0:95:LR_Drum Hit Clap Sn.wav
329,192,68341,1,0,0:0:0:40:LR4_KickTBCRs.wav
402,192,68475,1,0,0:0:0:95:LR_Tom Hit Y.wav
182,192,68609,1,2,0:0:0:0:
329,192,68609,1,0,0:0:0:80:LR_Drum Hit Drop High.wav
109,192,68743,1,0,0:0:0:40:LR4_KickTBCRs.wav
182,192,68877,1,0,0:0:0:95:LR_Tom Hit Y.wav
36,192,69011,1,0,0:0:0:95:LR_Drum Hit Clap Sn.wav
329,192,69011,1,8,0:0:0:0:
402,192,69145,1,0,0:0:0:40:LR4_KickTBCRs.wav
475,192,69279,1,2,0:0:0:0:
182,192,69279,1,0,0:0:0:80:LR_Drum Hit Drop High.wav
109,192,69413,1,0,0:0:0:28:LR4_KickTBCRs.wav
36,192,69547,1,0,0:0:0:95:LR_Drum Hit Clap Sn.wav
329,192,69547,1,8,0:0:0:0:
402,192,69681,1,0,0:0:0:40:LR4_KickTBCRs.wav
475,192,69815,1,8,0:0:0:0:
182,192,69815,1,0,0:0:0:80:LR_Drum Hit Drop High.wav
109,192,69949,1,0,0:0:0:40:LR4_KickTBCRs.wav
182,192,70083,1,0,0:0:0:95:LR_Tom Hit Y.wav
256,192,70216,1,2,0:0:0:0:
402,192,70216,1,0,0:0:0:95:LR_Drum Hit Clap Sn.wav
109,192,70350,5,0,0:0:0:40:LR4_KickTBCRs.wav
329,192,70484,5,0,0:0:0:40:LR_Drum Hit Drop High.wav
256,192,70551,1,0,0:0:0:42:LR_Snare Hit.wav
182,192,70618,1,0,0:0:0:95:LR_Drum Hit Clap Sn.wav
329,192,70752,1,0,0:0:0:40:LR_Drum Hit Drop High.wav
402,192,70752,1,0,0:0:0:0:
182,192,70886,1,0,0:0:0:95:LR_Drum Hit Clap Sn.wav
109,192,70886,1,0,0:0:0:0:
329,192,71020,1,0,0:0:0:100:LR_Drum Hit Clap Sn.wav
402,192,71020,1,0,0:0:0:0:
109,192,71154,1,2,0:0:0:0:
182,192,71154,1,0,0:0:0:65:LR5_Tom Normal Sn.wav
329,192,71288,1,0,0:0:0:65:LR5_Tom Drop Sn.wav
402,192,71288,1,0,0:0:0:0:
475,192,71422,5,4,0:0:0:0:
36,192,71422,1,0,0:0:0:95:LR_Drum Hit Clap Sn.wav
182,192,71556,1,0,0:0:0:40:LR4_KickTBCRs.wav
329,192,71690,1,0,0:0:0:95:LR_Tom Hit Y.wav
475,192,71824,1,2,0:0:0:0:
36,192,71824,1,0,0:0:0:80:LR_Drum Hit Drop High.wav
329,192,71958,1,0,0:0:0:40:LR4_KickTBCRs.wav
182,192,72091,1,0,0:0:0:95:LR_Tom Hit Y.wav
36,192,72225,1,0,0:0:0:95:LR_Drum Hit Clap Sn.wav
475,192,72225,1,8,0:0:0:0:
256,192,72359,1,0,0:0:0:40:LR4_KickTBCRs.wav
402,192,72493,1,2,0:0:0:0:
109,192,72493,1,0,0:0:0:80:LR_Drum Hit Drop High.wav
256,192,72627,1,0,0:0:0:28:LR4_KickTBCRs.wav
329,192,72761,1,2,0:0:0:0:
182,192,72761,1,0,0:0:0:80:LR_Drum Hit Drop High.wav
256,192,72895,1,0,0:0:0:40:LR4_KickTBCRs.wav
402,192,73029,1,8,0:0:0:0:
109,192,73029,1,0,0:0:0:95:LR_Drum Hit Clap Sn.wav
182,192,73163,1,0,0:0:0:40:LR4_KickTBCRs.wav
329,192,73297,1,0,0:0:0:95:LR_Tom Hit Y.wav
475,192,73431,1,2,0:0:0:0:
36,192,73431,1,0,0:0:0:80:LR_Drum Hit Drop High.wav
329,192,73565,1,0,0:0:0:40:LR4_KickTBCRs.wav
182,192,73699,1,0,0:0:0:95:LR_Tom Hit Y.wav
36,192,73833,1,8,0:0:0:0:
109,192,73833,1,0,0:0:0:95:LR_Drum Hit Clap Sn.wav
109,192,73966,1,0,0:0:0:95:LR_Drum Hit Clap Sn.wav
36,192,73966,1,0,0:0:0:0:
329,192,74100,1,0,0:0:0:100:LR_Tom Hit X.wav
36,192,74234,1,0,0:0:0:65:LR_Tom Hit X.wav
109,192,74234,1,0,0:0:0:40:LR5_Tom Drop Sn.wav
475,192,74368,1,0,0:0:0:100:LR_Tom Hit Y.wav
256,192,74502,1,0,0:0:0:100:LR_Tom Hit Z.wav
182,192,74502,1,4,0:0:1:65:
402,192,74636,1,4,0:0:0:0:
109,192,74636,1,0,0:0:0:95:LR_Drum Hit Clap Sn.wav
329,192,74770,1,0,0:0:0:40:LR4_KickTBCRs.wav
256,192,74904,1,0,0:0:0:95:LR_Tom Hit Y.wav
402,192,75038,1,2,0:0:0:0:
109,192,75038,1,0,0:0:0:80:LR_Drum Hit Drop High.wav
182,192,75172,1,0,0:0:0:40:LR4_KickTBCRs.wav
256,192,75306,1,0,0:0:0:95:LR_Tom Hit Y.wav
402,192,75440,1,0,0:0:0:95:LR_Drum Hit Clap Sn.wav
475,192,75440,1,8,0:0:0:0:
329,192,75574,1,0,0:0:0:40:LR4_KickTBCRs.wav
109,192,75708,1,2,0:0:0:0:
36,192,75708,1,0,0:0:0:80:LR_Drum Hit Drop High.wav
182,192,75841,1,0,0:0:0:95:LR_Tom Hit Y.wav
475,192,75975,1,0,0:0:0:95:LR_Drum Hit Clap Sn.wav
402,192,75975,1,8,0:0:0:0:
329,192,76109,1,0,0:0:0:40:LR4_KickTBCRs.wav
36,192,76243,1,8,0:0:0:0:
109,192,76243,1,0,0:0:0:80:LR_Drum Hit Drop High.wav
182,192,76377,1,0,0:0:0:40:LR4_KickTBCRs.wav
256,192,76511,1,0,0:0:0:95:LR_Tom Hit Y.wav
475,192,76645,1,2,0:0:0:0:
329,192,76645,1,0,0:0:0:95:LR_Drum Hit Clap Sn.wav
182,192,76779,1,0,0:0:0:40:LR4_KickTBCRs.wav
36,192,76913,1,0,0:0:0:40:LR_Drum Hit Drop High.wav
109,192,76980,1,0,0:0:0:42:LR_Snare Hit.wav
182,192,77047,1,0,0:0:0:95:LR_Drum Hit Clap Sn.wav
329,192,77181,1,0,0:0:0:80:LR5_Tom Drop Sn.wav
402,192,77315,1,0,0:0:0:100:LR_Tom Hit Y.wav
109,192,77315,1,0,0:0:0:40:LR_Drum Hit Drop High.wav
256,192,77449,1,0,0:0:0:100:LR_Tom Hit Z.wav
36,192,77583,1,0,0:0:0:80:LR_Drum Hit Drop High.wav
329,192,77583,1,2,0:0:0:0:
182,192,77716,1,0,0:0:0:95:LR_Tom Hit Y.wav
109,192,77850,5,4,0:0:0:0:
475,192,77850,1,0,0:0:0:95:LR_Drum Hit Clap Sn.wav
402,192,77984,1,0,0:0:0:40:LR4_KickTBCRs.wav
329,192,78118,1,0,0:0:0:95:LR_Tom Hit Y.wav
402,192,78252,1,2,0:0:0:0:
36,192,78252,1,0,0:0:0:80:LR_Drum Hit Drop High.wav
109,192,78386,1,0,0:0:0:40:LR4_KickTBCRs.wav
182,192,78520,1,0,0:0:0:95:LR_Tom Hit Y.wav
109,192,78654,1,0,0:0:0:95:LR_Drum Hit Clap Sn.wav
475,192,78654,1,8,0:0:0:0:
256,192,78788,1,0,0:0:0:40:LR4_KickTBCRs.wav
402,192,78922,1,2,0:0:0:0:
36,192,78922,1,0,0:0:0:80:LR_Drum Hit Drop High.wav
256,192,79056,1,0,0:0:0:28:LR4_KickTBCRs.wav
475,192,79190,1,2,0:0:0:0:
109,192,79190,1,0,0:0:0:80:LR_Drum Hit Drop High.wav
256,192,79324,1,0,0:0:0:40:LR4_KickTBCRs.wav
402,192,79458,1,8,0:0:0:0:
36,192,79458,1,0,0:0:0:95:LR_Drum Hit Clap Sn.wav
182,192,79591,1,0,0:0:0:40:LR4_KickTBCRs.wav
329,192,79725,1,0,0:0:0:95:LR_Tom Hit Y.wav
402,192,79859,1,2,0:0:0:0:
109,192,79859,1,0,0:0:0:80:LR_Drum Hit Drop High.wav
329,192,79993,1,0,0:0:0:40:LR4_KickTBCRs.wav
182,192,80127,1,0,0:0:0:95:LR_Tom Hit Y.wav
475,192,80261,1,8,0:0:0:0:
36,192,80261,1,0,0:0:0:95:LR_Drum Hit Clap Sn.wav
36,192,80395,1,0,0:0:0:95:LR_Drum Hit Clap Sn.wav
475,192,80395,1,0,0:0:0:0:
329,192,80529,1,0,0:0:0:100:LR_Tom Hit X.wav
329,192,80663,1,0,0:0:0:40:LR5_Tom Drop Sn.wav
182,192,80797,1,0,0:0:0:100:LR_Tom Hit Y.wav
329,192,80931,1,4,0:0:1:65:
402,192,81065,1,4,0:0:0:0:
109,192,81065,1,0,0:0:0:95:LR_Drum Hit Clap Sn.wav
256,192,81199,1,0,0:0:0:40:LR4_KickTBCRs.wav
182,192,81333,1,0,0:0:0:95:LR_Tom Hit Y.wav
402,192,81466,1,2,0:0:0:0:
109,192,81466,1,0,0:0:0:80:LR_Drum Hit Drop High.wav
256,192,81600,1,0,0:0:0:40:LR4_KickTBCRs.wav
329,192,81734,1,0,0:0:0:95:LR_Tom Hit Y.wav
109,192,81868,1,0,0:0:0:95:LR_Drum Hit Clap Sn.wav
402,192,81868,1,8,0:0:0:0:
475,192,82002,1,0,0:0:0:40:LR4_KickTBCRs.wav
402,192,82136,1,2,0:0:0:0:
109,192,82136,1,0,0:0:0:80:LR_Drum Hit Drop High.wav
36,192,82270,1,0,0:0:0:28:LR4_KickTBCRs.wav
109,192,82404,1,0,0:0:0:95:LR_Drum Hit Clap Sn.wav
402,192,82404,1,8,0:0:0:0:
475,192,82538,1,0,0:0:0:40:LR4_KickTBCRs.wav
402,192,82672,1,8,0:0:0:0:
109,192,82672,1,0,0:0:0:80:LR_Drum Hit Drop High.wav
36,192,82806,1,0,0:0:0:40:LR4_KickTBCRs.wav
109,192,82940,1,0,0:0:0:95:LR_Tom Hit Y.wav
329,192,83074,1,2,0:0:0:0:
182,192,83074,1,0,0:0:0:95:LR_Drum Hit Clap Sn.wav
475,192,83208,1,0,0:0:0:40:LR4_KickTBCRs.wav
256,192,83341,5,0,0:0:0:40:LR_Drum Hit Drop High.wav
182,192,83408,1,0,0:0:0:42:LR_Snare Hit.wav
109,192,83475,1,0,0:0:0:95:LR_Drum Hit Clap Sn.wav
329,192,83609,1,0,0:0:0:80:LR5_Tom Drop Sn.wav
475,192,83609,1,0,0:0:0:0:
182,192,83743,1,0,0:0:0:100:LR_Tom Hit Y.wav
36,192,83743,1,0,0:0:0:40:LR_Drum Hit Drop High.wav
182,192,83877,1,0,0:0:0:100:LR_Tom Hit Z.wav
36,192,83877,1,0,0:0:0:0:
256,192,84011,1,0,0:0:0:80:LR_Drum Hit Drop High.wav
402,192,84011,1,0,0:0:0:0:
402,192,84145,1,0,0:0:0:100:LR_Tom Hit Z.wav
256,192,84145,1,0,0:0:0:0:
109,192,84279,1,4,3:0:0:0:
36,192,84279,1,0,0:0:0:0:
475,192,84279,1,0,0:0:0:0:
182,192,84547,128,0,84681:0:0:0:0:
109,192,84681,128,0,84815:0:0:0:40:LR4_KickTBCRs.wav
182,192,84815,128,0,84949:0:0:0:0:
109,192,84949,128,0,85083:0:0:0:53:LR4_KickTBCRs.wav
36,192,85083,1,0,0:0:0:87:LR_Drum Rpd x2.wav
402,192,85083,1,0,0:0:0:62:LR_Drum Hit Clap Sn.wav
182,192,85350,128,0,85484:0:0:0:0:
329,192,85350,128,0,85484:0:0:0:0:
182,192,85618,128,0,85752:0:0:0:0:
329,192,85618,128,0,85752:0:0:0:0:
475,192,85886,1,0,0:0:0:53:LR4_KickTBCRs.wav
36,192,85886,1,0,0:0:0:0:
329,192,86154,128,0,86288:0:0:0:0:
402,192,86288,128,0,86422:0:0:0:53:LR4_KickTBCRs.wav
329,192,86422,128,0,86556:0:0:0:0:
402,192,86556,128,0,86690:0:0:0:40:LR4_KickTBCRs.wav
475,192,86690,1,0,0:0:0:62:LR_Drum Hit Clap Sn.wav
109,192,86690,1,0,0:0:0:87:LR_Drum Rpd x2.wav
182,192,86958,128,0,87091:0:0:0:0:
329,192,86958,128,0,87091:0:0:0:40:LR4_KickTBCRs.wav
182,192,87225,128,0,87359:0:0:0:0:
329,192,87225,128,0,87359:0:0:0:53:LR4_KickTBCRs.wav
475,192,87493,1,0,0:0:0:53:LR4_KickTBCRs.wav
36,192,87493,1,0,0:0:0:0:
109,192,87627,128,0,87761:0:0:0:0:
402,192,87761,128,0,87895:0:0:0:0:
109,192,87895,128,0,88029:0:0:0:40:LR4_KickTBCRs.wav
402,192,88029,128,0,88163:0:0:0:0:
109,192,88163,128,0,88297:0:0:0:53:LR4_KickTBCRs.wav
329,192,88297,1,0,0:0:0:87:LR_Drum Rpd x2.wav
475,192,88297,1,0,0:0:0:62:LR_Drum Hit Clap Sn.wav
402,192,88431,128,0,88565:0:0:0:0:
109,192,88565,128,0,88699:0:0:0:40:LR4_KickTBCRs.wav
402,192,88699,128,0,88833:0:0:0:0:
109,192,88833,128,0,88966:0:0:0:40:LR4_KickTBCRs.wav
402,192,88966,128,0,89100:0:0:0:0:
36,192,89100,1,0,0:0:0:53:LR4_KickTBCRs.wav
182,192,89100,1,0,0:0:0:0:
256,192,89234,128,0,89368:0:0:0:0:
109,192,89368,128,0,89904:0:0:0:0:
329,192,89502,128,0,89636:0:0:0:40:LR4_KickTBCRs.wav
182,192,89636,128,0,89904:0:0:0:0:
402,192,89770,128,0,89904:0:0:0:53:LR4_KickTBCRs.wav
36,192,89904,1,0,0:0:0:87:LR_Drum Rpd x2.wav
475,192,89904,1,0,0:0:0:62:LR_Drum Hit Clap Sn.wav
182,192,90172,1,0,0:0:0:40:LR4_KickTBCRs.wav
329,192,90172,1,0,0:0:0:0:
256,192,90440,1,0,0:0:0:62:LR_Drum Hit Clap Sn.wav
256,192,90574,1,0,0:0:0:62:LR_Drum Hit Clap Sn.wav
182,192,90708,1,0,0:0:0:0:
36,192,90708,1,0,0:0:0:0:
329,192,90708,128,4,90841:3:0:0:0:
475,192,90841,128,0,90975:0:0:0:0:
329,192,90975,128,0,91109:0:0:0:0:
475,192,91109,128,0,91243:0:0:0:40:LR4_KickTBCRs.wav
329,192,91243,128,0,91377:0:0:0:0:
475,192,91377,128,0,91511:0:0:0:53:LR4_KickTBCRs.wav
182,192,91511,1,0,0:0:0:87:LR_Drum Rpd x2.wav
256,192,91511,1,0,0:0:0:62:LR_Drum Hit Clap Sn.wav
109,192,91779,128,0,91913:0:0:0:0:
402,192,91779,128,0,91913:0:0:0:0:
109,192,92047,128,0,92181:0:0:0:0:
402,192,92047,128,0,92181:0:0:0:0:
475,192,92315,1,0,0:0:0:53:LR4_KickTBCRs.wav
182,192,92315,128,0,92449:0:0:0:0:
36,192,92449,128,0,92583:0:0:0:0:
182,192,92583,128,0,92716:0:0:0:0:
36,192,92716,128,0,92850:0:0:0:53:LR4_KickTBCRs.wav
182,192,92850,128,0,92984:0:0:0:0:
36,192,92984,128,0,93118:0:0:0:40:LR4_KickTBCRs.wav
256,192,93118,1,0,0:0:0:62:LR_Drum Hit Clap Sn.wav
329,192,93118,1,0,0:0:0:87:LR_Drum Rpd x2.wav
109,192,93386,128,0,93520:0:0:0:40:LR4_KickTBCRs.wav
402,192,93386,128,0,93520:0:0:0:0:
109,192,93654,128,0,93788:0:0:0:53:LR4_KickTBCRs.wav
402,192,93654,128,0,93788:0:0:0:0:
36,192,93922,1,0,0:0:0:53:LR4_KickTBCRs.wav
475,192,93922,1,0,0:0:0:0:
329,192,94056,128,0,94190:0:0:0:0:
182,192,94190,128,0,94324:0:0:0:0:
329,192,94324,128,0,94458:0:0:0:40:LR4_KickTBCRs.wav
182,192,94458,128,0,94591:0:0:0:0:
329,192,94591,128,0,94725:0:0:0:53:LR4_KickTBCRs.wav
36,192,94725,1,0,0:0:0:87:LR_Drum Rpd x2.wav
475,192,94725,1,0,0:0:0:62:LR_Drum Hit Clap Sn.wav
182,192,94859,128,0,94993:0:0:0:0:
329,192,94993,128,0,95127:0:0:0:40:LR4_KickTBCRs.wav
182,192,95127,128,0,95261:0:0:0:0:
329,192,95261,128,0,95395:0:0:0:40:LR4_KickTBCRs.wav
182,192,95395,128,0,95529:0:0:0:0:
36,192,95529,1,0,0:0:0:0:
329,192,95529,128,0,95663:0:0:0:53:LR4_KickTBCRs.wav
475,192,95529,128,0,95663:0:0:0:0:
109,192,95663,128,0,95797:0:0:0:0:
256,192,95797,128,0,95931:0:0:0:85:LR_Drum Rpd x2.wav
402,192,95797,128,0,95931:0:0:0:0:
36,192,95931,128,0,96065:0:0:0:55:LR_Drum Hit Clap Sn.wav
182,192,96065,128,0,96199:0:0:0:70:LR5_Tom Normal Sn.wav
329,192,96065,128,0,96199:0:0:0:0:
109,192,96199,1,0,0:0:0:80:LR5_Tom Drop Sn.wav
256,192,96199,1,0,0:0:0:0:
475,192,96333,128,0,97136:0:0:0:62:LR_Drum Hit Clap Sn.wav
182,192,96466,1,0,0:0:0:70:LR5_Tom Normal Sn.wav
329,192,96600,128,0,97136:0:0:0:55:LR_Drum Hit Clap Sn.wav
109,192,96734,1,0,0:0:0:95:LR_Tom Hit X.wav
182,192,96868,128,0,97136:0:0:0:55:LR_Drum Hit Clap Sn.wav
36,192,97002,128,0,97136:0:0:0:97:LR_Tom Hit Y.wav
402,192,97136,1,4,0:0:0:0:
109,192,97136,1,0,0:0:0:0:
109,192,97806,1,0,0:0:0:0:
402,192,97940,1,0,0:0:0:40:LR_Snare Hit.wav
329,192,97973,1,0,0:0:0:33:LR_Drum Hit Clap Sn.wav
182,192,98208,1,0,0:0:0:0:
475,192,98475,1,0,0:0:0:0:
329,192,98743,128,0,98810:2:0:0:0:
109,192,98743,128,0,98810:0:0:0:52:LR4_KickTBCRs.wav
256,192,99145,1,0,0:0:0:0:
109,192,99547,1,0,0:0:0:40:LR_Snare Hit.wav
182,192,99580,1,0,0:0:0:33:LR_Drum Hit Clap Sn.wav
329,192,99815,1,0,0:0:0:0:
36,192,100083,1,0,0:0:0:0:
182,192,100350,128,0,100417:0:0:0:52:LR4_KickTBCRs.wav
402,192,100350,128,0,100417:2:0:0:0:
109,192,100752,1,0,0:0:0:60:LR_Tom Hit Z.wav
475,192,101154,1,0,0:0:0:40:LR_Snare Hit.wav
329,192,101187,1,0,0:0:0:33:LR_Drum Hit Clap Sn.wav
182,192,101422,1,0,0:0:0:0:
109,192,101958,128,0,102024:2:0:0:0:
475,192,101958,128,0,102024:0:0:0:52:LR4_KickTBCRs.wav
182,192,102359,1,0,0:0:0:0:
329,192,102761,1,0,0:0:0:40:LR_Snare Hit.wav
402,192,102795,1,0,0:0:0:33:LR_Drum Hit Clap Sn.wav
109,192,103029,1,0,0:0:0:65:LR_Tom Hit Y.wav
256,192,103297,1,0,0:0:0:100:LR_Drum Rpd x2.wav
402,192,103565,128,0,103632:2:0:0:0:
36,192,103565,128,0,103632:0:0:0:52:LR4_KickTBCRs.wav
256,192,103966,1,0,0:0:0:0:
36,192,104368,1,0,0:0:0:40:LR_Snare Hit.wav
182,192,104402,1,0,0:0:0:33:LR_Drum Hit Clap Sn.wav
475,192,104636,1,0,0:0:0:0:
402,192,105172,128,0,105239:2:0:0:0:
109,192,105172,128,0,105239:0:0:0:52:LR4_KickTBCRs.wav
256,192,105574,1,0,0:0:0:60:LR_Tom Hit Z.wav
329,192,105975,1,0,0:0:0:40:LR_Snare Hit.wav
182,192,106009,1,0,0:0:0:33:LR_Drum Hit Clap Sn.wav
329,192,106243,1,0,0:0:0:0:
109,192,106511,1,0,0:0:0:0:
402,192,106779,128,0,106846:2:0:0:0:
36,192,106779,128,0,106846:0:0:0:52:LR4_KickTBCRs.wav
256,192,107181,1,0,0:0:0:60:LR_Tom Hit Z.wav
182,192,107583,1,0,0:0:0:40:LR_Snare Hit.wav
329,192,107616,1,0,0:0:0:33:LR_Drum Hit Clap Sn.wav
109,192,107850,1,0,0:0:0:0:
256,192,108118,1,0,0:0:0:0:
182,192,108386,128,0,108453:2:0:0:0:
475,192,108386,128,0,108453:0:0:0:52:LR4_KickTBCRs.wav
329,192,108788,1,0,0:0:0:0:
182,192,109056,1,0,0:0:0:0:
402,192,109190,1,0,0:0:0:40:LR_Snare Hit.wav
109,192,109223,1,0,0:0:0:33:LR_Drum Hit Clap Sn.wav
256,192,109458,128,0,109993:0:0:0:0:
36,192,109993,5,4,3:0:0:0:
475,192,109993,1,0,0:0:0:0:
182,192,110663,1,0,0:0:0:53:LR4_KickTBCRs.wav
329,192,110797,1,0,0:0:0:62:LR_Drum Hit Clap Sn.wav
109,192,110797,1,0,0:0:0:87:LR_Drum Rpd x2.wav
475,192,111065,1,0,0:0:0:0:
36,192,111600,128,0,111667:2:0:0:0:
256,192,111600,128,0,111667:0:0:0:53:LR4_KickTBCRs.wav
329,192,112002,1,0,0:0:0:53:LR4_KickTBCRs.wav
329,192,112270,1,0,0:0:0:40:LR4_KickTBCRs.wav
182,192,112404,1,0,0:0:0:87:LR_Drum Rpd x2.wav
402,192,112404,1,0,0:0:0:62:LR_Drum Hit Clap Sn.wav
256,192,112672,1,0,0:0:0:40:LR4_KickTBCRs.wav
182,192,112940,1,0,0:0:0:53:LR4_KickTBCRs.wav
109,192,113208,128,0,113274:2:0:0:0:
329,192,113208,128,0,113274:0:0:0:53:LR4_KickTBCRs.wav
402,192,113877,1,0,0:0:0:53:LR4_KickTBCRs.wav
329,192,114011,1,0,0:0:0:62:LR_Drum Hit Clap Sn.wav
182,192,114011,1,0,0:0:0:87:LR_Drum Rpd x2.wav
256,192,114279,1,0,0:0:0:40:LR4_KickTBCRs.wav
109,192,114547,1,0,0:0:0:40:LR4_KickTBCRs.wav
36,192,114815,128,0,114882:2:0:0:0:
329,192,114815,128,0,114882:0:0:0:53:LR4_KickTBCRs.wav
256,192,115216,1,0,0:0:0:40:LR4_KickTBCRs.wav
256,192,115484,1,0,0:0:0:53:LR4_KickTBCRs.wav
402,192,115618,1,0,0:0:0:62:LR_Drum Hit Clap Sn.wav
109,192,115618,1,0,0:0:0:87:LR_Drum Rpd x2.wav
256,192,115886,1,0,0:0:0:40:LR4_KickTBCRs.wav
36,192,116154,1,0,0:0:0:62:LR_Drum Hit Clap Sn.wav
182,192,116154,1,0,0:0:0:87:LR_Drum Rpd x2.wav
475,192,116288,1,0,0:0:0:87:LR_Drum Rpd x2.wav
329,192,116288,1,0,0:0:0:62:LR_Drum Hit Clap Sn.wav
182,192,116422,1,4,3:0:0:0:
402,192,116422,128,0,116489:2:0:0:0:
109,192,116422,128,0,116489:2:0:0:0:
256,192,116824,1,0,0:0:0:40:LR4_KickTBCRs.wav
256,192,117091,1,0,0:0:0:53:LR4_KickTBCRs.wav
329,192,117225,1,0,0:0:0:62:LR_Drum Hit Clap Sn.wav
36,192,117225,1,0,0:0:0:87:LR_Drum Rpd x2.wav
182,192,117493,1,0,0:0:0:0:
329,192,118029,128,0,118096:2:0:0:0:
109,192,118029,128,0,118096:0:0:0:53:LR4_KickTBCRs.wav
475,192,118431,1,0,0:0:0:53:LR4_KickTBCRs.wav
475,192,118699,1,0,0:0:0:40:LR4_KickTBCRs.wav
36,192,118833,1,0,0:0:0:87:LR_Drum Rpd x2.wav
329,192,118833,1,0,0:0:0:62:LR_Drum Hit Clap Sn.wav
182,192,119100,1,0,0:0:0:40:LR4_KickTBCRs.wav
329,192,119368,1,0,0:0:0:53:LR4_KickTBCRs.wav
109,192,119636,128,0,119703:2:0:0:0:
475,192,119636,128,0,119703:0:0:0:53:LR4_KickTBCRs.wav
329,192,120038,1,0,0:0:0:40:LR4_KickTBCRs.wav
329,192,120306,1,0,0:0:0:53:LR4_KickTBCRs.wav
36,192,120440,1,0,0:0:0:62:LR_Drum Hit Clap Sn.wav
182,192,120440,1,0,0:0:0:87:LR_Drum Rpd x2.wav
109,192,120708,1,0,0:0:0:40:LR4_KickTBCRs.wav
256,192,120975,1,0,0:0:0:40:LR4_KickTBCRs.wav
475,192,121243,128,0,121310:2:0:0:0:
182,192,121243,128,0,121310:0:0:0:53:LR4_KickTBCRs.wav
109,192,121511,1,0,0:0:0:85:LR_Drum Rpd x2.wav
402,192,121645,5,0,0:0:0:55:LR_Drum Hit Clap Sn.wav
182,192,121779,5,0,0:0:0:70:LR5_Tom Normal Sn.wav
329,192,121913,1,0,0:0:0:80:LR5_Tom Drop Sn.wav
36,192,122047,1,0,0:0:0:62:LR_Drum Hit Clap Sn.wav
475,192,122047,1,0,0:0:0:62:LR_Drum Hit Drop High.wav
109,192,122181,1,0,0:0:0:62:LR_Drum Hit Drop High.wav
402,192,122181,1,0,0:0:0:62:LR_Drum Hit Clap Sn.wav
182,192,122315,1,0,0:0:0:55:LR_Drum Hit Clap Sn.wav
329,192,122449,1,0,0:0:0:65:LR_Drum Rpd x2.wav
182,192,122583,1,0,0:0:0:55:LR_Drum Hit Clap Sn.wav
329,192,122716,1,0,0:0:0:65:LR_Drum Rpd x2.wav
256,192,122850,5,0,0:0:0:0:
475,192,122850,1,0,0:0:0:0:
36,192,122850,1,4,3:0:0:0:
329,192,123118,1,0,0:0:0:0:
182,192,123252,1,0,0:0:0:0:
329,192,123386,1,0,0:0:0:0:
475,192,123654,1,8,0:0:0:0:
36,192,123654,1,4,0:0:0:0:
256,192,123654,1,0,0:0:0:0:
182,192,123922,1,0,0:0:0:0:
329,192,124056,1,0,0:0:0:0:
182,192,124190,1,0,0:0:0:0:
36,192,124458,1,4,0:0:0:0:
475,192,124458,1,2,0:0:0:0:
256,192,124458,1,0,0:0:0:0:
109,192,124725,1,0,0:0:0:0:
402,192,124859,1,0,0:0:0:0:
109,192,124993,1,0,0:0:0:0:
36,192,125261,1,4,0:0:0:0:
475,192,125261,1,8,0:0:0:0:
256,192,125261,1,0,0:0:0:0:
329,192,125529,1,0,0:0:0:0:
182,192,125663,1,0,0:0:0:0:
109,192,125797,1,0,0:0:0:0:
402,192,125797,1,0,0:0:0:0:
36,192,126065,1,4,0:0:0:0:
256,192,126065,1,2,0:0:0:0:
475,192,126065,1,0,0:0:0:0:
182,192,126199,1,0,0:0:0:0:
329,192,126333,1,0,0:0:0:0:
182,192,126466,1,0,0:0:0:0:
329,192,126600,1,0,0:0:0:0:
402,192,126600,1,0,0:0:0:0:
475,192,126868,1,8,0:0:0:0:
36,192,126868,1,4,0:0:0:0:
256,192,126868,1,0,0:0:0:0:
402,192,127002,1,0,0:0:0:0:
109,192,127136,1,0,0:0:0:0:
402,192,127270,1,0,0:0:0:0:
109,192,127404,1,0,0:0:0:0:
182,192,127404,1,0,0:0:0:0:
36,192,127672,1,4,0:0:0:0:
475,192,127672,1,2,0:0:0:0:
256,192,127672,1,0,0:0:0:0:
182,192,127806,1,0,0:0:0:0:
109,192,127806,1,0,0:0:0:0:
329,192,127940,1,0,0:0:0:0:
402,192,127940,1,0,0:0:0:0:
109,192,128074,1,0,0:0:0:0:
182,192,128074,1,0,0:0:0:0:
402,192,128208,1,0,0:0:0:0:
329,192,128208,1,0,0:0:0:0:
182,192,128341,1,0,0:0:0:0:
109,192,128341,1,0,0:0:0:0:
36,192,128475,5,2,0:0:0:0:
475,192,128475,1,8,0:0:0:0:
256,192,128475,1,4,0:0:0:0:
329,192,129279,5,4,0:0:0:0:
475,192,129279,1,0,0:0:0:95:LR_Drum Hit Clap Sn.wav
36,192,129279,1,0,0:0:0:0:
402,192,129681,1,2,0:0:0:0:
109,192,129681,1,0,0:0:0:80:LR_Drum Hit Drop High.wav
329,192,129815,1,0,0:0:0:40:LR4_KickTBCRs.wav
256,192,129949,1,0,0:0:0:95:LR_Tom Hit Y.wav
182,192,130083,1,0,0:0:0:95:LR_Drum Hit Clap Sn.wav
475,192,130083,1,8,0:0:0:0:
329,192,130216,1,0,0:0:0:40:LR4_KickTBCRs.wav
402,192,130350,1,2,0:0:0:0:
109,192,130350,1,0,0:0:0:80:LR_Drum Hit Drop High.wav
256,192,130484,1,0,0:0:0:28:LR4_KickTBCRs.wav
36,192,130618,1,2,0:0:0:0:
329,192,130618,1,0,0:0:0:80:LR_Drum Hit Drop High.wav
182,192,130752,1,0,0:0:0:40:LR4_KickTBCRs.wav
402,192,130886,1,8,0:0:0:0:
109,192,130886,1,0,0:0:0:95:LR_Drum Hit Clap Sn.wav
329,192,131020,1,0,0:0:0:40:LR4_KickTBCRs.wav
256,192,131154,1,0,0:0:0:95:LR_Tom Hit Y.wav
475,192,131288,1,2,0:0:0:0:
182,192,131288,1,0,0:0:0:80:LR_Drum Hit Drop High.wav
402,192,131422,1,0,0:0:0:40:LR4_KickTBCRs.wav
329,192,131556,1,0,0:0:0:95:LR_Tom Hit Y.wav
109,192,131690,1,8,0:0:0:0:
182,192,131690,1,0,0:0:0:95:LR_Drum Hit Clap Sn.wav
109,192,131824,1,0,0:0:0:95:LR_Drum Hit Clap Sn.wav
182,192,131824,1,0,0:0:0:0:
402,192,131958,1,0,0:0:0:65:LR5_Tom Normal Sn.wav
182,192,132091,1,0,0:0:0:65:LR5_Tom Normal Sn.wav
329,192,132225,1,0,0:0:0:65:LR5_Tom Drop Sn.wav
109,192,132359,1,0,0:0:0:65:LR5_Tom Drop Sn.wav
36,192,132493,1,4,0:0:0:0:
475,192,132493,1,0,0:0:0:95:LR_Drum Hit Clap Sn.wav
256,192,132627,1,0,0:0:0:40:LR4_KickTBCRs.wav
182,192,132761,1,0,0:0:0:95:LR_Tom Hit Y.wav
402,192,132895,1,2,0:0:0:0:
109,192,132895,1,0,0:0:0:80:LR_Drum Hit Drop High.wav
256,192,133029,1,0,0:0:0:40:LR4_KickTBCRs.wav
329,192,133163,1,0,0:0:0:95:LR_Tom Hit Y.wav
109,192,133297,1,0,0:0:0:95:LR_Drum Hit Clap Sn.wav
402,192,133297,1,8,0:0:0:0:
182,192,133431,1,0,0:0:0:40:LR4_KickTBCRs.wav
402,192,133565,1,2,0:0:0:0:
109,192,133565,1,0,0:0:0:80:LR_Drum Hit Drop High.wav
329,192,133699,1,0,0:0:0:95:LR_Tom Hit Y.wav
109,192,133833,1,0,0:0:0:95:LR_Drum Hit Clap Sn.wav
402,192,133833,1,8,0:0:0:0:
182,192,133966,1,0,0:0:0:40:LR4_KickTBCRs.wav
36,192,134100,1,8,0:0:0:0:
475,192,134100,1,0,0:0:0:80:LR_Drum Hit Drop High.wav
329,192,134234,1,0,0:0:0:40:LR4_KickTBCRs.wav
182,192,134368,1,0,0:0:0:95:LR_Tom Hit Y.wav
475,192,134502,1,2,0:0:0:0:
36,192,134502,1,0,0:0:0:95:LR_Drum Hit Clap Sn.wav
182,192,134636,1,0,0:0:0:40:LR4_KickTBCRs.wav
329,192,134770,1,0,0:0:0:40:LR_Drum Hit Drop High.wav
256,192,134837,1,0,0:0:0:42:LR_Snare Hit.wav
182,192,134904,1,0,0:0:0:95:LR_Drum Hit Clap Sn.wav
475,192,135038,1,0,0:0:0:40:LR_Drum Hit Drop High.wav
36,192,135172,1,0,0:0:0:95:LR_Drum Hit Clap Sn.wav
182,192,135172,1,0,0:0:0:0:
402,192,135306,1,0,0:0:0:100:LR_Drum Hit Clap Sn.wav
36,192,135440,1,0,0:0:0:65:LR5_Tom Normal Sn.wav
182,192,135440,1,2,0:0:0:0:
329,192,135574,1,0,0:0:0:65:LR5_Tom Drop Sn.wav
475,192,135708,5,4,0:0:0:0:
109,192,135708,1,0,0:0:0:95:LR_Drum Hit Clap Sn.wav
256,192,135841,1,0,0:0:0:40:LR4_KickTBCRs.wav
329,192,135975,1,0,0:0:0:95:LR_Tom Hit Y.wav
402,192,136109,1,2,0:0:0:0:
36,192,136109,1,0,0:0:0:80:LR_Drum Hit Drop High.wav
182,192,136243,1,0,0:0:0:40:LR4_KickTBCRs.wav
256,192,136377,1,0,0:0:0:95:LR_Tom Hit Y.wav
329,192,136511,1,0,0:0:0:95:LR_Drum Hit Clap Sn.wav
475,192,136511,1,8,0:0:0:0:
182,192,136645,1,0,0:0:0:40:LR4_KickTBCRs.wav
402,192,136779,1,2,0:0:0:0:
256,192,136779,1,0,0:0:0:80:LR_Drum Hit Drop High.wav
109,192,136913,1,0,0:0:0:28:LR4_KickTBCRs.wav
329,192,137047,1,2,0:0:0:0:
182,192,137047,1,0,0:0:0:80:LR_Drum Hit Drop High.wav
36,192,137181,1,0,0:0:0:40:LR4_KickTBCRs.wav
109,192,137315,1,8,0:0:0:0:
256,192,137315,1,0,0:0:0:95:LR_Drum Hit Clap Sn.wav
329,192,137449,1,0,0:0:0:40:LR4_KickTBCRs.wav
402,192,137583,1,0,0:0:0:95:LR_Tom Hit Y.wav
475,192,137716,1,2,0:0:0:0:
182,192,137716,1,0,0:0:0:80:LR_Drum Hit Drop High.wav
256,192,137850,1,0,0:0:0:40:LR4_KickTBCRs.wav
329,192,137984,1,0,0:0:0:95:LR_Tom Hit Y.wav
475,192,138118,1,0,0:0:0:95:LR_Drum Hit Clap Sn.wav
402,192,138118,1,8,0:0:0:0:
36,192,138252,1,0,0:0:0:95:LR_Drum Hit Clap Sn.wav
109,192,138252,1,0,0:0:0:0:
329,192,138386,1,0,0:0:0:65:LR5_Tom Normal Sn.wav
182,192,138520,1,0,0:0:0:65:LR5_Tom Normal Sn.wav
329,192,138654,1,0,0:0:0:65:LR5_Tom Drop Sn.wav
182,192,138788,1,0,0:0:0:65:LR5_Tom Drop Sn.wav
475,192,138922,1,4,0:0:0:0:
109,192,138922,1,0,0:0:0:95:LR_Drum Hit Clap Sn.wav
329,192,139056,1,0,0:0:0:40:LR4_KickTBCRs.wav
182,192,139190,1,0,0:0:0:95:LR_Tom Hit Y.wav
36,192,139324,1,2,0:0:0:0:
402,192,139324,1,0,0:0:0:80:LR_Drum Hit Drop High.wav
182,192,139458,1,0,0:0:0:40:LR4_KickTBCRs.wav
329,192,139591,1,0,0:0:0:95:LR_Tom Hit Y.wav
109,192,139725,1,0,0:0:0:95:LR_Drum Hit Clap Sn.wav
475,192,139725,1,8,0:0:0:0:
182,192,139859,1,0,0:0:0:40:LR4_KickTBCRs.wav
402,192,139993,1,2,0:0:0:0:
36,192,139993,1,0,0:0:0:80:LR_Drum Hit Drop High.wav
329,192,140127,1,0,0:0:0:28:LR4_KickTBCRs.wav
109,192,140261,1,0,0:0:0:95:LR_Drum Hit Clap Sn.wav
475,192,140261,1,8,0:0:0:0:
182,192,140395,1,0,0:0:0:40:LR4_KickTBCRs.wav
402,192,140529,1,8,0:0:0:0:
36,192,140529,1,0,0:0:0:80:LR_Drum Hit Drop High.wav
329,192,140663,1,0,0:0:0:40:LR4_KickTBCRs.wav
182,192,140797,1,0,0:0:0:95:LR_Tom Hit Y.wav
109,192,140931,1,2,0:0:0:0:
402,192,140931,1,0,0:0:0:95:LR_Drum Hit Clap Sn.wav
256,192,141065,5,0,0:0:0:40:LR4_KickTBCRs.wav
36,192,141199,5,0,0:0:0:40:LR_Drum Hit Drop High.wav
109,192,141266,1,0,0:0:0:42:LR_Snare Hit.wav
182,192,141333,1,0,0:0:0:95:LR_Drum Hit Clap Sn.wav
329,192,141466,1,0,0:0:0:40:LR_Drum Hit Drop High.wav
402,192,141466,1,0,0:0:0:0:
402,192,141600,1,0,0:0:0:95:LR_Drum Hit Clap Sn.wav
329,192,141600,1,0,0:0:0:0:
182,192,141734,1,0,0:0:0:100:LR_Drum Hit Clap Sn.wav
109,192,141734,1,0,0:0:0:0:
402,192,141868,1,2,0:0:0:0:
329,192,141868,1,0,0:0:0:65:LR5_Tom Normal Sn.wav
182,192,142002,1,0,0:0:0:65:LR5_Tom Drop Sn.wav
109,192,142002,1,0,0:0:0:0:
475,192,142136,5,4,0:0:0:0:
36,192,142136,1,0,0:0:0:95:LR_Drum Hit Clap Sn.wav
256,192,142270,1,0,0:0:0:40:LR4_KickTBCRs.wav
329,192,142404,1,0,0:0:0:95:LR_Tom Hit Y.wav
109,192,142538,1,2,0:0:0:0:
402,192,142538,1,0,0:0:0:80:LR_Drum Hit Drop High.wav
182,192,142672,1,0,0:0:0:40:LR4_KickTBCRs.wav
256,192,142806,1,0,0:0:0:95:LR_Tom Hit Y.wav
329,192,142940,1,0,0:0:0:95:LR_Drum Hit Clap Sn.wav
475,192,142940,1,8,0:0:0:0:
182,192,143074,1,0,0:0:0:40:LR4_KickTBCRs.wav
475,192,143208,1,2,0:0:0:0:
329,192,143208,1,0,0:0:0:80:LR_Drum Hit Drop High.wav
109,192,143341,1,0,0:0:0:28:LR4_KickTBCRs.wav
329,192,143475,1,2,0:0:0:0:
475,192,143475,1,0,0:0:0:80:LR_Drum Hit Drop High.wav
36,192,143609,1,0,0:0:0:40:LR4_KickTBCRs.wav
402,192,143743,1,8,0:0:0:0:
256,192,143743,1,0,0:0:0:95:LR_Drum Hit Clap Sn.wav
182,192,143877,1,0,0:0:0:40:LR4_KickTBCRs.wav
109,192,144011,1,0,0:0:0:95:LR_Tom Hit Y.wav
329,192,144145,1,2,0:0:0:0:
182,192,144145,1,0,0:0:0:80:LR_Drum Hit Drop High.wav
402,192,144279,1,0,0:0:0:40:LR4_KickTBCRs.wav
329,192,144413,1,0,0:0:0:95:LR_Tom Hit Y.wav
36,192,144547,1,8,0:0:0:0:
182,192,144547,1,0,0:0:0:95:LR_Drum Hit Clap Sn.wav
182,192,144681,1,0,0:0:0:95:LR_Drum Hit Clap Sn.wav
36,192,144681,1,0,0:0:0:0:
329,192,144815,1,0,0:0:0:100:LR_Tom Hit X.wav
256,192,144949,1,0,0:0:0:65:LR_Tom Hit X.wav
109,192,144949,1,0,0:0:0:40:LR5_Tom Drop Sn.wav
402,192,145083,1,0,0:0:0:100:LR_Tom Hit Y.wav
329,192,145216,1,0,0:0:0:100:LR_Tom Hit Z.wav
182,192,145216,1,4,0:0:1:65:
475,192,145350,1,4,0:0:0:0:
36,192,145350,1,0,0:0:0:95:LR_Drum Hit Clap Sn.wav
256,192,145484,1,0,0:0:0:40:LR4_KickTBCRs.wav
182,192,145618,1,0,0:0:0:95:LR_Tom Hit Y.wav
402,192,145752,1,2,0:0:0:0:
109,192,145752,1,0,0:0:0:80:LR_Drum Hit Drop High.wav
329,192,145886,1,0,0:0:0:40:LR4_KickTBCRs.wav
256,192,146020,1,0,0:0:0:95:LR_Tom Hit Y.wav
36,192,146154,1,0,0:0:0:95:LR_Drum Hit Clap Sn.wav
182,192,146154,1,8,0:0:0:0:
329,192,146288,1,0,0:0:0:40:LR4_KickTBCRs.wav
182,192,146422,1,2,0:0:0:0:
36,192,146422,1,0,0:0:0:80:LR_Drum Hit Drop High.wav
402,192,146556,1,0,0:0:0:95:LR_Tom Hit Y.wav
182,192,146690,1,0,0:0:0:95:LR_Drum Hit Clap Sn.wav
36,192,146690,1,8,0:0:0:0:
475,192,146824,1,0,0:0:0:40:LR4_KickTBCRs.wav
256,192,146958,1,8,0:0:0:0:
109,192,146958,1,0,0:0:0:80:LR_Drum Hit Drop High.wav
329,192,147091,1,0,0:0:0:40:LR4_KickTBCRs.wav
402,192,147225,1,0,0:0:0:95:LR_Tom Hit Y.wav
329,192,147359,1,2,0:0:0:0:
182,192,147359,1,0,0:0:0:95:LR_Drum Hit Clap Sn.wav
109,192,147493,1,0,0:0:0:40:LR4_KickTBCRs.wav
182,192,147627,1,0,0:0:0:40:LR_Drum Hit Drop High.wav
256,192,147694,1,0,0:0:0:42:LR_Snare Hit.wav
329,192,147761,1,0,0:0:0:95:LR_Drum Hit Clap Sn.wav
109,192,147895,1,0,0:0:0:80:LR5_Tom Drop Sn.wav
475,192,148029,1,0,0:0:0:100:LR_Tom Hit Y.wav
182,192,148029,1,0,0:0:0:40:LR_Drum Hit Drop High.wav
36,192,148163,1,0,0:0:0:100:LR_Tom Hit Z.wav
109,192,148297,1,0,0:0:0:80:LR_Drum Hit Drop High.wav
402,192,148297,1,2,0:0:0:0:
256,192,148431,1,0,0:0:0:95:LR_Tom Hit Y.wav
36,192,148565,5,4,0:0:0:0:
329,192,148565,1,0,0:0:0:95:LR_Drum Hit Clap Sn.wav
182,192,148699,1,0,0:0:0:40:LR4_KickTBCRs.wav
109,192,148833,1,0,0:0:0:95:LR_Tom Hit Y.wav
475,192,148966,1,2,0:0:0:0:
182,192,148966,1,0,0:0:0:80:LR_Drum Hit Drop High.wav
329,192,149100,1,0,0:0:0:40:LR4_KickTBCRs.wav
402,192,149234,1,0,0:0:0:95:LR_Tom Hit Y.wav
182,192,149368,1,0,0:0:0:95:LR_Drum Hit Clap Sn.wav
329,192,149368,1,8,0:0:0:0:
36,192,149502,1,0,0:0:0:40:LR4_KickTBCRs.wav
329,192,149636,1,2,0:0:0:0:
182,192,149636,1,0,0:0:0:80:LR_Drum Hit Drop High.wav
475,192,149770,1,0,0:0:0:28:LR4_KickTBCRs.wav
329,192,149904,1,2,0:0:0:0:
182,192,149904,1,0,0:0:0:80:LR_Drum Hit Drop High.wav
36,192,150038,1,0,0:0:0:40:LR4_KickTBCRs.wav
329,192,150172,1,8,0:0:0:0:
182,192,150172,1,0,0:0:0:95:LR_Drum Hit Clap Sn.wav
475,192,150306,1,0,0:0:0:40:LR4_KickTBCRs.wav
402,192,150440,1,0,0:0:0:95:LR_Tom Hit Y.wav
329,192,150574,1,2,0:0:0:0:
182,192,150574,1,0,0:0:0:80:LR_Drum Hit Drop High.wav
36,192,150708,1,0,0:0:0:40:LR4_KickTBCRs.wav
109,192,150841,1,0,0:0:0:95:LR_Tom Hit Y.wav
329,192,150975,1,8,0:0:0:0:
182,192,150975,1,0,0:0:0:95:LR_Drum Hit Clap Sn.wav
36,192,151109,1,0,0:0:0:95:LR_Drum Hit Clap Sn.wav
475,192,151109,1,0,0:0:0:0:
256,192,151243,1,0,0:0:0:100:LR_Tom Hit X.wav
256,192,151377,1,0,0:0:0:40:LR5_Tom Drop Sn.wav
182,192,151511,1,0,0:0:0:100:LR_Tom Hit Y.wav
329,192,151645,1,4,0:0:1:65:
402,192,151779,1,4,0:0:0:0:
109,192,151779,1,0,0:0:0:95:LR_Drum Hit Clap Sn.wav
182,192,151913,1,0,0:0:0:40:LR4_KickTBCRs.wav
256,192,152047,1,0,0:0:0:95:LR_Tom Hit Y.wav
402,192,152181,1,2,0:0:0:0:
109,192,152181,1,0,0:0:0:80:LR_Drum Hit Drop High.wav
329,192,152315,1,0,0:0:0:40:LR4_KickTBCRs.wav
256,192,152449,1,0,0:0:0:95:LR_Tom Hit Y.wav
109,192,152583,1,0,0:0:0:95:LR_Drum Hit Clap Sn.wav
402,192,152583,1,8,0:0:0:0:
182,192,152716,1,0,0:0:0:40:LR4_KickTBCRs.wav
402,192,152850,1,2,0:0:0:0:
109,192,152850,1,0,0:0:0:80:LR_Drum Hit Drop High.wav
256,192,152984,1,0,0:0:0:28:LR4_KickTBCRs.wav
109,192,153118,1,0,0:0:0:95:LR_Drum Hit Clap Sn.wav
402,192,153118,1,8,0:0:0:0:
329,192,153252,1,0,0:0:0:40:LR4_KickTBCRs.wav
402,192,153386,1,8,0:0:0:0:
109,192,153386,1,0,0:0:0:80:LR_Drum Hit Drop High.wav
182,192,153520,1,0,0:0:0:40:LR4_KickTBCRs.wav
256,192,153654,1,0,0:0:0:95:LR_Tom Hit Y.wav
329,192,153788,1,2,0:0:0:0:
36,192,153788,1,0,0:0:0:95:LR_Drum Hit Clap Sn.wav
182,192,153922,5,0,0:0:0:40:LR4_KickTBCRs.wav
475,192,154056,5,0,0:0:0:40:LR_Drum Hit Drop High.wav
402,192,154123,1,0,0:0:0:42:LR_Snare Hit.wav
329,192,154190,1,0,0:0:0:95:LR_Drum Hit Clap Sn.wav
36,192,154324,1,0,0:0:0:80:LR5_Tom Drop Sn.wav
182,192,154324,1,0,0:0:0:0:
329,192,154458,1,0,0:0:0:100:LR_Tom Hit Y.wav
475,192,154458,1,0,0:0:0:40:LR_Drum Hit Drop High.wav
329,192,154591,1,0,0:0:0:100:LR_Tom Hit Z.wav
475,192,154591,1,0,0:0:0:0:
182,192,154725,1,0,0:0:0:80:LR_Drum Hit Drop High.wav
36,192,154725,1,0,0:0:0:0:
36,192,154859,1,0,0:0:0:100:LR_Tom Hit Z.wav
182,192,154859,1,0,0:0:0:0:
256,192,154993,5,4,3:0:0:0:
109,192,154993,1,0,0:0:0:0:
329,192,154993,1,0,0:0:0:0:
402,192,155127,1,0,0:0:0:0:
475,192,155261,128,0,155797:0:0:0:0:
329,192,155395,128,0,155797:0:0:0:0:
182,192,155797,1,0,0:0:0:87:LR_Drum Rpd x2.wav
402,192,155797,1,0,0:0:0:0:
109,192,155931,1,0,0:0:0:0:
36,192,156065,128,0,156600:0:0:0:0:
182,192,156199,128,0,156600:0:0:0:0:
475,192,156600,1,0,0:0:0:53:LR4_KickTBCRs.wav
109,192,156600,1,0,0:0:0:0:
402,192,156734,1,0,0:0:0:0:
329,192,156868,1,0,0:0:0:0:
256,192,157002,128,0,157404:0:0:0:53:LR4_KickTBCRs.wav
109,192,157404,128,0,157672:0:0:0:0:
402,192,157404,128,0,157672:0:0:0:0:
329,192,157672,128,0,157806:0:0:0:0:
182,192,157672,128,0,157806:0:0:0:0:
182,192,157940,128,0,158074:0:0:0:0:
329,192,157940,128,0,158074:0:0:0:0:
475,192,158208,1,0,0:0:0:0:
36,192,158208,1,0,0:0:0:53:LR4_KickTBCRs.wav
182,192,158341,1,0,0:0:0:0:
329,192,158475,128,0,158877:0:0:0:0:
182,192,158609,128,0,158877:0:0:0:40:LR4_KickTBCRs.wav
256,192,158877,1,0,0:0:0:53:LR4_KickTBCRs.wav
475,192,159011,1,0,0:0:0:87:LR_Drum Rpd x2.wav
36,192,159011,1,0,0:0:0:0:
402,192,159145,1,0,0:0:0:0:
109,192,159279,128,0,159681:0:0:0:40:LR4_KickTBCRs.wav
402,192,159413,128,0,159681:0:0:0:0:
256,192,159681,1,0,0:0:0:0:
475,192,159815,1,0,0:0:0:0:
36,192,159815,128,0,160083:0:0:0:53:LR4_KickTBCRs.wav
109,192,160083,1,0,0:0:0:0:
182,192,160216,128,0,160484:0:0:0:40:LR4_KickTBCRs.wav
329,192,160484,1,0,0:0:0:53:LR4_KickTBCRs.wav
36,192,160618,1,0,0:0:0:62:LR_Drum Hit Clap Sn.wav
256,192,160618,128,0,160886:0:0:0:0:
402,192,160886,128,0,161020:0:0:0:0:
109,192,160886,128,0,161020:0:0:0:40:LR4_KickTBCRs.wav
109,192,161154,1,0,0:0:0:87:LR_Drum Rpd x2.wav
402,192,161154,1,0,0:0:0:62:LR_Drum Hit Clap Sn.wav
256,192,161288,1,0,0:0:0:62:LR_Drum Hit Clap Sn.wav
36,192,161422,1,4,3:0:0:0:
475,192,161422,1,0,0:0:0:0:
182,192,161422,1,0,0:0:0:0:
329,192,161556,1,0,0:0:0:0:
402,192,161690,128,0,162091:0:0:0:0:
329,192,161824,128,0,162091:0:0:0:0:
36,192,162225,1,0,0:0:0:87:LR_Drum Rpd x2.wav
475,192,162225,1,0,0:0:0:62:LR_Drum Hit Clap Sn.wav
182,192,162359,1,0,0:0:0:0:
109,192,162493,128,0,162895:0:0:0:0:
182,192,162627,128,0,162895:0:0:0:0:
329,192,163029,1,0,0:0:0:53:LR4_KickTBCRs.wav
36,192,163029,1,0,0:0:0:0:
256,192,163163,1,0,0:0:0:0:
182,192,163297,1,0,0:0:0:0:
256,192,163431,128,0,163833:0:0:0:0:
182,192,163833,128,0,164100:0:0:0:87:LR_Drum Rpd x2.wav
329,192,163833,128,0,164100:0:0:0:62:LR_Drum Hit Clap Sn.wav
402,192,164100,128,0,164234:0:0:0:40:LR4_KickTBCRs.wav
109,192,164100,128,0,164234:0:0:0:0:
109,192,164368,128,0,164502:0:0:0:0:
402,192,164368,128,0,164502:0:0:0:53:LR4_KickTBCRs.wav
475,192,164636,128,0,165306:0:0:0:0:
182,192,164636,1,0,0:0:0:40:LR4_KickTBCRs.wav
329,192,164770,128,0,165306:0:0:0:0:
36,192,164904,128,0,165306:0:0:0:0:
182,192,165038,128,0,165306:0:0:0:40:LR4_KickTBCRs.wav
475,192,165440,1,0,0:0:0:62:LR_Drum Hit Clap Sn.wav
182,192,165440,128,0,166109:0:0:0:0:
36,192,165574,128,0,166109:0:0:0:0:
329,192,165708,128,0,166109:0:0:0:40:LR4_KickTBCRs.wav
475,192,165841,128,0,166109:0:0:0:0:
475,192,166243,1,0,0:0:0:0:
36,192,166243,1,0,0:0:0:0:
256,192,166243,128,0,166511:0:0:0:53:LR4_KickTBCRs.wav
329,192,166511,1,0,0:0:0:85:LR_Drum Rpd x2.wav
109,192,166645,1,0,0:0:0:55:LR_Drum Hit Clap Sn.wav
182,192,166645,1,0,0:0:0:0:
402,192,166779,5,0,0:0:0:70:LR5_Tom Normal Sn.wav
329,192,166913,1,0,0:0:0:80:LR5_Tom Drop Sn.wav
182,192,167047,1,0,0:0:0:62:LR_Drum Hit Drop High.wav
256,192,167047,1,0,0:0:0:62:LR_Drum Hit Clap Sn.wav
36,192,167181,5,0,0:0:0:70:LR5_Tom Normal Sn.wav
329,192,167315,1,0,0:0:0:95:LR_Tom Hit X.wav
256,192,167315,1,0,0:0:0:55:LR_Drum Hit Clap Sn.wav
109,192,167449,1,0,0:0:0:95:LR_Tom Hit X.wav
329,192,167583,1,0,0:0:0:97:LR_Tom Hit Y.wav
402,192,167583,1,0,0:0:0:55:LR_Drum Hit Clap Sn.wav
182,192,167716,1,0,0:0:0:97:LR_Tom Hit Y.wav
475,192,167850,5,4,0:0:0:0:
402,192,167850,1,0,0:0:0:0:
36,192,167850,1,0,0:0:0:0:
109,192,168654,1,0,0:0:0:90:D7S.wav
256,192,168922,1,0,0:0:0:90:A6S.wav
402,192,169190,1,0,0:0:0:70:A#6S_Bb6S.wav
36,192,169458,1,0,0:0:0:80:A#4S_Bb4S.wav
402,192,169458,1,0,0:0:0:90:A#6S_Bb6S.wav
256,192,170261,1,0,0:0:0:85:F6S.wav
475,192,170797,1,0,0:0:0:85:D7S.wav
109,192,171065,1,0,0:0:0:40:C5S.wav
329,192,171065,1,0,0:0:0:85:C7S.wav
109,192,171466,1,0,0:0:0:22:F4S.wav
182,192,171868,1,0,0:0:0:32:C5S.wav
475,192,171868,1,0,0:0:0:80:F7S.wav
256,192,172404,1,0,0:0:0:80:A6S.wav
182,192,172672,1,0,0:0:0:60:D5S.wav
402,192,172672,1,0,0:0:0:80:A#6S_Bb6S.wav
182,192,173074,1,0,0:0:0:25:D5S.wav
109,192,173475,1,0,0:0:0:60:C5S.wav
329,192,173475,1,0,0:0:0:80:D7S.wav
402,192,173743,1,0,0:0:0:80:D#7S_Eb7S.wav
109,192,173877,1,0,0:0:0:25:C5S.wav
475,192,174011,1,0,0:0:0:70:F7S.wav
36,192,174279,1,0,0:0:0:33:A#4S_Bb4S.wav
329,192,174279,1,0,0:0:0:85:F7S.wav
475,192,175083,1,0,0:0:0:85:F7S.wav
329,192,175350,1,0,0:0:0:75:A6S.wav
182,192,175618,1,0,0:0:0:75:A#6S_Bb6S.wav
109,192,175886,1,0,0:0:0:33:A#4S_Bb4S.wav
475,192,175886,1,0,0:0:0:85:F7S.wav
109,192,176288,1,0,0:0:0:28:A#4S_Bb4S.wav
109,192,176690,1,0,0:0:0:23:A#4S_Bb4S.wav
329,192,176690,1,0,0:0:0:90:A#6S_Bb6S.wav
475,192,177225,1,0,0:0:0:90:D7S.wav
36,192,177493,1,0,0:0:0:40:C5S.wav
256,192,177493,1,0,0:0:0:90:C7S.wav
36,192,177895,1,0,0:0:0:28:F4S.wav
109,192,178297,1,0,0:0:0:20:C5S.wav
402,192,178297,1,0,0:0:0:90:F7S.wav
256,192,178833,1,0,0:0:0:85:A6S.wav
182,192,179100,1,0,0:0:0:17:D5S.wav
36,192,179100,1,0,0:0:0:27:C5S.wav
402,192,179100,1,0,0:0:0:90:A#6S_Bb6S.wav
475,192,179904,1,0,0:0:0:95:A#7S_Bb7S.wav
329,192,180172,1,0,0:0:0:75:A#6S_Bb6S.wav
475,192,180306,1,0,0:0:0:95:A#7S_Bb7S.wav
402,192,180708,5,4,0:0:0:0:
182,192,180708,1,0,0:0:0:95:LR_Drum Hit Clap Sn.wav
329,192,180708,1,0,0:0:0:0:
109,192,181109,1,2,0:0:0:0:
256,192,181109,1,0,0:0:0:80:LR_Drum Hit Drop High.wav
329,192,181243,1,0,0:0:0:0:
402,192,181377,1,0,0:0:0:0:
36,192,181511,1,0,0:0:0:95:LR_Drum Hit Clap Sn.wav
182,192,181511,1,8,0:0:0:0:
256,192,181645,1,0,0:0:0:0:
475,192,181779,1,2,0:0:0:0:
329,192,181779,1,0,0:0:0:80:LR_Drum Hit Drop High.wav
256,192,181913,1,0,0:0:0:0:
36,192,182047,1,2,0:0:0:0:
182,192,182047,1,0,0:0:0:80:LR_Drum Hit Drop High.wav
256,192,182181,1,0,0:0:0:0:
329,192,182315,1,8,0:0:0:0:
475,192,182315,1,0,0:0:0:95:LR_Drum Hit Clap Sn.wav
256,192,182449,1,0,0:0:0:0:
182,192,182583,1,0,0:0:0:0:
109,192,182716,1,2,0:0:0:0:
402,192,182716,1,0,0:0:0:80:LR_Drum Hit Drop High.wav
329,192,182850,1,0,0:0:0:0:
256,192,182984,1,0,0:0:0:0:
182,192,183118,1,8,0:0:0:0:
36,192,183118,1,0,0:0:0:95:LR_Drum Hit Clap Sn.wav
182,192,183252,1,0,0:0:0:95:LR_Drum Hit Clap Sn.wav
36,192,183252,1,0,0:0:0:0:
256,192,183386,1,0,0:0:0:100:LR_Tom Hit X.wav
402,192,183520,1,0,0:0:0:65:LR_Tom Hit X.wav
109,192,183520,1,0,0:0:0:40:LR5_Tom Drop Sn.wav
329,192,183654,1,0,0:0:0:100:LR_Tom Hit Y.wav
475,192,183788,1,0,0:0:0:100:LR_Tom Hit Z.wav
182,192,183788,1,4,0:0:1:65:
402,192,183922,1,4,0:0:0:0:
36,192,183922,1,0,0:0:0:95:LR_Drum Hit Clap Sn.wav
329,192,184056,1,0,0:0:0:0:
182,192,184190,1,0,0:0:0:0:
109,192,184324,1,2,0:0:0:0:
475,192,184324,1,0,0:0:0:80:LR_Drum Hit Drop High.wav
182,192,184458,1,0,0:0:0:0:
329,192,184591,1,0,0:0:0:0:
402,192,184725,1,0,0:0:0:95:LR_Drum Hit Clap Sn.wav
36,192,184725,1,8,0:0:0:0:
256,192,184859,1,0,0:0:0:0:
475,192,184993,1,2,0:0:0:0:
109,192,184993,1,0,0:0:0:80:LR_Drum Hit Drop High.wav
256,192,185127,1,0,0:0:0:0:
36,192,185261,1,0,0:0:0:95:LR_Drum Hit Clap Sn.wav
402,192,185261,1,8,0:0:0:0:
256,192,185395,1,0,0:0:0:0:
475,192,185529,1,8,0:0:0:0:
109,192,185529,1,0,0:0:0:80:LR_Drum Hit Drop High.wav
329,192,185663,1,0,0:0:0:0:
402,192,185797,1,0,0:0:0:0:
475,192,185931,1,2,0:0:0:0:
109,192,185931,1,0,0:0:0:95:LR_Drum Hit Clap Sn.wav
182,192,186065,1,0,0:0:0:0:
256,192,186199,1,0,0:0:0:40:LR_Drum Hit Drop High.wav
402,192,186333,1,0,0:0:0:0:
109,192,186333,1,0,0:0:0:95:LR_Drum Hit Clap Sn.wav
329,192,186466,1,0,0:0:0:80:LR5_Tom Drop Sn.wav
36,192,186600,1,0,0:0:0:100:LR_Tom Hit Y.wav
475,192,186600,1,0,0:0:0:40:LR_Drum Hit Drop High.wav
182,192,186734,1,0,0:0:0:100:LR_Tom Hit Z.wav
109,192,186868,1,2,0:0:0:0:
402,192,186868,1,0,0:0:0:80:LR_Drum Hit Drop High.wav
256,192,187002,1,0,0:0:0:100:LR_Tom Hit Z.wav
329,192,187136,5,4,0:0:0:0:
182,192,187136,1,0,0:0:0:95:LR_Drum Hit Clap Sn.wav
109,192,187270,1,0,0:0:0:0:
36,192,187404,1,0,0:0:0:0:
329,192,187538,1,2,0:0:0:0:
182,192,187538,1,0,0:0:0:80:LR_Drum Hit Drop High.wav
402,192,187672,1,0,0:0:0:0:
475,192,187806,1,0,0:0:0:0:
109,192,187940,1,0,0:0:0:95:LR_Drum Hit Clap Sn.wav
182,192,187940,1,8,0:0:0:0:
36,192,188074,1,0,0:0:0:0:
329,192,188208,1,2,0:0:0:0:
402,192,188208,1,0,0:0:0:80:LR_Drum Hit Drop High.wav
475,192,188341,1,0,0:0:0:0:
182,192,188475,1,2,0:0:0:0:
109,192,188475,1,0,0:0:0:80:LR_Drum Hit Drop High.wav
36,192,188609,1,0,0:0:0:0:
329,192,188743,1,8,0:0:0:0:
402,192,188743,1,0,0:0:0:95:LR_Drum Hit Clap Sn.wav
256,192,188877,1,0,0:0:0:0:
182,192,189011,1,0,0:0:0:0:
109,192,189145,1,2,0:0:0:0:
402,192,189145,1,0,0:0:0:80:LR_Drum Hit Drop High.wav
329,192,189279,1,0,0:0:0:0:
256,192,189413,1,0,0:0:0:0:
182,192,189547,1,8,0:0:0:0:
109,192,189547,1,0,0:0:0:95:LR_Drum Hit Clap Sn.wav
109,192,189681,1,0,0:0:0:95:LR_Drum Hit Clap Sn.wav
182,192,189681,1,0,0:0:0:0:
475,192,189815,1,0,0:0:0:100:LR_Tom Hit X.wav
182,192,189949,1,0,0:0:0:65:LR_Tom Hit X.wav
109,192,189949,1,0,0:0:0:40:LR5_Tom Drop Sn.wav
402,192,190083,1,0,0:0:0:100:LR_Tom Hit Y.wav
109,192,190216,1,0,0:0:0:100:LR_Tom Hit Z.wav
182,192,190216,1,4,0:0:1:65:
36,192,190350,1,4,0:0:0:0:
329,192,190350,1,0,0:0:0:95:LR_Drum Hit Clap Sn.wav
256,192,190484,1,0,0:0:0:0:
182,192,190618,1,0,0:0:0:0:
402,192,190752,1,2,0:0:0:0:
109,192,190752,1,0,0:0:0:80:LR_Drum Hit Drop High.wav
329,192,190886,1,0,0:0:0:0:
256,192,191020,1,0,0:0:0:0:
182,192,191154,1,0,0:0:0:95:LR_Drum Hit Clap Sn.wav
36,192,191154,1,8,0:0:0:0:
109,192,191288,1,0,0:0:0:0:
329,192,191422,1,2,0:0:0:0:
475,192,191422,1,0,0:0:0:80:LR_Drum Hit Drop High.wav
402,192,191556,1,0,0:0:0:0:
36,192,191690,1,0,0:0:0:95:LR_Drum Hit Clap Sn.wav
182,192,191690,1,8,0:0:0:0:
109,192,191824,1,0,0:0:0:0:
329,192,191958,1,8,0:0:0:0:
475,192,191958,1,0,0:0:0:80:LR_Drum Hit Drop High.wav
402,192,192091,1,0,0:0:0:0:
256,192,192225,1,0,0:0:0:0:
109,192,192359,1,2,0:0:0:0:
182,192,192359,1,0,0:0:0:95:LR_Drum Hit Clap Sn.wav
475,192,192493,5,0,0:0:0:0:
329,192,192627,1,0,0:0:0:0:
182,192,192761,1,0,0:0:0:95:LR_Drum Hit Clap Sn.wav
36,192,192761,1,0,0:0:0:0:
182,192,192895,1,0,0:0:0:0:
36,192,192895,1,0,0:0:0:80:LR5_Tom Drop Sn.wav
329,192,193029,1,0,0:0:0:40:LR_Drum Hit Drop High.wav
475,192,193029,1,0,0:0:0:100:LR_Tom Hit Y.wav
182,192,193163,1,0,0:0:0:0:
36,192,193163,1,0,0:0:0:100:LR_Tom Hit Z.wav
402,192,193297,1,0,0:0:0:80:LR_Drum Hit Drop High.wav
109,192,193431,1,0,0:0:0:0:
256,192,193431,1,0,0:0:0:100:LR_Tom Hit Z.wav
475,192,193565,5,4,0:0:0:0:
329,192,193565,1,0,0:0:0:95:LR_Drum Hit Clap Sn.wav
36,192,193565,1,0,0:0:0:0:
182,192,193833,1,0,0:0:0:0:
402,192,193966,1,0,0:0:0:40:LR4_KickTBCRs.wav
182,192,194100,1,0,0:0:0:0:
402,192,194234,1,0,0:0:0:53:LR4_KickTBCRs.wav
475,192,194368,1,0,0:0:0:87:LR_Drum Rpd x2.wav
36,192,194368,1,0,0:0:0:62:LR_Drum Hit Clap Sn.wav
182,192,194502,1,0,0:0:0:0:
402,192,194636,1,0,0:0:0:0:
182,192,194770,1,0,0:0:0:0:
402,192,194904,1,0,0:0:0:0:
182,192,195038,1,0,0:0:0:0:
329,192,195172,1,0,0:0:0:53:LR4_KickTBCRs.wav
109,192,195306,1,0,0:0:0:0:
329,192,195440,1,0,0:0:0:0:
109,192,195574,1,0,0:0:0:53:LR4_KickTBCRs.wav
329,192,195708,1,0,0:0:0:0:
109,192,195841,1,0,0:0:0:40:LR4_KickTBCRs.wav
36,192,195975,1,0,0:0:0:62:LR_Drum Hit Clap Sn.wav
475,192,195975,1,0,0:0:0:87:LR_Drum Rpd x2.wav
329,192,196109,1,0,0:0:0:0:
109,192,196243,1,0,0:0:0:40:LR4_KickTBCRs.wav
329,192,196377,1,0,0:0:0:0:
109,192,196511,1,0,0:0:0:53:LR4_KickTBCRs.wav
329,192,196645,1,0,0:0:0:0:
475,192,196779,1,0,0:0:0:0:
182,192,196779,1,0,0:0:0:53:LR4_KickTBCRs.wav
36,192,196913,1,0,0:0:0:0:
182,192,197047,1,0,0:0:0:0:
36,192,197181,1,0,0:0:0:40:LR4_KickTBCRs.wav
182,192,197315,1,0,0:0:0:0:
36,192,197449,1,0,0:0:0:53:LR4_KickTBCRs.wav
256,192,197583,1,0,0:0:0:62:LR_Drum Hit Clap Sn.wav
475,192,197583,1,0,0:0:0:87:LR_Drum Rpd x2.wav
109,192,197716,1,0,0:0:0:0:
256,192,197850,1,0,0:0:0:40:LR4_KickTBCRs.wav
109,192,197984,1,0,0:0:0:0:
256,192,198118,1,0,0:0:0:40:LR4_KickTBCRs.wav
109,192,198252,1,0,0:0:0:0:
36,192,198386,1,0,0:0:0:0:
329,192,198386,1,0,0:0:0:53:LR4_KickTBCRs.wav
182,192,198520,1,0,0:0:0:0:
329,192,198654,1,0,0:0:0:0:
182,192,198788,1,0,0:0:0:40:LR4_KickTBCRs.wav
329,192,198922,1,0,0:0:0:0:
182,192,199056,1,0,0:0:0:53:LR4_KickTBCRs.wav
402,192,199190,1,0,0:0:0:87:LR_Drum Rpd x2.wav
109,192,199190,1,0,0:0:0:62:LR_Drum Hit Clap Sn.wav
256,192,199324,1,0,0:0:0:0:
329,192,199458,1,0,0:0:0:40:LR4_KickTBCRs.wav
256,192,199591,1,0,0:0:0:0:
475,192,199725,1,0,0:0:0:87:LR_Drum Rpd x2.wav
329,192,199725,1,0,0:0:0:62:LR_Drum Hit Clap Sn.wav
329,192,199859,1,0,0:0:0:62:LR_Drum Hit Clap Sn.wav
475,192,199859,1,0,0:0:0:87:LR_Drum Rpd x2.wav
182,192,199993,1,0,0:0:0:0:
36,192,199993,1,4,0:0:0:0:
109,192,199993,1,0,0:0:0:0:
329,192,200261,1,0,0:0:0:0:
402,192,200395,1,0,0:0:0:40:LR4_KickTBCRs.wav
329,192,200529,1,0,0:0:0:0:
402,192,200663,1,0,0:0:0:53:LR4_KickTBCRs.wav
109,192,200797,1,0,0:0:0:87:LR_Drum Rpd x2.wav
182,192,200797,1,0,0:0:0:62:LR_Drum Hit Clap Sn.wav
329,192,200931,1,0,0:0:0:0:
402,192,201065,1,0,0:0:0:0:
329,192,201199,1,0,0:0:0:0:
402,192,201333,1,0,0:0:0:0:
329,192,201466,1,0,0:0:0:0:
475,192,201600,1,0,0:0:0:0:
36,192,201600,1,0,0:0:0:53:LR4_KickTBCRs.wav
109,192,201734,1,0,0:0:0:0:
182,192,201868,1,0,0:0:0:0:
109,192,202002,1,0,0:0:0:53:LR4_KickTBCRs.wav
182,192,202136,1,0,0:0:0:0:
109,192,202270,1,0,0:0:0:40:LR4_KickTBCRs.wav
402,192,202404,1,0,0:0:0:87:LR_Drum Rpd x2.wav
329,192,202404,1,0,0:0:0:62:LR_Drum Hit Clap Sn.wav
182,192,202538,1,0,0:0:0:0:
109,192,202672,1,0,0:0:0:40:LR4_KickTBCRs.wav
182,192,202806,1,0,0:0:0:0:
109,192,202940,1,0,0:0:0:53:LR4_KickTBCRs.wav
182,192,203074,1,0,0:0:0:0:
329,192,203208,1,0,0:0:0:53:LR4_KickTBCRs.wav
256,192,203341,1,0,0:0:0:0:
329,192,203475,1,0,0:0:0:0:
256,192,203609,1,0,0:0:0:40:LR4_KickTBCRs.wav
329,192,203743,1,0,0:0:0:0:
256,192,203877,1,0,0:0:0:53:LR4_KickTBCRs.wav
36,192,204011,1,0,0:0:0:87:LR_Drum Rpd x2.wav
109,192,204011,1,0,0:0:0:62:LR_Drum Hit Clap Sn.wav
329,192,204145,1,0,0:0:0:0:
402,192,204279,1,0,0:0:0:40:LR4_KickTBCRs.wav
329,192,204413,1,0,0:0:0:0:
402,192,204547,1,0,0:0:0:40:LR4_KickTBCRs.wav
329,192,204681,1,0,0:0:0:0:
36,192,204815,1,0,0:0:0:0:
182,192,204815,1,0,0:0:0:53:LR4_KickTBCRs.wav
256,192,204949,1,0,0:0:0:0:
329,192,205083,1,0,0:0:0:85:LR_Drum Rpd x2.wav
182,192,205216,5,0,0:0:0:55:LR_Drum Hit Clap Sn.wav
402,192,205216,1,0,0:0:0:90:LR_Tom Hit Z.wav
256,192,205350,5,0,0:0:0:70:LR5_Tom Normal Sn.wav
329,192,205484,1,0,0:0:0:80:LR5_Tom Drop Sn.wav
109,192,205618,1,0,0:0:0:62:LR_Drum Hit Clap Sn.wav
475,192,205618,1,0,0:0:0:62:LR_Drum Hit Drop High.wav
256,192,205752,5,0,0:0:0:70:LR5_Tom Normal Sn.wav
402,192,205886,1,0,0:0:0:95:LR_Tom Hit X.wav
36,192,205886,1,0,0:0:0:55:LR_Drum Hit Clap Sn.wav
182,192,206020,1,0,0:0:0:95:LR_Tom Hit X.wav
109,192,206020,1,0,0:0:0:65:LR_Drum Rpd x2.wav
402,192,206154,1,0,0:0:0:55:LR_Drum Hit Clap Sn.wav
329,192,206154,1,0,0:0:0:97:LR_Tom Hit Y.wav
182,192,206288,1,0,0:0:0:97:LR_Tom Hit Y.wav
109,192,206288,1,0,0:0:0:65:LR_Drum Rpd x2.wav
36,192,206422,5,0,0:0:0:69:D#4S_Eb4S.wav
475,192,206422,1,0,0:0:0:64:A#6S_Bb6S.wav
256,192,206422,1,0,0:0:0:0:
182,192,206690,1,0,0:0:0:64:F6S.wav
475,192,206824,1,0,0:0:0:64:A#6S_Bb6S.wav
182,192,207091,1,0,0:0:0:64:F6S.wav
402,192,207225,1,0,0:0:0:64:A6S.wav
182,192,207493,1,0,0:0:0:64:F6S.wav
402,192,207761,1,0,0:0:0:64:A6S.wav
256,192,207940,1,0,0:0:0:0:
329,192,207984,1,0,0:0:0:0:
36,192,208029,1,0,0:0:0:69:F4S.wav
402,192,208029,1,0,0:0:0:64:F6S.wav
109,192,208297,1,0,0:0:0:64:A#5S_Bb5S.wav
402,192,208431,1,0,0:0:0:64:F6S.wav
109,192,208699,1,0,0:0:0:64:A#5S_Bb5S.wav
329,192,208833,1,0,0:0:0:64:D6S.wav
109,192,209100,1,0,0:0:0:64:A#5S_Bb5S.wav
329,192,209368,1,0,0:0:0:64:D6S.wav
36,192,209547,1,0,0:0:0:0:
109,192,209591,1,0,0:0:0:0:
182,192,209636,1,0,0:0:0:52:F4S.wav
475,192,209636,1,0,0:0:0:64:C6S.wav
256,192,209636,1,0,0:0:0:52:C5S.wav
36,192,209904,1,0,0:0:0:40:F5S.wav
475,192,210038,1,0,0:0:0:64:C6S.wav
36,192,210306,1,0,0:0:0:40:F5S.wav
475,192,210440,1,0,0:0:0:64:C6S.wav
329,192,210708,1,0,0:0:0:64:D6S.wav
475,192,210975,1,0,0:0:0:64:D#6S_Eb6S.wav
36,192,211243,1,0,0:0:0:69:G4S.wav
329,192,211243,1,0,0:0:0:64:D6S.wav
182,192,211511,1,0,0:0:0:40:F5S.wav
109,192,211578,1,0,0:0:0:0:
329,192,211645,1,0,0:0:0:64:D6S.wav
36,192,211645,1,0,0:0:0:0:
182,192,211913,1,0,0:0:0:40:F5S.wav
402,192,212047,1,0,0:0:0:64:C6S.wav
109,192,212047,1,0,0:0:0:69:F4S.wav
329,192,212315,1,0,0:0:0:64:A#5S_Bb5S.wav
256,192,212583,1,0,0:0:0:64:A5S.wav
329,192,212761,1,0,0:0:0:0:
402,192,212806,1,0,0:0:0:0:
182,192,212850,5,0,0:0:0:69:D#4S_Eb4S.wav
475,192,212850,1,0,0:0:0:64:A#6S_Bb6S.wav
36,192,213118,1,0,0:0:0:64:F6S.wav
475,192,213252,1,0,0:0:0:64:A#6S_Bb6S.wav
36,192,213520,1,0,0:0:0:64:F6S.wav
256,192,213654,1,0,0:0:0:64:A6S.wav
36,192,213922,1,0,0:0:0:64:F6S.wav
329,192,214190,1,0,0:0:0:64:A6S.wav
402,192,214324,1,0,0:0:0:0:
475,192,214357,1,0,0:0:0:0:
36,192,214458,1,0,0:0:0:69:F4S.wav
256,192,214458,1,0,0:0:0:64:F6S.wav
109,192,214725,1,0,0:0:0:64:A#5S_Bb5S.wav
329,192,214859,1,0,0:0:0:64:F6S.wav
109,192,215127,1,0,0:0:0:64:A#5S_Bb5S.wav
256,192,215261,1,0,0:0:0:64:D6S.wav
109,192,215529,1,0,0:0:0:64:A#5S_Bb5S.wav
256,192,215797,1,0,0:0:0:64:D6S.wav
36,192,215975,1,0,0:0:0:0:
109,192,216020,1,0,0:0:0:0:
475,192,216065,1,0,0:0:0:64:C6S.wav
329,192,216065,1,0,0:0:0:52:C5S.wav
182,192,216065,1,0,0:0:0:52:F4S.wav
109,192,216333,1,0,0:0:0:40:F5S.wav
329,192,216466,1,0,0:0:0:64:C6S.wav
109,192,216734,1,0,0:0:0:40:F5S.wav
402,192,216868,1,0,0:0:0:64:A#5S_Bb5S.wav
109,192,217136,1,0,0:0:0:40:F5S.wav
256,192,217404,1,0,0:0:0:64:C6S.wav
182,192,217638,1,0,0:0:0:48:G4S.wav
329,192,217638,1,0,0:0:0:72:G5S.wav
36,192,217672,128,0,220618:0:0:0:48:A#4S_Bb4S.wav
475,192,217672,128,0,220618:0:0:0:72:A#5S_Bb5S.wav
