osu file format v14

[General]
AudioFilename: -Primary-yuiko-in the Garden-------.mp3
AudioLeadIn: 0
PreviewTime: 128475
Countdown: 0
SampleSet: Soft
StackLeniency: 0.7
Mode: 3
LetterboxInBreaks: 0
SpecialStyle: 0
WidescreenStoryboard: 0

[Editor]
DistanceSpacing: 1.1
BeatDivisor: 4
GridSize: 4
TimelineZoom: 0.9999999

[Metadata]
Title:in the Garden
TitleUnicode:in the Garden
Artist:Primary
ArtistUnicode:Primary
Creator:Mat
Version:4K Insane
Source:
Tags:From GardeN yuiko yuikonnu meis clauson laughingcomet Julie LordRaika Hydria
BeatmapID:793515
BeatmapSetID:361117

[Difficulty]
HPDrainRate:8.3
CircleSize:4
OverallDifficulty:8.2
ApproachRate:5
SliderMultiplier:1.4
SliderTickRate:1

[Events]
//Background and Video events
0,0,"animegarden.png",0,0
//Break Periods
//Storyboard Layer 0 (Background)
//Storyboard Layer 1 (Fail)
//Storyboard Layer 2 (Pass)
//Storyboard Layer 3 (Foreground)
//Storyboard Sound Samples
Sample,3922,0,"C7S.wav",100
Sample,10350,0,"C7S.wav",100
Sample,11958,0,"A#6S_Bb6S.wav",100
Sample,157270,0,"LR4_KickTBCRs.wav",20
Sample,158877,0,"LR4_KickTBCRs.wav",20
Sample,160484,0,"LR4_KickTBCRs.wav",20
Sample,161288,0,"LR_Drum Rpd x2.wav",87
Sample,162091,0,"LR4_KickTBCRs.wav",20
Sample,163699,0,"LR4_KickTBCRs.wav",20
Sample,165306,0,"LR4_KickTBCRs.wav",20
Sample,206422,0,"A#6S_Bb6S.wav",64
Sample,208029,0,"F6S.wav",64
Sample,209636,0,"C6S.wav",64
Sample,209636,0,"F4S.wav",52
Sample,212850,0,"A#6S_Bb6S.wav",64
Sample,216065,0,"C5S.wav",52
Sample,216065,0,"F4S.wav",52

[TimingPoints]
708,267.857142857143,6,2,81,22,1,0
13565,-100,6,3,81,44,0,1
26422,-100,6,1,81,35,0,0
52136,-100,6,3,81,40,0,0
58565,-100,6,3,81,51,0,1
84279,-100,6,3,81,44,0,0
97136,-100,6,1,81,35,0,0
122850,-100,6,3,81,40,0,0
129279,-100,6,3,81,51,0,1
154993,-100,6,3,81,40,0,0
167850,-100,6,2,81,22,0,0
180708,-100,6,3,81,51,0,1
193565,-100,6,3,81,44,0,0
206422,-100,6,2,81,22,0,0

[HitObjects]
64,192,708,5,0,0:0:0:90:D#5S_Eb5S.wav
448,192,708,128,0,2315:0:0:0:100:A#7S_Bb7S.wav
192,192,975,1,0,0:0:0:100:F7S.wav
320,192,1109,1,0,0:0:0:100:A#7S_Bb7S.wav
64,192,1377,1,0,0:0:0:100:F7S.wav
320,192,1511,1,0,0:0:0:100:A7S.wav
64,192,1779,1,0,0:0:0:100:F7S.wav
320,192,2047,1,0,0:0:0:100:A7S.wav
192,192,2315,1,0,0:0:0:90:F5S.wav
64,192,2315,128,0,3922:0:0:0:100:F7S.wav
192,192,2583,1,0,0:0:0:100:A#6S_Bb6S.wav
448,192,2716,1,0,0:0:0:100:F7S.wav
192,192,2984,1,0,0:0:0:100:A#6S_Bb6S.wav
320,192,3118,1,0,0:0:0:100:D7S.wav
192,192,3386,1,0,0:0:0:100:A#6S_Bb6S.wav
448,192,3654,1,0,0:0:0:100:D7S.wav
320,192,3922,128,0,5529:0:0:0:56:C6S.wav
192,192,3922,1,0,0:0:0:56:F5S.wav
64,192,4190,1,0,0:0:0:100:F6S.wav
192,192,4324,1,0,0:0:0:100:C7S.wav
64,192,4591,1,0,0:0:0:100:F6S.wav
192,192,4725,1,0,0:0:0:100:C7S.wav
448,192,4993,1,0,0:0:0:100:D7S.wav
192,192,5261,1,0,0:0:0:100:D#7S_Eb7S.wav
448,192,5529,128,0,6333:0:0:0:90:G5S.wav
64,192,5529,1,0,0:0:0:100:D7S.wav
192,192,5797,1,0,0:0:0:100:F6S.wav
320,192,5931,1,0,0:0:0:100:D7S.wav
64,192,6199,1,0,0:0:0:100:F6S.wav
192,192,6333,128,0,7136:0:0:0:90:F5S.wav
320,192,6333,1,0,0:0:0:100:C7S.wav
448,192,6600,1,0,0:0:0:100:A#6S_Bb6S.wav
320,192,6868,1,0,0:0:0:100:A6S.wav
64,192,7136,1,0,0:0:0:90:D#5S_Eb5S.wav
448,192,7136,128,0,8743:0:0:0:100:A#7S_Bb7S.wav
64,192,7404,1,0,0:0:0:100:F7S.wav
320,192,7538,1,0,0:0:0:100:A#7S_Bb7S.wav
64,192,7806,1,0,0:0:0:100:F7S.wav
192,192,7940,1,0,0:0:0:100:A7S.wav
64,192,8208,1,0,0:0:0:100:F7S.wav
192,192,8475,1,0,0:0:0:100:A7S.wav
320,192,8743,1,0,0:0:0:90:F5S.wav
64,192,8743,128,0,10350:0:0:0:100:F7S.wav
192,192,9011,1,0,0:0:0:100:A#6S_Bb6S.wav
448,192,9145,1,0,0:0:0:100:F7S.wav
192,192,9413,1,0,0:0:0:100:A#6S_Bb6S.wav
320,192,9547,1,0,0:0:0:100:D7S.wav
192,192,9815,1,0,0:0:0:100:A#6S_Bb6S.wav
320,192,10083,1,0,0:0:0:100:D7S.wav
320,192,10350,128,0,11690:0:0:0:56:F5S.wav
448,192,10350,1,0,0:0:0:56:C6S.wav
64,192,10618,1,0,0:0:0:100:F6S.wav
448,192,10752,1,0,0:0:0:100:C7S.wav
64,192,11020,1,0,0:0:0:100:F6S.wav
192,192,11154,1,0,0:0:0:100:A#6S_Bb6S.wav
64,192,11422,1,0,0:0:0:100:F6S.wav
448,192,11690,1,0,0:0:0:100:C7S.wav
64,192,11891,128,0,12895:0:0:0:70:F5S.wav
192,192,11924,128,0,13297:0:0:0:70:G5S.wav
448,192,11958,128,0,13297:0:0:0:72:A#5S_Bb5S.wav
64,192,13565,1,4,0:0:0:44:
192,192,13565,1,0,0:0:0:95:LR_Drum Hit Clap Sn.wav
448,192,13565,1,0,0:0:0:0:
320,192,13699,1,0,0:0:0:0:
192,192,13833,1,0,0:0:0:0:
448,192,13966,1,2,0:0:0:44:
64,192,13966,1,0,0:0:0:80:LR_Drum Hit Drop High.wav
192,192,14100,1,0,0:0:0:0:
320,192,14234,1,0,0:0:0:0:
448,192,14368,1,8,0:0:0:44:
192,192,14368,1,0,0:0:0:95:LR_Drum Hit Clap Sn.wav
64,192,14502,1,0,0:0:0:0:
320,192,14636,1,2,0:0:0:44:
448,192,14636,1,0,0:0:0:80:LR_Drum Hit Drop High.wav
192,192,14770,1,0,0:0:0:0:
64,192,14904,1,2,0:0:0:44:
320,192,14904,1,0,0:0:0:80:LR_Drum Hit Drop High.wav
448,192,15038,1,0,0:0:0:0:
320,192,15172,1,8,0:0:0:44:
192,192,15172,1,0,0:0:0:95:LR_Drum Hit Clap Sn.wav
64,192,15306,1,0,0:0:0:0:
192,192,15440,1,0,0:0:0:0:
448,192,15574,1,2,0:0:0:44:
320,192,15574,1,0,0:0:0:80:LR_Drum Hit Drop High.wav
64,192,15708,1,0,0:0:0:0:
448,192,15841,1,0,0:0:0:0:
64,192,15975,1,8,0:0:0:44:
192,192,15975,1,0,0:0:0:95:LR_Drum Hit Clap Sn.wav
192,192,16109,1,0,0:0:0:95:LR_Drum Hit Clap Sn.wav
64,192,16109,1,0,0:0:0:0:
320,192,16243,1,0,0:0:0:100:LR_Tom Hit X.wav
448,192,16243,1,0,0:0:0:0:
448,192,16377,1,0,0:0:0:65:LR_Tom Hit X.wav
320,192,16377,1,0,0:0:0:40:LR5_Tom Drop Sn.wav
64,192,16511,1,0,0:0:0:100:LR_Tom Hit Y.wav
192,192,16511,1,0,0:0:0:0:
448,192,16645,1,0,0:0:0:100:LR_Tom Hit Z.wav
320,192,16645,1,0,0:0:0:0:
64,192,16779,1,4,0:0:0:40:
192,192,16779,1,0,0:0:0:95:LR_Drum Hit Clap Sn.wav
320,192,16913,1,0,0:0:0:0:
448,192,17047,1,0,0:0:0:0:
192,192,17181,1,2,0:0:0:44:
320,192,17181,1,0,0:0:0:80:LR_Drum Hit Drop High.wav
64,192,17315,1,0,0:0:0:0:
192,192,17449,1,0,0:0:0:0:
320,192,17583,1,8,0:0:0:44:
448,192,17583,1,0,0:0:0:95:LR_Drum Hit Clap Sn.wav
64,192,17716,1,0,0:0:0:0:
192,192,17850,1,2,0:0:0:44:
448,192,17850,1,0,0:0:0:80:LR_Drum Hit Drop High.wav
320,192,17984,1,0,0:0:0:0:
192,192,18118,1,8,0:0:0:44:
64,192,18118,1,0,0:0:0:95:LR_Drum Hit Clap Sn.wav
320,192,18252,1,0,0:0:0:0:
448,192,18386,1,8,0:0:0:44:
64,192,18386,1,0,0:0:0:80:LR_Drum Hit Drop High.wav
192,192,18520,1,0,0:0:0:0:
320,192,18654,1,0,0:0:0:0:
448,192,18788,1,2,0:0:0:44:
64,192,18788,1,0,0:0:0:95:LR_Drum Hit Clap Sn.wav
320,192,18922,1,0,0:0:0:0:
192,192,19056,1,0,0:0:0:40:LR_Drum Hit Drop High.wav
320,192,19190,1,0,0:0:0:95:LR_Drum Hit Clap Sn.wav
448,192,19190,1,0,0:0:0:0:
448,192,19324,1,0,0:0:0:80:LR5_Tom Drop Sn.wav
64,192,19458,1,0,0:0:0:100:LR_Tom Hit Y.wav
192,192,19458,1,0,0:0:0:40:LR_Drum Hit Drop High.wav
64,192,19591,1,0,0:0:0:100:LR_Tom Hit Z.wav
448,192,19725,1,2,0:0:0:44:
320,192,19725,1,0,0:0:0:80:LR_Drum Hit Drop High.wav
192,192,19859,1,0,0:0:0:0:
64,192,19859,1,0,0:0:0:0:
448,192,19993,1,4,0:0:0:44:
320,192,19993,1,0,0:0:0:95:LR_Drum Hit Clap Sn.wav
64,192,20127,1,0,0:0:0:0:
192,192,20261,1,0,0:0:0:0:
320,192,20395,1,2,0:0:0:44:
448,192,20395,1,0,0:0:0:80:LR_Drum Hit Drop High.wav
192,192,20529,1,0,0:0:0:0:
64,192,20663,1,0,0:0:0:0:
448,192,20797,1,8,0:0:0:44:
192,192,20797,1,0,0:0:0:95:LR_Drum Hit Clap Sn.wav
320,192,20931,1,0,0:0:0:0:
64,192,21065,1,2,0:0:0:44:
192,192,21065,1,0,0:0:0:80:LR_Drum Hit Drop High.wav
448,192,21199,1,0,0:0:0:0:
320,192,21333,1,2,0:0:0:44:
192,192,21333,1,0,0:0:0:80:LR_Drum Hit Drop High.wav
64,192,21466,1,0,0:0:0:0:
448,192,21600,1,8,0:0:0:44:
192,192,21600,1,0,0:0:0:95:LR_Drum Hit Clap Sn.wav
320,192,21734,1,0,0:0:0:0:
192,192,21868,1,0,0:0:0:0:
448,192,22002,1,2,0:0:0:44:
64,192,22002,1,0,0:0:0:80:LR_Drum Hit Drop High.wav
192,192,22136,1,0,0:0:0:0:
320,192,22270,1,0,0:0:0:0:
64,192,22404,1,8,0:0:0:44:
192,192,22404,1,0,0:0:0:95:LR_Drum Hit Clap Sn.wav
192,192,22538,1,0,0:0:0:95:LR_Drum Hit Clap Sn.wav
64,192,22538,1,0,0:0:0:0:
320,192,22672,1,0,0:0:0:100:LR_Tom Hit X.wav
448,192,22672,1,0,0:0:0:0:
320,192,22806,1,0,0:0:0:65:LR_Tom Hit X.wav
192,192,22806,1,0,0:0:0:40:LR5_Tom Drop Sn.wav
192,192,22940,1,0,0:0:0:100:LR_Tom Hit Y.wav
64,192,22940,1,0,0:0:0:0:
448,192,23074,1,0,0:0:0:100:LR_Tom Hit Z.wav
320,192,23074,1,0,0:0:0:0:
192,192,23208,1,4,0:0:0:40:
64,192,23208,1,0,0:0:0:95:LR_Drum Hit Clap Sn.wav
448,192,23341,1,0,0:0:0:0:
320,192,23475,1,0,0:0:0:0:
192,192,23609,1,2,0:0:0:44:
64,192,23609,1,0,0:0:0:80:LR_Drum Hit Drop High.wav
320,192,23743,1,0,0:0:0:0:
448,192,23877,1,0,0:0:0:0:
320,192,24011,1,8,0:0:0:44:
64,192,24011,1,0,0:0:0:95:LR_Drum Hit Clap Sn.wav
192,192,24145,1,0,0:0:0:0:
448,192,24279,1,2,0:0:0:44:
320,192,24279,1,0,0:0:0:80:LR_Drum Hit Drop High.wav
192,192,24413,1,0,0:0:0:0:
448,192,24547,1,8,0:0:0:44:
64,192,24547,1,0,0:0:0:95:LR_Drum Hit Clap Sn.wav
320,192,24681,1,0,0:0:0:0:
448,192,24815,1,8,0:0:0:44:
64,192,24815,1,0,0:0:0:80:LR_Drum Hit Drop High.wav
192,192,24949,1,0,0:0:0:0:
64,192,25083,1,0,0:0:0:0:
192,192,25216,1,2,0:0:0:44:
448,192,25216,1,0,0:0:0:95:LR_Drum Hit Clap Sn.wav
320,192,25350,1,0,0:0:0:0:
64,192,25484,1,0,0:0:0:40:LR_Drum Hit Drop High.wav
448,192,25618,1,0,0:0:0:95:LR_Drum Hit Clap Sn.wav
192,192,25618,1,0,0:0:0:0:
448,192,25752,1,0,0:0:0:80:LR5_Tom Drop Sn.wav
320,192,25886,1,0,0:0:0:100:LR_Tom Hit Y.wav
64,192,25886,1,0,0:0:0:40:LR_Drum Hit Drop High.wav
64,192,26020,1,0,0:0:0:100:LR_Tom Hit Z.wav
320,192,26154,1,0,0:0:0:80:LR_Drum Hit Drop High.wav
448,192,26154,1,0,0:0:0:0:
64,192,26288,1,0,0:0:0:100:LR_Tom Hit Z.wav
192,192,26288,1,0,0:0:0:0:
448,192,26422,1,4,3:0:0:35:
320,192,26422,1,0,0:0:0:0:
448,192,26690,1,0,0:0:0:0:
320,192,26824,1,0,0:0:0:35:
192,192,26824,1,0,0:0:0:0:
64,192,27091,1,0,0:0:0:35:
192,192,27225,1,0,0:0:0:35:
448,192,27225,1,0,0:0:0:0:
320,192,27225,1,0,0:0:0:0:
448,192,27493,1,0,0:0:0:35:
192,192,27493,1,0,0:0:0:0:
64,192,27493,1,0,0:0:0:0:
64,192,27761,1,0,0:0:0:35:
320,192,27761,1,0,0:0:0:0:
192,192,28029,1,0,0:0:0:35:
320,192,28029,1,0,0:0:0:0:
448,192,28029,1,0,0:0:0:0:
64,192,28297,1,0,0:0:0:35:
192,192,28431,1,0,0:0:0:35:
448,192,28431,1,0,0:0:0:0:
448,192,28699,1,0,0:0:0:35:
320,192,28833,1,0,0:0:0:35:
64,192,28833,1,0,0:0:0:0:
192,192,28833,1,0,0:0:0:0:
320,192,29100,1,0,0:0:0:35:
448,192,29100,1,0,0:0:0:0:
192,192,29100,1,0,0:0:0:0:
320,192,29368,1,0,0:0:0:35:
192,192,29368,1,0,0:0:0:0:
192,192,29636,1,0,0:0:0:0:
448,192,29636,1,0,0:0:0:0:
64,192,29636,1,0,0:0:0:0:
320,192,29904,1,0,0:0:0:35:
448,192,30038,1,0,0:0:0:35:
64,192,30038,1,0,0:0:0:0:
192,192,30306,1,0,0:0:0:0:
64,192,30440,1,0,0:0:0:35:
448,192,30440,1,0,0:0:0:0:
320,192,30440,1,0,0:0:0:0:
320,192,30708,1,0,0:0:0:35:
192,192,30708,1,0,0:0:0:0:
64,192,30708,1,0,0:0:0:0:
448,192,30975,1,0,0:0:0:35:
320,192,31109,1,0,0:0:0:35:
192,192,31243,1,0,0:0:0:35:
448,192,31243,1,0,0:0:0:0:
64,192,31243,1,0,0:0:0:0:
192,192,31511,1,0,0:0:0:35:
448,192,31645,1,0,0:0:0:35:
320,192,31645,1,0,0:0:0:0:
64,192,31779,1,0,0:0:0:35:
320,192,31913,1,0,0:0:0:35:
64,192,32047,1,0,0:0:0:35:
192,192,32047,1,0,0:0:0:0:
448,192,32047,1,0,0:0:0:0:
448,192,32315,1,0,0:0:0:35:
320,192,32315,1,0,0:0:0:0:
64,192,32315,1,0,0:0:0:0:
192,192,32583,1,0,0:0:0:35:
320,192,32716,1,0,0:0:0:35:
192,192,32850,1,0,0:0:0:0:
448,192,32850,1,0,0:0:0:0:
64,192,32850,1,0,0:0:0:0:
448,192,33118,1,0,0:0:0:35:
320,192,33252,1,0,0:0:0:35:
192,192,33252,1,0,0:0:0:0:
64,192,33520,1,0,0:0:0:35:
192,192,33654,1,0,0:0:0:35:
320,192,33654,1,0,0:0:0:0:
448,192,33654,1,0,0:0:0:0:
448,192,33922,1,0,0:0:0:35:
320,192,33922,1,0,0:0:0:0:
64,192,34190,1,0,0:0:0:35:
192,192,34190,1,0,0:0:0:0:
320,192,34324,1,0,0:0:0:35:
448,192,34458,1,0,0:0:0:35:
192,192,34458,1,0,0:0:0:0:
64,192,34458,1,0,0:0:0:0:
320,192,34725,1,0,0:0:0:35:
448,192,34859,1,0,0:0:0:35:
64,192,34859,1,0,0:0:0:0:
192,192,34993,1,0,0:0:0:35:
64,192,35127,1,0,0:0:0:35:
320,192,35261,1,0,0:0:0:35:
192,192,35261,1,0,0:0:0:0:
448,192,35261,1,0,0:0:0:0:
320,192,35529,1,0,0:0:0:0:
192,192,35529,1,0,0:0:0:0:
64,192,35529,1,0,0:0:0:0:
448,192,35797,1,0,0:0:0:35:
320,192,35931,1,0,0:0:0:35:
64,192,36065,1,0,0:0:0:0:
192,192,36065,1,0,0:0:0:0:
448,192,36065,1,0,0:0:0:0:
64,192,36333,1,0,0:0:0:35:
192,192,36466,1,0,0:0:0:35:
448,192,36466,1,0,0:0:0:0:
320,192,36600,1,0,0:0:0:35:
192,192,36734,1,0,0:0:0:35:
64,192,36868,1,0,0:0:0:35:
448,192,36868,1,0,0:0:0:0:
320,192,36868,1,0,0:0:0:0:
64,192,37136,1,0,0:0:0:35:
192,192,37136,1,0,0:0:0:0:
320,192,37136,1,0,0:0:0:0:
448,192,37270,1,0,0:0:0:0:
64,192,37404,1,0,0:0:0:35:
320,192,37404,1,0,0:0:0:0:
192,192,37538,1,0,0:0:0:35:
64,192,37672,1,0,0:0:0:0:
320,192,37672,1,0,0:0:0:0:
448,192,37672,1,0,0:0:0:0:
192,192,37940,1,0,0:0:0:35:
320,192,38074,1,0,0:0:0:35:
448,192,38074,1,0,0:0:0:0:
64,192,38208,1,0,0:0:0:0:
192,192,38341,1,0,0:0:0:35:
64,192,38475,1,0,0:0:0:35:
320,192,38475,1,0,0:0:0:0:
448,192,38475,1,0,0:0:0:0:
448,192,38743,1,0,0:0:0:35:
192,192,38743,1,0,0:0:0:0:
64,192,38743,1,0,0:0:0:0:
320,192,39011,1,0,0:0:0:35:
192,192,39011,1,0,0:0:0:0:
64,192,39279,1,4,0:0:0:35:
192,192,39279,1,0,0:0:0:0:
320,192,39279,1,0,0:0:0:0:
448,192,39547,1,0,0:0:0:0:
320,192,39681,1,0,0:0:0:40:LR4_KickTBCRs.wav
64,192,39681,1,0,0:0:0:0:
192,192,39815,1,0,0:0:0:0:
320,192,39949,1,0,0:0:0:53:LR4_KickTBCRs.wav
448,192,40083,1,0,0:0:0:62:LR_Drum Hit Clap Sn.wav
192,192,40083,1,0,0:0:0:87:LR_Drum Rpd x2.wav
64,192,40083,1,0,0:0:0:0:
64,192,40350,1,0,0:0:0:0:
448,192,40350,1,0,0:0:0:0:
320,192,40618,1,0,0:0:0:0:
192,192,40752,1,0,0:0:0:0:
448,192,40886,1,0,0:0:0:53:LR4_KickTBCRs.wav
320,192,40886,1,0,0:0:0:0:
64,192,41154,1,0,0:0:0:0:
320,192,41288,1,0,0:0:0:53:LR4_KickTBCRs.wav
192,192,41288,1,0,0:0:0:0:
64,192,41422,1,0,0:0:0:0:
448,192,41556,1,0,0:0:0:40:LR4_KickTBCRs.wav
192,192,41690,1,0,0:0:0:87:LR_Drum Rpd x2.wav
320,192,41690,1,0,0:0:0:62:LR_Drum Hit Clap Sn.wav
64,192,41690,1,0,0:0:0:0:
448,192,41958,1,0,0:0:0:40:LR4_KickTBCRs.wav
192,192,41958,1,0,0:0:0:0:
64,192,42225,1,0,0:0:0:53:LR4_KickTBCRs.wav
320,192,42225,1,0,0:0:0:0:
64,192,42493,1,0,0:0:0:53:LR4_KickTBCRs.wav
192,192,42493,1,0,0:0:0:0:
448,192,42761,1,0,0:0:0:0:
320,192,42895,1,0,0:0:0:40:LR4_KickTBCRs.wav
192,192,42895,1,0,0:0:0:0:
64,192,43029,1,0,0:0:0:0:
192,192,43163,1,0,0:0:0:53:LR4_KickTBCRs.wav
448,192,43297,1,0,0:0:0:62:LR_Drum Hit Clap Sn.wav
320,192,43297,1,0,0:0:0:87:LR_Drum Rpd x2.wav
64,192,43297,1,0,0:0:0:0:
192,192,43565,1,0,0:0:0:40:LR4_KickTBCRs.wav
448,192,43565,1,0,0:0:0:0:
64,192,43833,1,0,0:0:0:40:LR4_KickTBCRs.wav
192,192,43966,1,0,0:0:0:0:
320,192,44100,1,0,0:0:0:53:LR4_KickTBCRs.wav
448,192,44100,1,0,0:0:0:0:
192,192,44368,1,0,0:0:0:0:
448,192,44502,1,0,0:0:0:40:LR4_KickTBCRs.wav
64,192,44502,1,0,0:0:0:0:
320,192,44636,1,0,0:0:0:0:
192,192,44770,1,0,0:0:0:53:LR4_KickTBCRs.wav
448,192,44904,1,0,0:0:0:62:LR_Drum Hit Clap Sn.wav
320,192,44904,1,0,0:0:0:87:LR_Drum Rpd x2.wav
64,192,44904,1,0,0:0:0:0:
192,192,45172,1,0,0:0:0:40:LR4_KickTBCRs.wav
64,192,45172,1,0,0:0:0:0:
448,192,45440,1,0,0:0:0:62:LR_Drum Hit Clap Sn.wav
320,192,45440,1,0,0:0:0:87:LR_Drum Rpd x2.wav
448,192,45574,1,0,0:0:0:87:LR_Drum Rpd x2.wav
320,192,45574,1,0,0:0:0:62:LR_Drum Hit Clap Sn.wav
64,192,45708,1,4,3:0:0:35:
192,192,45708,1,0,0:0:0:0:
320,192,45975,1,0,0:0:0:0:
448,192,46109,1,0,0:0:0:40:LR4_KickTBCRs.wav
64,192,46109,1,0,0:0:0:0:
192,192,46243,1,0,0:0:0:0:
320,192,46377,1,0,0:0:0:53:LR4_KickTBCRs.wav
448,192,46511,1,0,0:0:0:62:LR_Drum Hit Clap Sn.wav
192,192,46511,1,0,0:0:0:87:LR_Drum Rpd x2.wav
64,192,46511,1,0,0:0:0:0:
320,192,46779,1,0,0:0:0:0:
448,192,46779,1,0,0:0:0:0:
320,192,47047,1,0,0:0:0:0:
192,192,47047,1,0,0:0:0:0:
64,192,47315,1,0,0:0:0:53:LR4_KickTBCRs.wav
192,192,47315,1,0,0:0:0:0:
448,192,47583,1,0,0:0:0:0:
64,192,47716,1,0,0:0:0:53:LR4_KickTBCRs.wav
192,192,47716,1,0,0:0:0:0:
320,192,47850,1,0,0:0:0:0:
448,192,47984,1,0,0:0:0:40:LR4_KickTBCRs.wav
320,192,48118,1,0,0:0:0:87:LR_Drum Rpd x2.wav
192,192,48118,1,0,0:0:0:62:LR_Drum Hit Clap Sn.wav
64,192,48118,1,0,0:0:0:0:
448,192,48386,1,0,0:0:0:40:LR4_KickTBCRs.wav
192,192,48386,1,0,0:0:0:0:
320,192,48654,1,0,0:0:0:53:LR4_KickTBCRs.wav
64,192,48654,1,0,0:0:0:0:
448,192,48922,1,0,0:0:0:53:LR4_KickTBCRs.wav
320,192,48922,1,0,0:0:0:0:
64,192,49190,1,0,0:0:0:0:
192,192,49324,1,0,0:0:0:40:LR4_KickTBCRs.wav
320,192,49324,1,0,0:0:0:0:
448,192,49458,1,0,0:0:0:0:
320,192,49591,1,0,0:0:0:53:LR4_KickTBCRs.wav
448,192,49725,1,0,0:0:0:62:LR_Drum Hit Clap Sn.wav
192,192,49725,1,0,0:0:0:87:LR_Drum Rpd x2.wav
64,192,49725,1,0,0:0:0:0:
320,192,49993,1,0,0:0:0:40:LR4_KickTBCRs.wav
64,192,49993,1,0,0:0:0:0:
448,192,50261,1,0,0:0:0:40:LR4_KickTBCRs.wav
320,192,50261,1,0,0:0:0:0:
64,192,50395,1,0,0:0:0:0:
192,192,50529,1,0,0:0:0:53:LR4_KickTBCRs.wav
448,192,50529,1,0,0:0:0:0:
320,192,50663,1,0,0:0:0:0:
192,192,50797,1,0,0:0:0:85:LR_Drum Rpd x2.wav
64,192,50931,1,0,0:0:0:55:LR_Drum Hit Clap Sn.wav
448,192,50931,1,0,0:0:0:90:LR_Tom Hit Z.wav
320,192,51065,1,0,0:0:0:70:LR5_Tom Normal Sn.wav
192,192,51199,1,0,0:0:0:80:LR5_Tom Drop Sn.wav
320,192,51333,1,0,0:0:0:62:LR_Drum Hit Clap Sn.wav
448,192,51333,1,0,0:0:0:62:LR_Drum Hit Drop High.wav
320,192,51466,1,0,0:0:0:62:LR_Drum Hit Drop High.wav
448,192,51466,1,0,0:0:0:62:LR_Drum Hit Clap Sn.wav
192,192,51600,1,0,0:0:0:95:LR_Tom Hit X.wav
64,192,51600,1,0,0:0:0:55:LR_Drum Hit Clap Sn.wav
64,192,51734,1,0,0:0:0:65:LR_Drum Rpd x2.wav
192,192,51734,1,0,0:0:0:95:LR_Tom Hit X.wav
320,192,51868,1,0,0:0:0:97:LR_Tom Hit Y.wav
448,192,51868,1,0,0:0:0:55:LR_Drum Hit Clap Sn.wav
192,192,52002,1,0,0:0:0:65:LR_Drum Rpd x2.wav
64,192,52002,1,0,0:0:0:97:LR_Tom Hit Y.wav
320,192,52136,1,4,0:0:0:40:
448,192,52136,1,0,0:0:0:40:
192,192,52404,1,0,0:0:0:0:
64,192,52538,1,0,0:0:0:0:
320,192,52672,1,0,0:0:0:0:
448,192,52806,1,0,0:0:0:0:
320,192,52940,1,8,0:0:0:40:
64,192,52940,1,4,0:0:0:40:
192,192,52940,1,0,0:0:0:0:
448,192,53208,1,0,0:0:0:0:
320,192,53341,1,0,0:0:0:0:
64,192,53475,1,0,0:0:0:0:
192,192,53609,1,0,0:0:0:0:
64,192,53743,1,4,0:0:0:40:
448,192,53743,1,2,0:0:0:40:
320,192,53743,1,0,0:0:0:0:
448,192,54011,1,0,0:0:0:0:
320,192,54145,1,0,0:0:0:0:
192,192,54279,1,0,0:0:0:0:
64,192,54413,1,0,0:0:0:0:
320,192,54547,1,4,0:0:0:40:
192,192,54547,1,8,0:0:0:40:
448,192,54547,1,0,0:0:0:0:
64,192,54681,1,0,0:0:0:0:
192,192,54815,1,0,0:0:0:0:
448,192,54949,1,0,0:0:0:0:
320,192,55083,1,0,0:0:0:0:
192,192,55216,1,0,0:0:0:0:
64,192,55350,1,4,0:0:0:40:
448,192,55350,1,2,0:0:0:40:
320,192,55350,1,0,0:0:0:0:
192,192,55484,1,0,0:0:0:0:
320,192,55618,1,0,0:0:0:0:
448,192,55618,1,0,0:0:0:0:
64,192,55752,1,0,0:0:0:0:
192,192,55886,1,0,0:0:0:0:
448,192,55886,1,0,0:0:0:0:
320,192,56020,1,0,0:0:0:0:
64,192,56154,1,8,0:0:0:40:
448,192,56154,1,4,0:0:0:40:
192,192,56154,1,0,0:0:0:0:
320,192,56288,1,0,0:0:0:0:
192,192,56422,1,0,0:0:0:0:
64,192,56556,1,0,0:0:0:0:
320,192,56690,1,0,0:0:0:0:
448,192,56690,1,0,0:0:0:0:
192,192,56824,1,0,0:0:0:0:
448,192,56958,1,4,0:0:0:40:
320,192,56958,1,2,0:0:0:40:
64,192,56958,1,0,0:0:0:0:
192,192,57091,1,0,0:0:0:0:
320,192,57225,1,0,0:0:0:0:
448,192,57359,1,0,0:0:0:0:
192,192,57493,1,0,0:0:0:0:
64,192,57493,1,0,0:0:0:0:
320,192,57627,1,0,0:0:0:0:
448,192,57627,1,0,0:0:0:0:
448,192,57761,1,8,0:0:0:40:
192,192,57761,1,0,0:0:0:0:
64,192,57761,1,0,0:0:0:0:
192,192,58565,1,4,0:0:0:51:
64,192,58565,1,0,0:0:0:95:LR_Drum Hit Clap Sn.wav
448,192,58565,1,0,0:0:0:0:
320,192,58699,1,0,0:0:0:40:LR4_KickTBCRs.wav
192,192,58833,1,0,0:0:0:95:LR_Tom Hit Y.wav
64,192,58966,1,2,0:0:0:51:
448,192,58966,1,0,0:0:0:80:LR_Drum Hit Drop High.wav
192,192,59100,1,0,0:0:0:40:LR4_KickTBCRs.wav
320,192,59234,1,0,0:0:0:95:LR_Tom Hit Y.wav
448,192,59368,1,8,0:0:0:51:
64,192,59368,1,0,0:0:0:95:LR_Drum Hit Clap Sn.wav
192,192,59502,1,0,0:0:0:40:LR4_KickTBCRs.wav
448,192,59636,1,2,0:0:0:51:
320,192,59636,1,0,0:0:0:80:LR_Drum Hit Drop High.wav
192,192,59770,1,0,0:0:0:28:LR4_KickTBCRs.wav
64,192,59904,1,2,0:0:0:51:
320,192,59904,1,0,0:0:0:80:LR_Drum Hit Drop High.wav
192,192,60038,1,0,0:0:0:40:LR4_KickTBCRs.wav
448,192,60172,1,8,0:0:0:51:
320,192,60172,1,0,0:0:0:95:LR_Drum Hit Clap Sn.wav
64,192,60306,1,0,0:0:0:40:LR4_KickTBCRs.wav
192,192,60440,1,0,0:0:0:95:LR_Tom Hit Y.wav
448,192,60574,1,2,0:0:0:51:
64,192,60574,1,0,0:0:0:80:LR_Drum Hit Drop High.wav
320,192,60708,1,0,0:0:0:40:LR4_KickTBCRs.wav
192,192,60841,1,0,0:0:0:95:LR_Tom Hit Y.wav
448,192,60975,1,8,0:0:0:51:
320,192,60975,1,0,0:0:0:95:LR_Drum Hit Clap Sn.wav
320,192,61109,1,0,0:0:0:95:LR_Drum Hit Clap Sn.wav
448,192,61109,1,0,0:0:0:0:
192,192,61243,1,0,0:0:0:65:LR5_Tom Normal Sn.wav
64,192,61243,1,0,0:0:0:0:
64,192,61377,1,0,0:0:0:65:LR5_Tom Normal Sn.wav
192,192,61377,1,0,0:0:0:0:
320,192,61511,1,0,0:0:0:65:LR5_Tom Drop Sn.wav
448,192,61511,1,0,0:0:0:0:
320,192,61645,1,0,0:0:0:65:LR5_Tom Drop Sn.wav
448,192,61645,1,0,0:0:0:0:
192,192,61779,1,4,0:0:0:51:
64,192,61779,1,0,0:0:0:95:LR_Drum Hit Clap Sn.wav
320,192,61913,1,0,0:0:0:40:LR4_KickTBCRs.wav
64,192,62047,1,0,0:0:0:95:LR_Tom Hit Y.wav
192,192,62181,1,2,0:0:0:51:
448,192,62181,1,0,0:0:0:80:LR_Drum Hit Drop High.wav
320,192,62315,1,0,0:0:0:40:LR4_KickTBCRs.wav
192,192,62449,1,0,0:0:0:95:LR_Tom Hit Y.wav
448,192,62583,1,8,0:0:0:51:
64,192,62583,1,0,0:0:0:95:LR_Drum Hit Clap Sn.wav
320,192,62716,1,0,0:0:0:40:LR4_KickTBCRs.wav
192,192,62850,1,2,0:0:0:51:
64,192,62850,1,0,0:0:0:80:LR_Drum Hit Drop High.wav
320,192,62984,1,0,0:0:0:95:LR_Tom Hit Y.wav
448,192,63118,1,8,0:0:0:51:
192,192,63118,1,0,0:0:0:95:LR_Drum Hit Clap Sn.wav
64,192,63252,1,0,0:0:0:40:LR4_KickTBCRs.wav
448,192,63386,1,8,0:0:0:51:
320,192,63386,1,0,0:0:0:80:LR_Drum Hit Drop High.wav
192,192,63520,1,0,0:0:0:40:LR4_KickTBCRs.wav
64,192,63654,1,0,0:0:0:95:LR_Tom Hit Y.wav
448,192,63788,1,2,0:0:0:51:
192,192,63788,1,0,0:0:0:95:LR_Drum Hit Clap Sn.wav
320,192,63922,1,0,0:0:0:40:LR4_KickTBCRs.wav
192,192,64056,1,0,0:0:0:40:LR_Drum Hit Drop High.wav
320,192,64190,1,0,0:0:0:95:LR_Drum Hit Clap Sn.wav
448,192,64190,1,0,0:0:0:0:
448,192,64324,1,0,0:0:0:40:LR_Drum Hit Drop High.wav
192,192,64458,1,0,0:0:0:95:LR_Drum Hit Clap Sn.wav
64,192,64458,1,0,0:0:0:0:
64,192,64591,1,0,0:0:0:100:LR_Drum Hit Clap Sn.wav
320,192,64725,1,2,0:0:0:51:
448,192,64725,1,0,0:0:0:65:LR5_Tom Normal Sn.wav
320,192,64859,1,0,0:0:0:65:LR5_Tom Drop Sn.wav
448,192,64859,1,0,0:0:0:0:
192,192,64993,1,4,0:0:0:51:
64,192,64993,1,0,0:0:0:95:LR_Drum Hit Clap Sn.wav
320,192,65127,1,0,0:0:0:40:LR4_KickTBCRs.wav
448,192,65261,1,0,0:0:0:95:LR_Tom Hit Y.wav
64,192,65395,1,2,0:0:0:51:
320,192,65395,1,0,0:0:0:80:LR_Drum Hit Drop High.wav
192,192,65529,1,0,0:0:0:40:LR4_KickTBCRs.wav
320,192,65663,1,0,0:0:0:95:LR_Tom Hit Y.wav
448,192,65797,1,8,0:0:0:51:
64,192,65797,1,0,0:0:0:95:LR_Drum Hit Clap Sn.wav
192,192,65931,1,0,0:0:0:40:LR4_KickTBCRs.wav
448,192,66065,1,2,0:0:0:51:
320,192,66065,1,0,0:0:0:80:LR_Drum Hit Drop High.wav
192,192,66199,1,0,0:0:0:28:LR4_KickTBCRs.wav
448,192,66333,1,2,0:0:0:51:
64,192,66333,1,0,0:0:0:80:LR_Drum Hit Drop High.wav
320,192,66466,1,0,0:0:0:40:LR4_KickTBCRs.wav
192,192,66600,1,8,0:0:0:51:
64,192,66600,1,0,0:0:0:95:LR_Drum Hit Clap Sn.wav
320,192,66734,1,0,0:0:0:40:LR4_KickTBCRs.wav
448,192,66868,1,0,0:0:0:95:LR_Tom Hit Y.wav
320,192,67002,1,2,0:0:0:51:
64,192,67002,1,0,0:0:0:80:LR_Drum Hit Drop High.wav
192,192,67136,1,0,0:0:0:40:LR4_KickTBCRs.wav
320,192,67270,1,0,0:0:0:95:LR_Tom Hit Y.wav
192,192,67404,1,8,0:0:0:51:
64,192,67404,1,0,0:0:0:95:LR_Drum Hit Clap Sn.wav
64,192,67538,1,0,0:0:0:95:LR_Drum Hit Clap Sn.wav
192,192,67538,1,0,0:0:0:0:
448,192,67672,1,0,0:0:0:65:LR5_Tom Normal Sn.wav
320,192,67672,1,0,0:0:0:0:
192,192,67806,1,0,0:0:0:65:LR5_Tom Normal Sn.wav
320,192,67806,1,0,0:0:0:0:
64,192,67940,1,0,0:0:0:65:LR5_Tom Drop Sn.wav
192,192,67940,1,0,0:0:0:0:
448,192,68074,1,0,0:0:0:65:LR5_Tom Drop Sn.wav
320,192,68074,1,0,0:0:0:0:
64,192,68208,1,4,0:0:0:51:
192,192,68208,1,0,0:0:0:95:LR_Drum Hit Clap Sn.wav
448,192,68341,1,0,0:0:0:40:LR4_KickTBCRs.wav
320,192,68475,1,0,0:0:0:95:LR_Tom Hit Y.wav
64,192,68609,1,2,0:0:0:51:
448,192,68609,1,0,0:0:0:80:LR_Drum Hit Drop High.wav
320,192,68743,1,0,0:0:0:40:LR4_KickTBCRs.wav
192,192,68877,1,0,0:0:0:95:LR_Tom Hit Y.wav
320,192,69011,1,8,0:0:0:51:
64,192,69011,1,0,0:0:0:95:LR_Drum Hit Clap Sn.wav
448,192,69145,1,0,0:0:0:40:LR4_KickTBCRs.wav
192,192,69279,1,2,0:0:0:51:
320,192,69279,1,0,0:0:0:80:LR_Drum Hit Drop High.wav
64,192,69413,1,0,0:0:0:28:LR4_KickTBCRs.wav
192,192,69547,1,8,0:0:0:51:
448,192,69547,1,0,0:0:0:95:LR_Drum Hit Clap Sn.wav
320,192,69681,1,0,0:0:0:40:LR4_KickTBCRs.wav
192,192,69815,1,8,0:0:0:51:
64,192,69815,1,0,0:0:0:80:LR_Drum Hit Drop High.wav
320,192,69949,1,0,0:0:0:40:LR4_KickTBCRs.wav
448,192,70083,1,0,0:0:0:95:LR_Tom Hit Y.wav
64,192,70216,1,2,0:0:0:51:
192,192,70216,1,0,0:0:0:95:LR_Drum Hit Clap Sn.wav
448,192,70350,1,0,0:0:0:40:LR4_KickTBCRs.wav
320,192,70484,1,0,0:0:0:40:LR_Drum Hit Drop High.wav
192,192,70618,1,0,0:0:0:95:LR_Drum Hit Clap Sn.wav
64,192,70618,1,0,0:0:0:0:
64,192,70752,1,0,0:0:0:40:LR_Drum Hit Drop High.wav
448,192,70886,1,0,0:0:0:95:LR_Drum Hit Clap Sn.wav
320,192,70886,1,0,0:0:0:0:
320,192,71020,1,0,0:0:0:100:LR_Drum Hit Clap Sn.wav
448,192,71020,1,0,0:0:0:0:
64,192,71154,1,2,0:0:0:51:
192,192,71154,1,0,0:0:0:65:LR5_Tom Normal Sn.wav
448,192,71288,1,0,0:0:0:65:LR5_Tom Drop Sn.wav
320,192,71288,1,0,0:0:0:0:
192,192,71422,1,4,0:0:0:51:
64,192,71422,1,0,0:0:0:95:LR_Drum Hit Clap Sn.wav
320,192,71556,1,0,0:0:0:40:LR4_KickTBCRs.wav
448,192,71690,1,0,0:0:0:95:LR_Tom Hit Y.wav
320,192,71824,1,2,0:0:0:51:
64,192,71824,1,0,0:0:0:80:LR_Drum Hit Drop High.wav
192,192,71958,1,0,0:0:0:40:LR4_KickTBCRs.wav
320,192,72091,1,0,0:0:0:95:LR_Tom Hit Y.wav
448,192,72225,1,8,0:0:0:51:
64,192,72225,1,0,0:0:0:95:LR_Drum Hit Clap Sn.wav
192,192,72359,1,0,0:0:0:40:LR4_KickTBCRs.wav
448,192,72493,1,2,0:0:0:51:
320,192,72493,1,0,0:0:0:80:LR_Drum Hit Drop High.wav
192,192,72627,1,0,0:0:0:28:LR4_KickTBCRs.wav
320,192,72761,1,2,0:0:0:51:
64,192,72761,1,0,0:0:0:80:LR_Drum Hit Drop High.wav
448,192,72895,1,0,0:0:0:40:LR4_KickTBCRs.wav
192,192,73029,1,8,0:0:0:51:
64,192,73029,1,0,0:0:0:95:LR_Drum Hit Clap Sn.wav
320,192,73163,1,0,0:0:0:40:LR4_KickTBCRs.wav
448,192,73297,1,0,0:0:0:95:LR_Tom Hit Y.wav
320,192,73431,1,2,0:0:0:51:
64,192,73431,1,0,0:0:0:80:LR_Drum Hit Drop High.wav
192,192,73565,1,0,0:0:0:40:LR4_KickTBCRs.wav
320,192,73699,1,0,0:0:0:95:LR_Tom Hit Y.wav
192,192,73833,1,8,0:0:0:51:
64,192,73833,1,0,0:0:0:95:LR_Drum Hit Clap Sn.wav
320,192,73966,1,0,0:0:0:95:LR_Drum Hit Clap Sn.wav
448,192,73966,1,0,0:0:0:0:
64,192,74100,1,0,0:0:0:100:LR_Tom Hit X.wav
192,192,74100,1,0,0:0:0:0:
448,192,74234,1,0,0:0:0:65:LR_Tom Hit X.wav
320,192,74234,1,0,0:0:0:40:LR5_Tom Drop Sn.wav
320,192,74368,1,0,0:0:0:100:LR_Tom Hit Y.wav
448,192,74368,1,0,0:0:0:0:
64,192,74502,1,0,0:0:0:100:LR_Tom Hit Z.wav
192,192,74502,1,0,0:0:0:0:
448,192,74636,1,4,0:0:0:40:
320,192,74636,1,0,0:0:0:95:LR_Drum Hit Clap Sn.wav
192,192,74770,1,0,0:0:0:40:LR4_KickTBCRs.wav
64,192,74904,1,0,0:0:0:95:LR_Tom Hit Y.wav
192,192,75038,1,2,0:0:0:51:
448,192,75038,1,0,0:0:0:80:LR_Drum Hit Drop High.wav
320,192,75172,1,0,0:0:0:40:LR4_KickTBCRs.wav
192,192,75306,1,0,0:0:0:95:LR_Tom Hit Y.wav
64,192,75440,1,8,0:0:0:51:
448,192,75440,1,0,0:0:0:95:LR_Drum Hit Clap Sn.wav
320,192,75574,1,0,0:0:0:40:LR4_KickTBCRs.wav
192,192,75708,1,2,0:0:0:51:
64,192,75708,1,0,0:0:0:80:LR_Drum Hit Drop High.wav
320,192,75841,1,0,0:0:0:95:LR_Tom Hit Y.wav
64,192,75975,1,8,0:0:0:51:
448,192,75975,1,0,0:0:0:95:LR_Drum Hit Clap Sn.wav
192,192,76109,1,0,0:0:0:40:LR4_KickTBCRs.wav
320,192,76243,1,8,0:0:0:51:
448,192,76243,1,0,0:0:0:80:LR_Drum Hit Drop High.wav
192,192,76377,1,0,0:0:0:40:LR4_KickTBCRs.wav
64,192,76511,1,0,0:0:0:95:LR_Tom Hit Y.wav
448,192,76645,1,2,0:0:0:51:
192,192,76645,1,0,0:0:0:95:LR_Drum Hit Clap Sn.wav
320,192,76779,1,0,0:0:0:40:LR4_KickTBCRs.wav
64,192,76913,1,0,0:0:0:40:LR_Drum Hit Drop High.wav
448,192,77047,1,0,0:0:0:95:LR_Drum Hit Clap Sn.wav
320,192,77047,1,0,0:0:0:0:
448,192,77181,1,0,0:0:0:80:LR5_Tom Drop Sn.wav
64,192,77315,1,0,0:0:0:100:LR_Tom Hit Y.wav
192,192,77315,1,0,0:0:0:40:LR_Drum Hit Drop High.wav
192,192,77449,1,0,0:0:0:100:LR_Tom Hit Z.wav
448,192,77583,1,2,0:0:0:51:
320,192,77583,1,0,0:0:0:80:LR_Drum Hit Drop High.wav
64,192,77716,1,0,0:0:0:95:LR_Tom Hit Y.wav
192,192,77716,1,0,0:0:0:0:
192,192,77850,1,4,0:0:0:51:
64,192,77850,1,0,0:0:0:95:LR_Drum Hit Clap Sn.wav
320,192,77984,1,0,0:0:0:40:LR4_KickTBCRs.wav
448,192,78118,1,0,0:0:0:95:LR_Tom Hit Y.wav
320,192,78252,1,2,0:0:0:51:
192,192,78252,1,0,0:0:0:80:LR_Drum Hit Drop High.wav
64,192,78386,1,0,0:0:0:40:LR4_KickTBCRs.wav
192,192,78520,1,0,0:0:0:95:LR_Tom Hit Y.wav
448,192,78654,1,8,0:0:0:51:
320,192,78654,1,0,0:0:0:95:LR_Drum Hit Clap Sn.wav
64,192,78788,1,0,0:0:0:40:LR4_KickTBCRs.wav
448,192,78922,1,2,0:0:0:51:
192,192,78922,1,0,0:0:0:80:LR_Drum Hit Drop High.wav
320,192,79056,1,0,0:0:0:28:LR4_KickTBCRs.wav
192,192,79190,1,2,0:0:0:51:
64,192,79190,1,0,0:0:0:80:LR_Drum Hit Drop High.wav
448,192,79324,1,0,0:0:0:40:LR4_KickTBCRs.wav
320,192,79458,1,8,0:0:0:51:
64,192,79458,1,0,0:0:0:95:LR_Drum Hit Clap Sn.wav
192,192,79591,1,0,0:0:0:40:LR4_KickTBCRs.wav
320,192,79725,1,0,0:0:0:95:LR_Tom Hit Y.wav
448,192,79859,1,2,0:0:0:51:
64,192,79859,1,0,0:0:0:80:LR_Drum Hit Drop High.wav
192,192,79993,1,0,0:0:0:40:LR4_KickTBCRs.wav
320,192,80127,1,0,0:0:0:95:LR_Tom Hit Y.wav
192,192,80261,1,8,0:0:0:51:
64,192,80261,1,0,0:0:0:95:LR_Drum Hit Clap Sn.wav
448,192,80395,1,0,0:0:0:95:LR_Drum Hit Clap Sn.wav
320,192,80395,1,0,0:0:0:0:
192,192,80529,1,0,0:0:0:100:LR_Tom Hit X.wav
64,192,80529,1,0,0:0:0:0:
192,192,80663,1,0,0:0:0:65:LR_Tom Hit X.wav
320,192,80663,1,0,0:0:0:40:LR5_Tom Drop Sn.wav
448,192,80797,1,0,0:0:0:100:LR_Tom Hit Y.wav
320,192,80797,1,0,0:0:0:0:
192,192,80931,1,0,0:0:0:100:LR_Tom Hit Z.wav
64,192,80931,1,0,0:0:0:0:
192,192,81065,1,4,0:0:0:40:
64,192,81065,1,0,0:0:0:95:LR_Drum Hit Clap Sn.wav
448,192,81199,1,0,0:0:0:40:LR4_KickTBCRs.wav
320,192,81333,1,0,0:0:0:95:LR_Tom Hit Y.wav
64,192,81466,1,2,0:0:0:51:
192,192,81466,1,0,0:0:0:80:LR_Drum Hit Drop High.wav
320,192,81600,1,0,0:0:0:40:LR4_KickTBCRs.wav
448,192,81734,1,0,0:0:0:95:LR_Tom Hit Y.wav
64,192,81868,1,8,0:0:0:51:
320,192,81868,1,0,0:0:0:95:LR_Drum Hit Clap Sn.wav
192,192,82002,1,0,0:0:0:40:LR4_KickTBCRs.wav
448,192,82136,1,2,0:0:0:51:
320,192,82136,1,0,0:0:0:80:LR_Drum Hit Drop High.wav
192,192,82270,1,0,0:0:0:28:LR4_KickTBCRs.wav
448,192,82404,1,8,0:0:0:51:
64,192,82404,1,0,0:0:0:95:LR_Drum Hit Clap Sn.wav
320,192,82538,1,0,0:0:0:40:LR4_KickTBCRs.wav
64,192,82672,1,8,0:0:0:51:
192,192,82672,1,0,0:0:0:80:LR_Drum Hit Drop High.wav
320,192,82806,1,0,0:0:0:40:LR4_KickTBCRs.wav
448,192,82940,1,0,0:0:0:95:LR_Tom Hit Y.wav
64,192,83074,1,2,0:0:0:51:
320,192,83074,1,0,0:0:0:95:LR_Drum Hit Clap Sn.wav
192,192,83208,1,0,0:0:0:40:LR4_KickTBCRs.wav
320,192,83341,1,0,0:0:0:40:LR_Drum Hit Drop High.wav
448,192,83475,1,0,0:0:0:95:LR_Drum Hit Clap Sn.wav
64,192,83475,1,0,0:0:0:0:
64,192,83609,1,0,0:0:0:80:LR5_Tom Drop Sn.wav
448,192,83743,1,0,0:0:0:100:LR_Tom Hit Y.wav
320,192,83743,1,0,0:0:0:40:LR_Drum Hit Drop High.wav
192,192,83877,1,0,0:0:0:100:LR_Tom Hit Z.wav
448,192,84011,1,0,0:0:0:80:LR_Drum Hit Drop High.wav
64,192,84011,1,0,0:0:0:0:
192,192,84145,1,0,0:0:0:100:LR_Tom Hit Z.wav
320,192,84145,1,0,0:0:0:0:
448,192,84279,1,4,0:0:0:44:
64,192,84279,1,0,0:0:0:0:
192,192,84547,1,0,0:0:0:0:
448,192,84681,1,0,0:0:0:40:LR4_KickTBCRs.wav
64,192,84681,1,0,0:0:0:0:
192,192,84815,1,0,0:0:0:0:
320,192,84949,1,0,0:0:0:53:LR4_KickTBCRs.wav
448,192,85083,1,0,0:0:0:87:LR_Drum Rpd x2.wav
64,192,85083,1,0,0:0:0:62:LR_Drum Hit Clap Sn.wav
192,192,85083,1,0,0:0:0:0:
448,192,85350,1,0,0:0:0:0:
320,192,85350,1,0,0:0:0:0:
320,192,85618,1,0,0:0:0:0:
192,192,85618,1,0,0:0:0:0:
192,192,85886,1,0,0:0:0:53:LR4_KickTBCRs.wav
64,192,85886,1,0,0:0:0:0:
448,192,86154,1,0,0:0:0:0:
192,192,86288,1,0,0:0:0:53:LR4_KickTBCRs.wav
64,192,86288,1,0,0:0:0:0:
320,192,86422,1,0,0:0:0:0:
448,192,86556,1,0,0:0:0:40:LR4_KickTBCRs.wav
320,192,86690,1,0,0:0:0:62:LR_Drum Hit Clap Sn.wav
192,192,86690,1,0,0:0:0:87:LR_Drum Rpd x2.wav
64,192,86690,1,0,0:0:0:0:
448,192,86958,1,0,0:0:0:40:LR4_KickTBCRs.wav
192,192,86958,1,0,0:0:0:0:
64,192,87225,1,0,0:0:0:53:LR4_KickTBCRs.wav
320,192,87225,1,0,0:0:0:0:
448,192,87493,1,0,0:0:0:53:LR4_KickTBCRs.wav
192,192,87493,1,0,0:0:0:0:
64,192,87761,1,0,0:0:0:0:
448,192,87895,1,0,0:0:0:40:LR4_KickTBCRs.wav
320,192,87895,1,0,0:0:0:0:
64,192,88029,1,0,0:0:0:0:
192,192,88163,1,0,0:0:0:53:LR4_KickTBCRs.wav
320,192,88297,1,0,0:0:0:87:LR_Drum Rpd x2.wav
448,192,88297,1,0,0:0:0:62:LR_Drum Hit Clap Sn.wav
64,192,88297,1,0,0:0:0:0:
192,192,88565,1,0,0:0:0:40:LR4_KickTBCRs.wav
320,192,88565,1,0,0:0:0:0:
64,192,88833,1,0,0:0:0:40:LR4_KickTBCRs.wav
448,192,88833,1,0,0:0:0:0:
192,192,89100,1,0,0:0:0:53:LR4_KickTBCRs.wav
320,192,89100,1,0,0:0:0:0:
448,192,89368,1,0,0:0:0:0:
192,192,89502,1,0,0:0:0:40:LR4_KickTBCRs.wav
64,192,89502,1,0,0:0:0:0:
320,192,89636,1,0,0:0:0:0:
448,192,89770,1,0,0:0:0:53:LR4_KickTBCRs.wav
64,192,89904,1,0,0:0:0:87:LR_Drum Rpd x2.wav
192,192,89904,1,0,0:0:0:62:LR_Drum Hit Clap Sn.wav
320,192,89904,1,0,0:0:0:0:
320,192,90172,1,0,0:0:0:40:LR4_KickTBCRs.wav
448,192,90172,1,0,0:0:0:0:
192,192,90440,1,0,0:0:0:87:LR_Drum Rpd x2.wav
64,192,90440,1,0,0:0:0:62:LR_Drum Hit Clap Sn.wav
320,192,90574,1,0,0:0:0:62:LR_Drum Hit Clap Sn.wav
448,192,90574,1,0,0:0:0:87:LR_Drum Rpd x2.wav
192,192,90708,1,4,0:0:0:44:
64,192,90708,1,0,0:0:0:0:
448,192,90975,1,0,0:0:0:0:
192,192,91109,1,0,0:0:0:40:LR4_KickTBCRs.wav
320,192,91109,1,0,0:0:0:0:
448,192,91243,1,0,0:0:0:0:
64,192,91377,1,0,0:0:0:53:LR4_KickTBCRs.wav
320,192,91511,1,0,0:0:0:87:LR_Drum Rpd x2.wav
448,192,91511,1,0,0:0:0:62:LR_Drum Hit Clap Sn.wav
192,192,91511,1,0,0:0:0:0:
192,192,91779,1,0,0:0:0:0:
320,192,91779,1,0,0:0:0:0:
64,192,92047,1,0,0:0:0:0:
192,192,92047,1,0,0:0:0:0:
320,192,92315,1,0,0:0:0:53:LR4_KickTBCRs.wav
448,192,92315,1,0,0:0:0:0:
192,192,92583,1,0,0:0:0:0:
448,192,92716,1,0,0:0:0:53:LR4_KickTBCRs.wav
320,192,92716,1,0,0:0:0:0:
192,192,92850,1,0,0:0:0:0:
64,192,92984,1,0,0:0:0:40:LR4_KickTBCRs.wav
320,192,93118,1,0,0:0:0:62:LR_Drum Hit Clap Sn.wav
448,192,93118,1,0,0:0:0:87:LR_Drum Rpd x2.wav
192,192,93118,1,0,0:0:0:0:
320,192,93386,1,0,0:0:0:40:LR4_KickTBCRs.wav
448,192,93386,1,0,0:0:0:0:
192,192,93654,1,0,0:0:0:53:LR4_KickTBCRs.wav
320,192,93654,1,0,0:0:0:0:
64,192,93922,1,0,0:0:0:53:LR4_KickTBCRs.wav
192,192,93922,1,0,0:0:0:0:
320,192,94190,1,0,0:0:0:0:
448,192,94324,1,0,0:0:0:40:LR4_KickTBCRs.wav
64,192,94324,1,0,0:0:0:0:
320,192,94458,1,0,0:0:0:0:
192,192,94591,1,0,0:0:0:53:LR4_KickTBCRs.wav
320,192,94725,1,0,0:0:0:87:LR_Drum Rpd x2.wav
448,192,94725,1,0,0:0:0:62:LR_Drum Hit Clap Sn.wav
64,192,94725,1,0,0:0:0:0:
64,192,94993,1,0,0:0:0:40:LR4_KickTBCRs.wav
320,192,94993,1,0,0:0:0:0:
448,192,95261,1,0,0:0:0:40:LR4_KickTBCRs.wav
192,192,95261,1,0,0:0:0:0:
320,192,95529,1,0,0:0:0:53:LR4_KickTBCRs.wav
448,192,95529,1,0,0:0:0:0:
192,192,95663,1,0,0:0:0:0:
64,192,95797,1,0,0:0:0:85:LR_Drum Rpd x2.wav
320,192,95931,1,0,0:0:0:55:LR_Drum Hit Clap Sn.wav
448,192,95931,1,0,0:0:0:90:LR_Tom Hit Z.wav
64,192,96065,1,0,0:0:0:70:LR5_Tom Normal Sn.wav
192,192,96065,1,0,0:0:0:0:
64,192,96199,1,0,0:0:0:80:LR5_Tom Drop Sn.wav
192,192,96199,1,0,0:0:0:0:
320,192,96333,1,0,0:0:0:62:LR_Drum Hit Drop High.wav
448,192,96333,1,0,0:0:0:62:LR_Drum Hit Clap Sn.wav
192,192,96466,1,0,0:0:0:70:LR5_Tom Normal Sn.wav
320,192,96600,1,0,0:0:0:55:LR_Drum Hit Clap Sn.wav
448,192,96600,1,0,0:0:0:95:LR_Tom Hit X.wav
64,192,96734,1,0,0:0:0:95:LR_Tom Hit X.wav
320,192,96868,1,0,0:0:0:55:LR_Drum Hit Clap Sn.wav
192,192,96868,1,0,0:0:0:97:LR_Tom Hit Y.wav
448,192,97002,1,0,0:0:0:97:LR_Tom Hit Y.wav
192,192,97136,1,4,0:0:0:35:
64,192,97136,1,0,0:0:0:0:
320,192,97136,1,0,0:0:0:0:
448,192,97404,1,0,0:0:0:0:
64,192,97538,1,0,0:0:0:0:
320,192,97538,1,0,0:0:0:0:
192,192,97672,1,0,0:0:0:0:
320,192,97806,1,0,0:0:0:0:
448,192,97940,1,0,0:0:0:40:LR_Snare Hit.wav
192,192,97940,1,0,0:0:0:100:LR_Drum Rpd x2.wav
64,192,97940,1,0,0:0:0:0:
448,192,98208,1,0,0:0:0:0:
192,192,98208,1,0,0:0:0:0:
64,192,98208,1,0,0:0:0:0:
192,192,98475,1,0,0:0:0:0:
320,192,98475,1,0,0:0:0:0:
320,192,98743,1,0,0:0:0:52:LR4_KickTBCRs.wav
448,192,98743,1,0,0:0:0:0:
64,192,98743,1,0,0:0:0:0:
192,192,99011,1,0,0:0:0:0:
320,192,99145,1,0,0:0:0:0:
448,192,99145,1,0,0:0:0:0:
192,192,99279,1,0,0:0:0:0:
64,192,99413,1,0,0:0:0:0:
448,192,99547,1,0,0:0:0:100:LR_Drum Rpd x2.wav
320,192,99547,1,0,0:0:0:40:LR_Snare Hit.wav
192,192,99547,1,0,0:0:0:0:
320,192,99815,1,0,0:0:0:0:
64,192,99815,1,0,0:0:0:0:
448,192,99815,1,0,0:0:0:0:
192,192,100083,1,0,0:0:0:0:
320,192,100216,1,0,0:0:0:0:
448,192,100350,1,0,0:0:0:52:LR4_KickTBCRs.wav
64,192,100350,1,0,0:0:0:0:
192,192,100350,1,0,0:0:0:0:
320,192,100618,1,0,0:0:0:0:
448,192,100752,1,0,0:0:0:60:LR_Tom Hit Z.wav
64,192,100752,1,0,0:0:0:0:
192,192,100886,1,0,0:0:0:0:
64,192,101020,1,0,0:0:0:0:
192,192,101154,1,0,0:0:0:40:LR_Snare Hit.wav
320,192,101154,1,0,0:0:0:100:LR_Drum Rpd x2.wav
448,192,101154,1,0,0:0:0:0:
448,192,101422,1,0,0:0:0:0:
320,192,101422,1,0,0:0:0:0:
64,192,101690,1,0,0:0:0:0:
192,192,101824,1,0,0:0:0:0:
320,192,101958,1,0,0:0:0:52:LR4_KickTBCRs.wav
448,192,101958,1,0,0:0:0:0:
64,192,101958,1,0,0:0:0:0:
320,192,102225,1,0,0:0:0:0:
448,192,102359,1,0,0:0:0:0:
192,192,102359,1,0,0:0:0:0:
64,192,102493,1,0,0:0:0:0:
192,192,102627,1,0,0:0:0:0:
320,192,102761,1,0,0:0:0:40:LR_Snare Hit.wav
448,192,102761,1,0,0:0:0:100:LR_Drum Rpd x2.wav
64,192,102761,1,0,0:0:0:0:
448,192,103029,1,0,0:0:0:65:LR_Tom Hit Y.wav
320,192,103029,1,0,0:0:0:0:
192,192,103297,1,0,0:0:0:100:LR_Drum Rpd x2.wav
320,192,103297,1,0,0:0:0:40:LR_Snare Hit.wav
64,192,103431,1,0,0:0:0:55:LR_Tom Hit Z.wav
448,192,103565,1,0,0:0:0:52:LR4_KickTBCRs.wav
192,192,103565,1,0,0:0:0:0:
320,192,103565,1,0,0:0:0:0:
64,192,103833,1,0,0:0:0:0:
448,192,103966,1,0,0:0:0:60:LR_Tom Hit Z.wav
192,192,103966,1,0,0:0:0:0:
320,192,104100,1,0,0:0:0:0:
192,192,104234,1,0,0:0:0:0:
448,192,104368,1,0,0:0:0:100:LR_Drum Rpd x2.wav
64,192,104368,1,0,0:0:0:40:LR_Snare Hit.wav
320,192,104368,1,0,0:0:0:0:
320,192,104636,1,0,0:0:0:0:
64,192,104636,1,0,0:0:0:0:
448,192,104904,1,0,0:0:0:0:
64,192,104904,1,0,0:0:0:0:
192,192,105038,1,0,0:0:0:0:
448,192,105172,1,0,0:0:0:52:LR4_KickTBCRs.wav
64,192,105172,1,0,0:0:0:0:
320,192,105172,1,0,0:0:0:0:
64,192,105440,1,0,0:0:0:0:
192,192,105574,1,0,0:0:0:60:LR_Tom Hit Z.wav
320,192,105574,1,0,0:0:0:0:
448,192,105708,1,0,0:0:0:0:
320,192,105841,1,0,0:0:0:0:
448,192,105975,1,0,0:0:0:100:LR_Drum Rpd x2.wav
192,192,105975,1,0,0:0:0:40:LR_Snare Hit.wav
64,192,105975,1,0,0:0:0:0:
320,192,106243,1,0,0:0:0:0:
192,192,106243,1,0,0:0:0:0:
64,192,106511,1,0,0:0:0:0:
320,192,106645,1,0,0:0:0:0:
192,192,106779,1,0,0:0:0:52:LR4_KickTBCRs.wav
448,192,106779,1,0,0:0:0:0:
64,192,106779,1,0,0:0:0:0:
64,192,107047,1,0,0:0:0:0:
320,192,107181,1,0,0:0:0:60:LR_Tom Hit Z.wav
192,192,107181,1,0,0:0:0:0:
448,192,107315,1,0,0:0:0:0:
192,192,107449,1,0,0:0:0:0:
320,192,107583,1,0,0:0:0:100:LR_Drum Rpd x2.wav
64,192,107583,1,0,0:0:0:40:LR_Snare Hit.wav
448,192,107583,1,0,0:0:0:0:
448,192,107850,1,0,0:0:0:0:
192,192,107850,1,0,0:0:0:0:
64,192,107850,1,0,0:0:0:0:
320,192,107984,1,0,0:0:0:0:
192,192,108118,1,0,0:0:0:0:
64,192,108252,1,0,0:0:0:0:
192,192,108386,1,0,0:0:0:52:LR4_KickTBCRs.wav
320,192,108386,1,0,0:0:0:0:
448,192,108386,1,0,0:0:0:0:
192,192,108654,1,0,0:0:0:0:
64,192,108788,1,0,0:0:0:0:
320,192,108788,1,0,0:0:0:0:
448,192,108922,1,0,0:0:0:0:
64,192,109056,1,0,0:0:0:0:
320,192,109190,1,0,0:0:0:100:LR_Drum Rpd x2.wav
448,192,109190,1,0,0:0:0:40:LR_Snare Hit.wav
192,192,109190,1,0,0:0:0:0:
192,192,109993,1,4,0:0:0:35:
320,192,109993,1,0,0:0:0:0:
64,192,109993,1,0,0:0:0:0:
448,192,110261,1,0,0:0:0:0:
320,192,110395,1,0,0:0:0:40:LR4_KickTBCRs.wav
192,192,110395,1,0,0:0:0:0:
64,192,110529,1,0,0:0:0:0:
320,192,110663,1,0,0:0:0:53:LR4_KickTBCRs.wav
448,192,110797,1,0,0:0:0:62:LR_Drum Hit Clap Sn.wav
192,192,110797,1,0,0:0:0:87:LR_Drum Rpd x2.wav
64,192,110797,1,0,0:0:0:0:
320,192,111065,1,0,0:0:0:0:
448,192,111065,1,0,0:0:0:0:
64,192,111065,1,0,0:0:0:0:
192,192,111333,1,0,0:0:0:0:
64,192,111466,1,0,0:0:0:0:
448,192,111600,1,0,0:0:0:53:LR4_KickTBCRs.wav
320,192,111600,1,0,0:0:0:0:
192,192,111600,1,0,0:0:0:0:
64,192,111868,1,0,0:0:0:0:
448,192,112002,1,0,0:0:0:53:LR4_KickTBCRs.wav
192,192,112002,1,0,0:0:0:0:
64,192,112136,1,0,0:0:0:0:
320,192,112270,1,0,0:0:0:40:LR4_KickTBCRs.wav
448,192,112404,1,0,0:0:0:87:LR_Drum Rpd x2.wav
192,192,112404,1,0,0:0:0:62:LR_Drum Hit Clap Sn.wav
64,192,112404,1,0,0:0:0:0:
320,192,112672,1,0,0:0:0:40:LR4_KickTBCRs.wav
192,192,112672,1,0,0:0:0:0:
448,192,112940,1,0,0:0:0:53:LR4_KickTBCRs.wav
192,192,112940,1,0,0:0:0:0:
448,192,113208,1,0,0:0:0:53:LR4_KickTBCRs.wav
64,192,113208,1,0,0:0:0:0:
320,192,113208,1,0,0:0:0:0:
192,192,113475,1,0,0:0:0:0:
320,192,113609,1,0,0:0:0:40:LR4_KickTBCRs.wav
448,192,113609,1,0,0:0:0:0:
64,192,113743,1,0,0:0:0:0:
448,192,113877,1,0,0:0:0:53:LR4_KickTBCRs.wav
64,192,114011,1,0,0:0:0:62:LR_Drum Hit Clap Sn.wav
320,192,114011,1,0,0:0:0:87:LR_Drum Rpd x2.wav
192,192,114011,1,0,0:0:0:0:
448,192,114279,1,0,0:0:0:40:LR4_KickTBCRs.wav
320,192,114279,1,0,0:0:0:0:
64,192,114547,1,0,0:0:0:40:LR4_KickTBCRs.wav
192,192,114681,1,0,0:0:0:0:
448,192,114815,1,0,0:0:0:53:LR4_KickTBCRs.wav
320,192,114815,1,0,0:0:0:0:
64,192,114815,1,0,0:0:0:0:
192,192,115083,1,0,0:0:0:0:
320,192,115216,1,0,0:0:0:40:LR4_KickTBCRs.wav
448,192,115216,1,0,0:0:0:0:
192,192,115350,1,0,0:0:0:0:
64,192,115484,1,0,0:0:0:53:LR4_KickTBCRs.wav
320,192,115618,1,0,0:0:0:62:LR_Drum Hit Clap Sn.wav
448,192,115618,1,0,0:0:0:87:LR_Drum Rpd x2.wav
192,192,115618,1,0,0:0:0:0:
192,192,115886,1,0,0:0:0:40:LR4_KickTBCRs.wav
64,192,115886,1,0,0:0:0:0:
448,192,115886,1,0,0:0:0:0:
448,192,116154,1,0,0:0:0:62:LR_Drum Hit Clap Sn.wav
320,192,116154,1,0,0:0:0:87:LR_Drum Rpd x2.wav
448,192,116288,1,0,0:0:0:87:LR_Drum Rpd x2.wav
320,192,116288,1,0,0:0:0:62:LR_Drum Hit Clap Sn.wav
192,192,116422,1,4,0:0:0:35:
64,192,116422,1,0,0:0:0:0:
448,192,116690,1,0,0:0:0:0:
320,192,116824,1,0,0:0:0:40:LR4_KickTBCRs.wav
192,192,116824,1,0,0:0:0:0:
64,192,116958,1,0,0:0:0:0:
192,192,117091,1,0,0:0:0:53:LR4_KickTBCRs.wav
320,192,117225,1,0,0:0:0:62:LR_Drum Hit Clap Sn.wav
448,192,117225,1,0,0:0:0:87:LR_Drum Rpd x2.wav
64,192,117225,1,0,0:0:0:0:
192,192,117493,1,0,0:0:0:0:
448,192,117493,1,0,0:0:0:0:
320,192,117761,1,0,0:0:0:0:
448,192,117761,1,0,0:0:0:0:
192,192,117895,1,0,0:0:0:0:
320,192,118029,1,0,0:0:0:53:LR4_KickTBCRs.wav
448,192,118029,1,0,0:0:0:0:
64,192,118029,1,0,0:0:0:0:
64,192,118297,1,0,0:0:0:0:
192,192,118431,1,0,0:0:0:53:LR4_KickTBCRs.wav
448,192,118431,1,0,0:0:0:0:
320,192,118565,1,0,0:0:0:0:
192,192,118699,1,0,0:0:0:40:LR4_KickTBCRs.wav
64,192,118833,1,0,0:0:0:87:LR_Drum Rpd x2.wav
448,192,118833,1,0,0:0:0:62:LR_Drum Hit Clap Sn.wav
320,192,118833,1,0,0:0:0:0:
192,192,119100,1,0,0:0:0:40:LR4_KickTBCRs.wav
320,192,119100,1,0,0:0:0:0:
448,192,119100,1,0,0:0:0:0:
64,192,119368,1,0,0:0:0:53:LR4_KickTBCRs.wav
192,192,119368,1,0,0:0:0:0:
448,192,119636,1,0,0:0:0:53:LR4_KickTBCRs.wav
64,192,119636,1,0,0:0:0:0:
320,192,119636,1,0,0:0:0:0:
192,192,119904,1,0,0:0:0:0:
448,192,120038,1,0,0:0:0:40:LR4_KickTBCRs.wav
64,192,120038,1,0,0:0:0:0:
320,192,120172,1,0,0:0:0:0:
448,192,120306,1,0,0:0:0:53:LR4_KickTBCRs.wav
320,192,120440,1,0,0:0:0:62:LR_Drum Hit Clap Sn.wav
192,192,120440,1,0,0:0:0:87:LR_Drum Rpd x2.wav
64,192,120440,1,0,0:0:0:0:
192,192,120708,1,0,0:0:0:40:LR4_KickTBCRs.wav
448,192,120708,1,0,0:0:0:0:
320,192,120975,1,0,0:0:0:40:LR4_KickTBCRs.wav
64,192,120975,1,0,0:0:0:0:
192,192,121109,1,0,0:0:0:0:
448,192,121243,1,0,0:0:0:53:LR4_KickTBCRs.wav
320,192,121243,1,0,0:0:0:0:
320,192,121511,1,0,0:0:0:85:LR_Drum Rpd x2.wav
448,192,121511,1,0,0:0:0:0:
192,192,121645,1,0,0:0:0:55:LR_Drum Hit Clap Sn.wav
64,192,121645,1,0,0:0:0:90:LR_Tom Hit Z.wav
448,192,121779,1,0,0:0:0:70:LR5_Tom Normal Sn.wav
192,192,121913,1,0,0:0:0:80:LR5_Tom Drop Sn.wav
320,192,122047,1,0,0:0:0:62:LR_Drum Hit Clap Sn.wav
448,192,122047,1,0,0:0:0:62:LR_Drum Hit Drop High.wav
320,192,122181,1,0,0:0:0:62:LR_Drum Hit Drop High.wav
448,192,122181,1,0,0:0:0:62:LR_Drum Hit Clap Sn.wav
192,192,122315,1,0,0:0:0:95:LR_Tom Hit X.wav
64,192,122315,1,0,0:0:0:55:LR_Drum Hit Clap Sn.wav
192,192,122449,1,0,0:0:0:65:LR_Drum Rpd x2.wav
64,192,122449,1,0,0:0:0:95:LR_Tom Hit X.wav
320,192,122583,1,0,0:0:0:97:LR_Tom Hit Y.wav
448,192,122583,1,0,0:0:0:55:LR_Drum Hit Clap Sn.wav
320,192,122716,1,0,0:0:0:65:LR_Drum Rpd x2.wav
448,192,122716,1,0,0:0:0:97:LR_Tom Hit Y.wav
64,192,122850,1,4,0:0:0:40:
192,192,122850,1,0,0:0:0:40:
448,192,123118,1,0,0:0:0:0:
320,192,123252,1,0,0:0:0:0:
64,192,123386,1,0,0:0:0:0:
192,192,123520,1,0,0:0:0:0:
320,192,123654,1,8,0:0:0:40:
448,192,123654,1,4,0:0:0:40:
64,192,123654,1,0,0:0:0:0:
448,192,123922,1,0,0:0:0:0:
320,192,124056,1,0,0:0:0:0:
192,192,124190,1,0,0:0:0:0:
64,192,124324,1,0,0:0:0:0:
192,192,124458,1,4,0:0:0:40:
320,192,124458,1,2,0:0:0:40:
448,192,124458,1,0,0:0:0:0:
64,192,124725,1,0,0:0:0:0:
192,192,124859,1,0,0:0:0:0:
320,192,124993,1,0,0:0:0:0:
448,192,125127,1,0,0:0:0:0:
320,192,125261,1,4,0:0:0:40:
192,192,125261,1,8,0:0:0:40:
64,192,125261,1,0,0:0:0:0:
448,192,125395,1,0,0:0:0:0:
64,192,125529,1,0,0:0:0:0:
192,192,125663,1,0,0:0:0:0:
448,192,125797,1,0,0:0:0:0:
320,192,125931,1,0,0:0:0:0:
192,192,126065,1,4,0:0:0:40:
64,192,126065,1,2,0:0:0:40:
448,192,126065,1,0,0:0:0:0:
320,192,126199,1,0,0:0:0:0:
192,192,126333,1,0,0:0:0:0:
64,192,126333,1,0,0:0:0:0:
448,192,126466,1,0,0:0:0:0:
320,192,126600,1,0,0:0:0:0:
64,192,126600,1,0,0:0:0:0:
192,192,126734,1,0,0:0:0:0:
320,192,126868,1,8,0:0:0:40:
448,192,126868,1,4,0:0:0:40:
64,192,126868,1,0,0:0:0:0:
192,192,127002,1,0,0:0:0:0:
448,192,127136,1,0,0:0:0:0:
320,192,127270,1,0,0:0:0:0:
448,192,127404,1,0,0:0:0:0:
64,192,127404,1,0,0:0:0:0:
192,192,127538,1,0,0:0:0:0:
320,192,127672,1,4,0:0:0:40:
448,192,127672,1,2,0:0:0:40:
64,192,127672,1,0,0:0:0:0:
192,192,127806,1,0,0:0:0:0:
448,192,127940,1,0,0:0:0:0:
320,192,128074,1,0,0:0:0:0:
192,192,128208,1,0,0:0:0:0:
64,192,128208,1,0,0:0:0:0:
320,192,128341,1,0,0:0:0:0:
448,192,128341,1,0,0:0:0:0:
448,192,128475,1,8,0:0:0:40:
192,192,128475,1,0,0:0:0:0:
64,192,128475,1,0,0:0:0:0:
64,192,129279,1,4,0:0:0:51:
448,192,129279,1,0,0:0:0:95:LR_Drum Hit Clap Sn.wav
320,192,129279,1,0,0:0:0:0:
192,192,129413,1,0,0:0:0:40:LR4_KickTBCRs.wav
320,192,129547,1,0,0:0:0:95:LR_Tom Hit Y.wav
448,192,129681,1,2,0:0:0:51:
192,192,129681,1,0,0:0:0:80:LR_Drum Hit Drop High.wav
64,192,129815,1,0,0:0:0:40:LR4_KickTBCRs.wav
192,192,129949,1,0,0:0:0:95:LR_Tom Hit Y.wav
448,192,130083,1,8,0:0:0:51:
320,192,130083,1,0,0:0:0:95:LR_Drum Hit Clap Sn.wav
64,192,130216,1,0,0:0:0:40:LR4_KickTBCRs.wav
192,192,130350,1,2,0:0:0:51:
448,192,130350,1,0,0:0:0:80:LR_Drum Hit Drop High.wav
320,192,130484,1,0,0:0:0:28:LR4_KickTBCRs.wav
192,192,130618,1,2,0:0:0:51:
64,192,130618,1,0,0:0:0:80:LR_Drum Hit Drop High.wav
320,192,130752,1,0,0:0:0:40:LR4_KickTBCRs.wav
448,192,130886,1,8,0:0:0:51:
64,192,130886,1,0,0:0:0:95:LR_Drum Hit Clap Sn.wav
192,192,131020,1,0,0:0:0:40:LR4_KickTBCRs.wav
320,192,131154,1,0,0:0:0:95:LR_Tom Hit Y.wav
448,192,131288,1,2,0:0:0:51:
192,192,131288,1,0,0:0:0:80:LR_Drum Hit Drop High.wav
64,192,131422,1,0,0:0:0:40:LR4_KickTBCRs.wav
192,192,131556,1,0,0:0:0:95:LR_Tom Hit Y.wav
320,192,131690,1,8,0:0:0:51:
448,192,131690,1,0,0:0:0:95:LR_Drum Hit Clap Sn.wav
320,192,131824,1,0,0:0:0:95:LR_Drum Hit Clap Sn.wav
448,192,131824,1,0,0:0:0:0:
192,192,131958,1,0,0:0:0:65:LR5_Tom Normal Sn.wav
64,192,131958,1,0,0:0:0:0:
192,192,132091,1,0,0:0:0:65:LR5_Tom Normal Sn.wav
64,192,132091,1,0,0:0:0:0:
320,192,132225,1,0,0:0:0:65:LR5_Tom Drop Sn.wav
448,192,132225,1,0,0:0:0:0:
448,192,132359,1,0,0:0:0:65:LR5_Tom Drop Sn.wav
320,192,132359,1,0,0:0:0:0:
192,192,132493,1,4,0:0:0:51:
64,192,132493,1,0,0:0:0:95:LR_Drum Hit Clap Sn.wav
320,192,132627,1,0,0:0:0:40:LR4_KickTBCRs.wav
448,192,132761,1,0,0:0:0:95:LR_Tom Hit Y.wav
320,192,132895,1,2,0:0:0:51:
64,192,132895,1,0,0:0:0:80:LR_Drum Hit Drop High.wav
192,192,133029,1,0,0:0:0:40:LR4_KickTBCRs.wav
320,192,133163,1,0,0:0:0:95:LR_Tom Hit Y.wav
448,192,133297,1,8,0:0:0:51:
64,192,133297,1,0,0:0:0:95:LR_Drum Hit Clap Sn.wav
192,192,133431,1,0,0:0:0:40:LR4_KickTBCRs.wav
320,192,133565,1,2,0:0:0:51:
448,192,133565,1,0,0:0:0:80:LR_Drum Hit Drop High.wav
64,192,133699,1,0,0:0:0:95:LR_Tom Hit Y.wav
192,192,133833,1,8,0:0:0:51:
320,192,133833,1,0,0:0:0:95:LR_Drum Hit Clap Sn.wav
448,192,133966,1,0,0:0:0:40:LR4_KickTBCRs.wav
64,192,134100,1,8,0:0:0:51:
320,192,134100,1,0,0:0:0:80:LR_Drum Hit Drop High.wav
192,192,134234,1,0,0:0:0:40:LR4_KickTBCRs.wav
320,192,134368,1,0,0:0:0:95:LR_Tom Hit Y.wav
448,192,134502,1,2,0:0:0:51:
64,192,134502,1,0,0:0:0:95:LR_Drum Hit Clap Sn.wav
192,192,134636,1,0,0:0:0:40:LR4_KickTBCRs.wav
320,192,134770,1,0,0:0:0:40:LR_Drum Hit Drop High.wav
64,192,134904,1,0,0:0:0:95:LR_Drum Hit Clap Sn.wav
192,192,134904,1,0,0:0:0:0:
192,192,135038,1,0,0:0:0:40:LR_Drum Hit Drop High.wav
448,192,135172,1,0,0:0:0:95:LR_Drum Hit Clap Sn.wav
320,192,135172,1,0,0:0:0:0:
320,192,135306,1,0,0:0:0:100:LR_Drum Hit Clap Sn.wav
64,192,135440,1,2,0:0:0:51:
192,192,135440,1,0,0:0:0:65:LR5_Tom Normal Sn.wav
192,192,135574,1,0,0:0:0:65:LR5_Tom Drop Sn.wav
64,192,135574,1,0,0:0:0:0:
320,192,135708,1,4,0:0:0:51:
448,192,135708,1,0,0:0:0:95:LR_Drum Hit Clap Sn.wav
64,192,135841,1,0,0:0:0:40:LR4_KickTBCRs.wav
192,192,135975,1,0,0:0:0:95:LR_Tom Hit Y.wav
448,192,136109,1,2,0:0:0:51:
320,192,136109,1,0,0:0:0:80:LR_Drum Hit Drop High.wav
64,192,136243,1,0,0:0:0:40:LR4_KickTBCRs.wav
448,192,136377,1,0,0:0:0:95:LR_Tom Hit Y.wav
320,192,136511,1,8,0:0:0:51:
192,192,136511,1,0,0:0:0:95:LR_Drum Hit Clap Sn.wav
64,192,136645,1,0,0:0:0:40:LR4_KickTBCRs.wav
192,192,136779,1,2,0:0:0:51:
448,192,136779,1,0,0:0:0:80:LR_Drum Hit Drop High.wav
320,192,136913,1,0,0:0:0:28:LR4_KickTBCRs.wav
192,192,137047,1,2,0:0:0:51:
64,192,137047,1,0,0:0:0:80:LR_Drum Hit Drop High.wav
448,192,137181,1,0,0:0:0:40:LR4_KickTBCRs.wav
320,192,137315,1,8,0:0:0:51:
64,192,137315,1,0,0:0:0:95:LR_Drum Hit Clap Sn.wav
192,192,137449,1,0,0:0:0:40:LR4_KickTBCRs.wav
320,192,137583,1,0,0:0:0:95:LR_Tom Hit Y.wav
448,192,137716,1,2,0:0:0:51:
64,192,137716,1,0,0:0:0:80:LR_Drum Hit Drop High.wav
192,192,137850,1,0,0:0:0:40:LR4_KickTBCRs.wav
448,192,137984,1,0,0:0:0:95:LR_Tom Hit Y.wav
192,192,138118,1,8,0:0:0:51:
64,192,138118,1,0,0:0:0:95:LR_Drum Hit Clap Sn.wav
192,192,138252,1,0,0:0:0:95:LR_Drum Hit Clap Sn.wav
64,192,138252,1,0,0:0:0:0:
320,192,138386,1,0,0:0:0:65:LR5_Tom Normal Sn.wav
448,192,138386,1,0,0:0:0:0:
320,192,138520,1,0,0:0:0:65:LR5_Tom Normal Sn.wav
192,192,138520,1,0,0:0:0:0:
64,192,138654,1,0,0:0:0:65:LR5_Tom Drop Sn.wav
192,192,138654,1,0,0:0:0:0:
448,192,138788,1,0,0:0:0:65:LR5_Tom Drop Sn.wav
320,192,138788,1,0,0:0:0:0:
64,192,138922,1,4,0:0:0:51:
192,192,138922,1,0,0:0:0:95:LR_Drum Hit Clap Sn.wav
320,192,139056,1,0,0:0:0:40:LR4_KickTBCRs.wav
448,192,139190,1,0,0:0:0:95:LR_Tom Hit Y.wav
320,192,139324,1,2,0:0:0:51:
64,192,139324,1,0,0:0:0:80:LR_Drum Hit Drop High.wav
192,192,139458,1,0,0:0:0:40:LR4_KickTBCRs.wav
320,192,139591,1,0,0:0:0:95:LR_Tom Hit Y.wav
448,192,139725,1,8,0:0:0:51:
64,192,139725,1,0,0:0:0:95:LR_Drum Hit Clap Sn.wav
192,192,139859,1,0,0:0:0:40:LR4_KickTBCRs.wav
320,192,139993,1,2,0:0:0:51:
448,192,139993,1,0,0:0:0:80:LR_Drum Hit Drop High.wav
192,192,140127,1,0,0:0:0:28:LR4_KickTBCRs.wav
320,192,140261,1,8,0:0:0:51:
64,192,140261,1,0,0:0:0:95:LR_Drum Hit Clap Sn.wav
448,192,140395,1,0,0:0:0:40:LR4_KickTBCRs.wav
64,192,140529,1,8,0:0:0:51:
192,192,140529,1,0,0:0:0:80:LR_Drum Hit Drop High.wav
320,192,140663,1,0,0:0:0:40:LR4_KickTBCRs.wav
448,192,140797,1,0,0:0:0:95:LR_Tom Hit Y.wav
320,192,140931,1,2,0:0:0:51:
64,192,140931,1,0,0:0:0:95:LR_Drum Hit Clap Sn.wav
192,192,141065,1,0,0:0:0:40:LR4_KickTBCRs.wav
320,192,141199,1,0,0:0:0:40:LR_Drum Hit Drop High.wav
192,192,141333,1,0,0:0:0:95:LR_Drum Hit Clap Sn.wav
64,192,141333,1,0,0:0:0:0:
64,192,141466,1,0,0:0:0:40:LR_Drum Hit Drop High.wav
448,192,141600,1,0,0:0:0:95:LR_Drum Hit Clap Sn.wav
320,192,141600,1,0,0:0:0:0:
64,192,141734,1,0,0:0:0:100:LR_Drum Hit Clap Sn.wav
192,192,141734,1,0,0:0:0:0:
192,192,141868,1,2,0:0:0:51:
64,192,141868,1,0,0:0:0:65:LR5_Tom Normal Sn.wav
320,192,142002,1,0,0:0:0:65:LR5_Tom Drop Sn.wav
448,192,142002,1,0,0:0:0:0:
320,192,142136,1,4,0:0:0:51:
448,192,142136,1,0,0:0:0:95:LR_Drum Hit Clap Sn.wav
192,192,142270,1,0,0:0:0:40:LR4_KickTBCRs.wav
64,192,142404,1,0,0:0:0:95:LR_Tom Hit Y.wav
448,192,142538,1,2,0:0:0:51:
192,192,142538,1,0,0:0:0:80:LR_Drum Hit Drop High.wav
320,192,142672,1,0,0:0:0:40:LR4_KickTBCRs.wav
192,192,142806,1,0,0:0:0:95:LR_Tom Hit Y.wav
64,192,142940,1,8,0:0:0:51:
448,192,142940,1,0,0:0:0:95:LR_Drum Hit Clap Sn.wav
320,192,143074,1,0,0:0:0:40:LR4_KickTBCRs.wav
192,192,143208,1,2,0:0:0:51:
64,192,143208,1,0,0:0:0:80:LR_Drum Hit Drop High.wav
320,192,143341,1,0,0:0:0:28:LR4_KickTBCRs.wav
64,192,143475,1,2,0:0:0:51:
448,192,143475,1,0,0:0:0:80:LR_Drum Hit Drop High.wav
192,192,143609,1,0,0:0:0:40:LR4_KickTBCRs.wav
448,192,143743,1,8,0:0:0:51:
320,192,143743,1,0,0:0:0:95:LR_Drum Hit Clap Sn.wav
192,192,143877,1,0,0:0:0:40:LR4_KickTBCRs.wav
64,192,144011,1,0,0:0:0:95:LR_Tom Hit Y.wav
192,192,144145,1,2,0:0:0:51:
448,192,144145,1,0,0:0:0:80:LR_Drum Hit Drop High.wav
320,192,144279,1,0,0:0:0:40:LR4_KickTBCRs.wav
192,192,144413,1,0,0:0:0:95:LR_Tom Hit Y.wav
448,192,144547,1,8,0:0:0:51:
320,192,144547,1,0,0:0:0:95:LR_Drum Hit Clap Sn.wav
64,192,144681,1,0,0:0:0:95:LR_Drum Hit Clap Sn.wav
192,192,144681,1,0,0:0:0:0:
64,192,144815,1,0,0:0:0:100:LR_Tom Hit X.wav
192,192,144815,1,0,0:0:0:0:
448,192,144949,1,0,0:0:0:65:LR_Tom Hit X.wav
320,192,144949,1,0,0:0:0:40:LR5_Tom Drop Sn.wav
320,192,145083,1,0,0:0:0:100:LR_Tom Hit Y.wav
448,192,145083,1,0,0:0:0:0:
64,192,145216,1,0,0:0:0:100:LR_Tom Hit Z.wav
192,192,145216,1,0,0:0:0:0:
320,192,145350,1,4,0:0:0:40:
448,192,145350,1,0,0:0:0:95:LR_Drum Hit Clap Sn.wav
192,192,145484,1,0,0:0:0:40:LR4_KickTBCRs.wav
320,192,145618,1,0,0:0:0:95:LR_Tom Hit Y.wav
448,192,145752,1,2,0:0:0:51:
64,192,145752,1,0,0:0:0:80:LR_Drum Hit Drop High.wav
320,192,145886,1,0,0:0:0:40:LR4_KickTBCRs.wav
192,192,146020,1,0,0:0:0:95:LR_Tom Hit Y.wav
64,192,146154,1,8,0:0:0:51:
448,192,146154,1,0,0:0:0:95:LR_Drum Hit Clap Sn.wav
320,192,146288,1,0,0:0:0:40:LR4_KickTBCRs.wav
192,192,146422,1,2,0:0:0:51:
448,192,146422,1,0,0:0:0:80:LR_Drum Hit Drop High.wav
64,192,146556,1,0,0:0:0:95:LR_Tom Hit Y.wav
192,192,146690,1,8,0:0:0:51:
448,192,146690,1,0,0:0:0:95:LR_Drum Hit Clap Sn.wav
320,192,146824,1,0,0:0:0:40:LR4_KickTBCRs.wav
192,192,146958,1,8,0:0:0:51:
64,192,146958,1,0,0:0:0:80:LR_Drum Hit Drop High.wav
320,192,147091,1,0,0:0:0:40:LR4_KickTBCRs.wav
448,192,147225,1,0,0:0:0:95:LR_Tom Hit Y.wav
320,192,147359,1,2,0:0:0:51:
64,192,147359,1,0,0:0:0:95:LR_Drum Hit Clap Sn.wav
192,192,147493,1,0,0:0:0:40:LR4_KickTBCRs.wav
320,192,147627,1,0,0:0:0:40:LR_Drum Hit Drop High.wav
64,192,147761,1,0,0:0:0:95:LR_Drum Hit Clap Sn.wav
192,192,147761,1,0,0:0:0:0:
64,192,147895,1,0,0:0:0:80:LR5_Tom Drop Sn.wav
320,192,148029,1,0,0:0:0:100:LR_Tom Hit Y.wav
448,192,148029,1,0,0:0:0:40:LR_Drum Hit Drop High.wav
448,192,148163,1,0,0:0:0:100:LR_Tom Hit Z.wav
192,192,148297,1,2,0:0:0:51:
64,192,148297,1,0,0:0:0:80:LR_Drum Hit Drop High.wav
320,192,148431,1,0,0:0:0:95:LR_Tom Hit Y.wav
448,192,148431,1,0,0:0:0:0:
64,192,148565,1,4,0:0:0:51:
192,192,148565,1,0,0:0:0:95:LR_Drum Hit Clap Sn.wav
448,192,148699,1,0,0:0:0:40:LR4_KickTBCRs.wav
320,192,148833,1,0,0:0:0:95:LR_Tom Hit Y.wav
64,192,148966,1,2,0:0:0:51:
448,192,148966,1,0,0:0:0:80:LR_Drum Hit Drop High.wav
192,192,149100,1,0,0:0:0:40:LR4_KickTBCRs.wav
448,192,149234,1,0,0:0:0:95:LR_Tom Hit Y.wav
64,192,149368,1,8,0:0:0:51:
320,192,149368,1,0,0:0:0:95:LR_Drum Hit Clap Sn.wav
192,192,149502,1,0,0:0:0:40:LR4_KickTBCRs.wav
320,192,149636,1,2,0:0:0:51:
448,192,149636,1,0,0:0:0:80:LR_Drum Hit Drop High.wav
192,192,149770,1,0,0:0:0:28:LR4_KickTBCRs.wav
320,192,149904,1,2,0:0:0:51:
64,192,149904,1,0,0:0:0:80:LR_Drum Hit Drop High.wav
448,192,150038,1,0,0:0:0:40:LR4_KickTBCRs.wav
64,192,150172,1,8,0:0:0:51:
192,192,150172,1,0,0:0:0:95:LR_Drum Hit Clap Sn.wav
320,192,150306,1,0,0:0:0:40:LR4_KickTBCRs.wav
448,192,150440,1,0,0:0:0:95:LR_Tom Hit Y.wav
320,192,150574,1,2,0:0:0:51:
64,192,150574,1,0,0:0:0:80:LR_Drum Hit Drop High.wav
192,192,150708,1,0,0:0:0:40:LR4_KickTBCRs.wav
320,192,150841,1,0,0:0:0:95:LR_Tom Hit Y.wav
192,192,150975,1,8,0:0:0:51:
64,192,150975,1,0,0:0:0:95:LR_Drum Hit Clap Sn.wav
64,192,151109,1,0,0:0:0:95:LR_Drum Hit Clap Sn.wav
192,192,151109,1,0,0:0:0:0:
448,192,151243,1,0,0:0:0:100:LR_Tom Hit X.wav
320,192,151243,1,0,0:0:0:0:
320,192,151377,1,0,0:0:0:65:LR_Tom Hit X.wav
192,192,151377,1,0,0:0:0:40:LR5_Tom Drop Sn.wav
192,192,151511,1,0,0:0:0:100:LR_Tom Hit Y.wav
64,192,151511,1,0,0:0:0:0:
448,192,151645,1,0,0:0:0:100:LR_Tom Hit Z.wav
320,192,151645,1,0,0:0:0:0:
192,192,151779,1,4,0:0:0:40:
64,192,151779,1,0,0:0:0:95:LR_Drum Hit Clap Sn.wav
320,192,151913,1,0,0:0:0:40:LR4_KickTBCRs.wav
448,192,152047,1,0,0:0:0:95:LR_Tom Hit Y.wav
64,192,152181,1,2,0:0:0:51:
192,192,152181,1,0,0:0:0:80:LR_Drum Hit Drop High.wav
320,192,152315,1,0,0:0:0:40:LR4_KickTBCRs.wav
448,192,152449,1,0,0:0:0:95:LR_Tom Hit Y.wav
64,192,152583,1,8,0:0:0:51:
320,192,152583,1,0,0:0:0:95:LR_Drum Hit Clap Sn.wav
192,192,152716,1,0,0:0:0:40:LR4_KickTBCRs.wav
320,192,152850,1,2,0:0:0:51:
448,192,152850,1,0,0:0:0:80:LR_Drum Hit Drop High.wav
192,192,152984,1,0,0:0:0:28:LR4_KickTBCRs.wav
64,192,153118,1,8,0:0:0:51:
448,192,153118,1,0,0:0:0:95:LR_Drum Hit Clap Sn.wav
320,192,153252,1,0,0:0:0:40:LR4_KickTBCRs.wav
192,192,153386,1,8,0:0:0:51:
64,192,153386,1,0,0:0:0:80:LR_Drum Hit Drop High.wav
448,192,153520,1,0,0:0:0:40:LR4_KickTBCRs.wav
64,192,153654,1,0,0:0:0:95:LR_Tom Hit Y.wav
192,192,153788,1,2,0:0:0:51:
448,192,153788,1,0,0:0:0:95:LR_Drum Hit Clap Sn.wav
320,192,153922,1,0,0:0:0:40:LR4_KickTBCRs.wav
192,192,154056,1,0,0:0:0:40:LR_Drum Hit Drop High.wav
64,192,154190,1,0,0:0:0:95:LR_Drum Hit Clap Sn.wav
448,192,154190,1,0,0:0:0:0:
192,192,154324,1,0,0:0:0:80:LR5_Tom Drop Sn.wav
320,192,154458,1,0,0:0:0:100:LR_Tom Hit Y.wav
448,192,154458,1,0,0:0:0:40:LR_Drum Hit Drop High.wav
192,192,154591,1,0,0:0:0:100:LR_Tom Hit Z.wav
448,192,154725,1,0,0:0:0:80:LR_Drum Hit Drop High.wav
64,192,154725,1,0,0:0:0:0:
192,192,154859,1,0,0:0:0:100:LR_Tom Hit Z.wav
320,192,154859,1,0,0:0:0:0:
64,192,154993,1,4,0:0:0:40:
448,192,154993,128,0,155395:0:0:0:0:
320,192,155395,128,0,155663:0:0:0:0:
192,192,155663,1,0,0:0:0:30:LR4_KickTBCRs.wav
64,192,155797,128,0,156199:0:0:0:87:LR_Drum Rpd x2.wav
448,192,155797,1,0,0:0:0:62:LR_Drum Hit Clap Sn.wav
320,192,156199,128,0,156600:0:0:0:0:
64,192,156600,128,0,157002:0:0:0:53:LR4_KickTBCRs.wav
448,192,156600,1,0,0:0:0:0:
320,192,157002,128,0,157404:0:0:0:53:LR4_KickTBCRs.wav
192,192,157002,1,0,0:0:0:0:
448,192,157404,128,0,157672:0:0:0:62:LR_Drum Hit Clap Sn.wav
64,192,157404,1,0,0:0:0:87:LR_Drum Rpd x2.wav
192,192,157672,128,0,157940:0:0:0:0:
64,192,157940,128,0,158208:0:0:0:53:LR4_KickTBCRs.wav
320,192,157940,1,0,0:0:0:0:
448,192,158208,128,0,158341:0:0:0:53:LR4_KickTBCRs.wav
192,192,158208,1,0,0:0:0:0:
320,192,158341,128,0,158609:0:0:0:0:
448,192,158609,128,0,159011:0:0:0:0:
192,192,159011,128,0,159145:0:0:0:87:LR_Drum Rpd x2.wav
64,192,159011,1,0,0:0:0:62:LR_Drum Hit Clap Sn.wav
320,192,159145,128,0,159413:0:0:0:0:
64,192,159413,128,0,159681:0:0:0:0:
448,192,159815,128,0,160216:0:0:0:53:LR4_KickTBCRs.wav
192,192,159815,1,0,0:0:0:0:
192,192,160216,128,0,160484:0:0:0:40:LR4_KickTBCRs.wav
320,192,160216,1,0,0:0:0:0:
64,192,160618,128,0,160886:0:0:0:87:LR_Drum Rpd x2.wav
448,192,160618,1,0,0:0:0:62:LR_Drum Hit Clap Sn.wav
192,192,160886,128,0,161154:0:0:0:40:LR4_KickTBCRs.wav
320,192,160886,1,0,0:0:0:0:
64,192,161154,128,0,161422:0:0:0:87:LR_Drum Rpd x2.wav
448,192,161154,1,0,0:0:0:62:LR_Drum Hit Clap Sn.wav
320,192,161288,1,0,0:0:0:62:LR_Drum Hit Clap Sn.wav
448,192,161422,128,4,161556:0:0:0:40:
192,192,161422,1,0,0:0:0:0:
320,192,161556,128,0,161824:0:0:0:0:
64,192,161824,128,0,162225:0:0:0:0:
320,192,162225,1,0,0:0:0:62:LR_Drum Hit Clap Sn.wav
448,192,162225,128,0,162359:0:0:0:87:LR_Drum Rpd x2.wav
192,192,162359,128,0,162627:0:0:0:0:
320,192,162627,128,0,163029:0:0:0:0:
64,192,163029,128,0,163431:0:0:0:53:LR4_KickTBCRs.wav
448,192,163029,1,0,0:0:0:0:
192,192,163431,128,0,163699:0:0:0:53:LR4_KickTBCRs.wav
448,192,163431,1,0,0:0:0:0:
448,192,163699,128,0,163833:0:0:0:0:
320,192,163833,128,0,164100:0:0:0:62:LR_Drum Hit Clap Sn.wav
64,192,163833,1,0,0:0:0:87:LR_Drum Rpd x2.wav
64,192,164100,128,0,164368:0:0:0:0:
448,192,164368,128,0,164636:0:0:0:53:LR4_KickTBCRs.wav
192,192,164368,1,0,0:0:0:0:
64,192,164636,128,0,164770:0:0:0:53:LR4_KickTBCRs.wav
320,192,164636,1,0,0:0:0:0:
192,192,164770,128,0,165038:0:0:0:0:
448,192,165038,128,0,165440:0:0:0:0:
64,192,165440,128,0,165574:0:0:0:87:LR_Drum Rpd x2.wav
320,192,165440,1,0,0:0:0:62:LR_Drum Hit Clap Sn.wav
192,192,165574,128,0,165841:0:0:0:0:
320,192,165841,128,0,166243:0:0:0:0:
448,192,166243,128,0,166645:0:0:0:53:LR4_KickTBCRs.wav
64,192,166243,1,0,0:0:0:0:
64,192,166645,128,0,166913:0:0:0:55:LR_Drum Hit Clap Sn.wav
192,192,166645,1,0,0:0:0:0:
320,192,166779,1,0,0:0:0:0:
192,192,166913,1,0,0:0:0:0:
448,192,167047,128,0,167315:0:0:0:62:LR_Drum Hit Drop High.wav
320,192,167047,1,0,0:0:0:62:LR_Drum Hit Clap Sn.wav
320,192,167315,128,0,167583:0:0:0:55:LR_Drum Hit Clap Sn.wav
64,192,167315,1,0,0:0:0:0:
448,192,167583,1,0,0:0:0:55:LR_Drum Hit Clap Sn.wav
192,192,167583,128,0,167850:0:0:0:0:
64,192,167850,128,0,169993:0:0:0:22:
320,192,167850,1,4,0:0:0:0:
448,192,168654,1,0,0:0:0:90:D7S.wav
320,192,168922,1,0,0:0:0:90:A6S.wav
192,192,169190,1,0,0:0:0:70:A#6S_Bb6S.wav
192,192,169458,1,0,0:0:0:90:A#6S_Bb6S.wav
448,192,169458,1,0,0:0:0:80:A#4S_Bb4S.wav
192,192,170261,1,0,0:0:0:85:F6S.wav
448,192,170797,1,0,0:0:0:85:D7S.wav
64,192,171065,1,0,0:0:0:85:C7S.wav
192,192,171065,1,0,0:0:0:0:
320,192,171065,1,0,0:0:0:40:C5S.wav
64,192,171466,1,0,0:0:0:22:F4S.wav
448,192,171868,1,0,0:0:0:80:F7S.wav
320,192,171868,1,0,0:0:0:32:C5S.wav
192,192,172404,1,0,0:0:0:80:A6S.wav
64,192,172672,1,0,0:0:0:80:A#6S_Bb6S.wav
448,192,172672,1,0,0:0:0:60:D5S.wav
320,192,172672,1,0,0:0:0:0:
192,192,173074,1,0,0:0:0:25:D5S.wav
64,192,173475,1,0,0:0:0:60:C5S.wav
320,192,173475,1,0,0:0:0:80:D7S.wav
192,192,173743,1,0,0:0:0:80:D#7S_Eb7S.wav
320,192,173743,1,0,0:0:0:0:
320,192,174011,1,0,0:0:0:70:F7S.wav
64,192,174011,1,0,0:0:0:0:
448,192,174279,1,0,0:0:0:85:F7S.wav
64,192,174279,1,0,0:0:0:33:A#4S_Bb4S.wav
192,192,174279,1,0,0:0:0:0:
448,192,175083,1,0,0:0:0:85:F7S.wav
192,192,175350,1,0,0:0:0:75:A6S.wav
320,192,175618,1,0,0:0:0:75:A#6S_Bb6S.wav
64,192,175886,1,0,0:0:0:85:F7S.wav
192,192,175886,1,0,0:0:0:33:A#4S_Bb4S.wav
448,192,175886,1,0,0:0:0:0:
320,192,176690,1,0,0:0:0:90:A#6S_Bb6S.wav
64,192,176690,1,0,0:0:0:23:A#4S_Bb4S.wav
192,192,177225,1,0,0:0:0:90:D7S.wav
320,192,177225,1,0,0:0:0:0:
64,192,177493,1,0,0:0:0:90:C7S.wav
448,192,177493,1,0,0:0:0:40:C5S.wav
192,192,177493,1,0,0:0:0:0:
192,192,177895,1,0,0:0:0:28:F4S.wav
448,192,178297,1,0,0:0:0:90:F7S.wav
64,192,178297,1,0,0:0:0:20:C5S.wav
192,192,178833,1,0,0:0:0:85:A6S.wav
448,192,178833,1,0,0:0:0:0:
64,192,179100,1,0,0:0:0:90:A#6S_Bb6S.wav
320,192,179100,1,0,0:0:0:17:D5S.wav
192,192,179100,1,0,0:0:0:0:
448,192,179904,1,0,0:0:0:95:A#7S_Bb7S.wav
192,192,179904,1,0,0:0:0:0:
192,192,180172,1,0,0:0:0:75:A#7S_Bb7S.wav
192,192,180306,1,0,0:0:0:95:A#7S_Bb7S.wav
64,192,180708,1,4,0:0:0:51:
448,192,180708,1,0,0:0:0:95:LR_Drum Hit Clap Sn.wav
320,192,180708,1,0,0:0:0:0:
192,192,180841,1,0,0:0:0:40:LR4_KickTBCRs.wav
64,192,180975,1,0,0:0:0:95:LR_Tom Hit Y.wav
448,192,181109,1,2,0:0:0:51:
192,192,181109,1,0,0:0:0:80:LR_Drum Hit Drop High.wav
320,192,181243,1,0,0:0:0:40:LR4_KickTBCRs.wav
192,192,181377,1,0,0:0:0:95:LR_Tom Hit Y.wav
64,192,181511,1,8,0:0:0:51:
448,192,181511,1,0,0:0:0:95:LR_Drum Hit Clap Sn.wav
320,192,181645,1,0,0:0:0:40:LR4_KickTBCRs.wav
192,192,181779,1,2,0:0:0:51:
64,192,181779,1,0,0:0:0:80:LR_Drum Hit Drop High.wav
320,192,181913,1,0,0:0:0:28:LR4_KickTBCRs.wav
448,192,182047,1,2,0:0:0:51:
64,192,182047,1,0,0:0:0:80:LR_Drum Hit Drop High.wav
192,192,182181,1,0,0:0:0:40:LR4_KickTBCRs.wav
320,192,182315,1,8,0:0:0:51:
448,192,182315,1,0,0:0:0:95:LR_Drum Hit Clap Sn.wav
64,192,182449,1,0,0:0:0:40:LR4_KickTBCRs.wav
448,192,182583,1,0,0:0:0:95:LR_Tom Hit Y.wav
320,192,182716,1,2,0:0:0:51:
192,192,182716,1,0,0:0:0:80:LR_Drum Hit Drop High.wav
64,192,182850,1,0,0:0:0:40:LR4_KickTBCRs.wav
192,192,182984,1,0,0:0:0:95:LR_Tom Hit Y.wav
320,192,183118,1,8,0:0:0:51:
448,192,183118,1,0,0:0:0:95:LR_Drum Hit Clap Sn.wav
448,192,183252,1,0,0:0:0:95:LR_Drum Hit Clap Sn.wav
320,192,183252,1,0,0:0:0:0:
64,192,183386,1,0,0:0:0:65:LR5_Tom Normal Sn.wav
192,192,183386,1,0,0:0:0:0:
64,192,183520,1,0,0:0:0:65:LR5_Tom Normal Sn.wav
192,192,183520,1,0,0:0:0:0:
320,192,183654,1,0,0:0:0:65:LR5_Tom Drop Sn.wav
448,192,183654,1,0,0:0:0:0:
64,192,183788,1,0,0:0:0:65:LR5_Tom Drop Sn.wav
192,192,183788,1,0,0:0:0:0:
448,192,183922,1,4,0:0:0:51:
320,192,183922,1,0,0:0:0:95:LR_Drum Hit Clap Sn.wav
64,192,184056,1,0,0:0:0:40:LR4_KickTBCRs.wav
192,192,184190,1,0,0:0:0:95:LR_Tom Hit Y.wav
320,192,184324,1,2,0:0:0:51:
448,192,184324,1,0,0:0:0:80:LR_Drum Hit Drop High.wav
64,192,184458,1,0,0:0:0:40:LR4_KickTBCRs.wav
192,192,184591,1,0,0:0:0:95:LR_Tom Hit Y.wav
448,192,184725,1,8,0:0:0:51:
64,192,184725,1,0,0:0:0:95:LR_Drum Hit Clap Sn.wav
320,192,184859,1,0,0:0:0:40:LR4_KickTBCRs.wav
192,192,184993,1,2,0:0:0:51:
64,192,184993,1,0,0:0:0:80:LR_Drum Hit Drop High.wav
320,192,185127,1,0,0:0:0:95:LR_Tom Hit Y.wav
448,192,185261,1,8,0:0:0:51:
192,192,185261,1,0,0:0:0:95:LR_Drum Hit Clap Sn.wav
64,192,185395,1,0,0:0:0:40:LR4_KickTBCRs.wav
192,192,185529,1,8,0:0:0:51:
320,192,185529,1,0,0:0:0:80:LR_Drum Hit Drop High.wav
448,192,185663,1,0,0:0:0:40:LR4_KickTBCRs.wav
64,192,185797,1,0,0:0:0:95:LR_Tom Hit Y.wav
448,192,185931,1,2,0:0:0:51:
320,192,185931,1,0,0:0:0:95:LR_Drum Hit Clap Sn.wav
192,192,186065,1,0,0:0:0:40:LR4_KickTBCRs.wav
64,192,186199,1,0,0:0:0:40:LR_Drum Hit Drop High.wav
320,192,186333,1,0,0:0:0:95:LR_Drum Hit Clap Sn.wav
448,192,186333,1,0,0:0:0:0:
448,192,186466,1,0,0:0:0:40:LR_Drum Hit Drop High.wav
192,192,186600,1,0,0:0:0:95:LR_Drum Hit Clap Sn.wav
64,192,186600,1,0,0:0:0:0:
64,192,186734,1,0,0:0:0:100:LR_Drum Hit Clap Sn.wav
320,192,186868,1,2,0:0:0:51:
448,192,186868,1,0,0:0:0:65:LR5_Tom Normal Sn.wav
320,192,187002,1,0,0:0:0:65:LR5_Tom Drop Sn.wav
448,192,187002,1,0,0:0:0:0:
192,192,187136,1,4,0:0:0:51:
64,192,187136,1,0,0:0:0:95:LR_Drum Hit Clap Sn.wav
320,192,187270,1,0,0:0:0:40:LR4_KickTBCRs.wav
448,192,187404,1,0,0:0:0:95:LR_Tom Hit Y.wav
64,192,187538,1,2,0:0:0:51:
320,192,187538,1,0,0:0:0:80:LR_Drum Hit Drop High.wav
192,192,187672,1,0,0:0:0:40:LR4_KickTBCRs.wav
320,192,187806,1,0,0:0:0:95:LR_Tom Hit Y.wav
448,192,187940,1,8,0:0:0:51:
64,192,187940,1,0,0:0:0:95:LR_Drum Hit Clap Sn.wav
192,192,188074,1,0,0:0:0:40:LR4_KickTBCRs.wav
320,192,188208,1,2,0:0:0:51:
448,192,188208,1,0,0:0:0:80:LR_Drum Hit Drop High.wav
192,192,188341,1,0,0:0:0:28:LR4_KickTBCRs.wav
64,192,188475,1,2,0:0:0:51:
320,192,188475,1,0,0:0:0:80:LR_Drum Hit Drop High.wav
448,192,188609,1,0,0:0:0:40:LR4_KickTBCRs.wav
320,192,188743,1,8,0:0:0:51:
192,192,188743,1,0,0:0:0:95:LR_Drum Hit Clap Sn.wav
64,192,188877,1,0,0:0:0:40:LR4_KickTBCRs.wav
192,192,189011,1,0,0:0:0:95:LR_Tom Hit Y.wav
448,192,189145,1,2,0:0:0:51:
320,192,189145,1,0,0:0:0:80:LR_Drum Hit Drop High.wav
192,192,189279,1,0,0:0:0:40:LR4_KickTBCRs.wav
64,192,189413,1,0,0:0:0:95:LR_Tom Hit Y.wav
320,192,189547,1,8,0:0:0:51:
448,192,189547,1,0,0:0:0:95:LR_Drum Hit Clap Sn.wav
448,192,189681,1,0,0:0:0:95:LR_Drum Hit Clap Sn.wav
320,192,189681,1,0,0:0:0:0:
192,192,189815,1,0,0:0:0:100:LR_Tom Hit X.wav
64,192,189815,1,0,0:0:0:0:
192,192,189949,1,0,0:0:0:40:LR5_Tom Drop Sn.wav
320,192,189949,1,0,0:0:0:65:LR_Tom Hit X.wav
320,192,190083,1,0,0:0:0:100:LR_Tom Hit Y.wav
448,192,190083,1,0,0:0:0:0:
64,192,190216,1,0,0:0:0:100:LR_Tom Hit Z.wav
192,192,190216,1,0,0:0:0:0:
192,192,190350,1,4,0:0:0:40:
64,192,190350,1,0,0:0:0:95:LR_Drum Hit Clap Sn.wav
320,192,190484,1,0,0:0:0:40:LR4_KickTBCRs.wav
448,192,190618,1,0,0:0:0:95:LR_Tom Hit Y.wav
320,192,190752,1,2,0:0:0:51:
192,192,190752,1,0,0:0:0:80:LR_Drum Hit Drop High.wav
64,192,190886,1,0,0:0:0:40:LR4_KickTBCRs.wav
448,192,191020,1,0,0:0:0:95:LR_Tom Hit Y.wav
320,192,191154,1,8,0:0:0:51:
64,192,191154,1,0,0:0:0:95:LR_Drum Hit Clap Sn.wav
192,192,191288,1,0,0:0:0:40:LR4_KickTBCRs.wav
320,192,191422,1,2,0:0:0:51:
448,192,191422,1,0,0:0:0:80:LR_Drum Hit Drop High.wav
64,192,191556,1,0,0:0:0:95:LR_Tom Hit Y.wav
192,192,191690,1,8,0:0:0:51:
320,192,191690,1,0,0:0:0:95:LR_Drum Hit Clap Sn.wav
448,192,191824,1,0,0:0:0:40:LR4_KickTBCRs.wav
320,192,191958,1,8,0:0:0:51:
64,192,191958,1,0,0:0:0:80:LR_Drum Hit Drop High.wav
192,192,192091,1,0,0:0:0:40:LR4_KickTBCRs.wav
320,192,192225,1,0,0:0:0:95:LR_Tom Hit Y.wav
448,192,192359,1,2,0:0:0:51:
64,192,192359,1,0,0:0:0:95:LR_Drum Hit Clap Sn.wav
192,192,192493,1,0,0:0:0:40:LR4_KickTBCRs.wav
64,192,192627,1,0,0:0:0:40:LR_Drum Hit Drop High.wav
448,192,192761,1,0,0:0:0:95:LR_Drum Hit Clap Sn.wav
320,192,192761,1,0,0:0:0:0:
192,192,192895,1,0,0:0:0:80:LR5_Tom Drop Sn.wav
64,192,193029,1,0,0:0:0:40:LR_Drum Hit Drop High.wav
448,192,193029,1,0,0:0:0:100:LR_Tom Hit Y.wav
320,192,193163,1,0,0:0:0:100:LR_Tom Hit Z.wav
64,192,193297,1,2,0:0:0:51:
448,192,193297,1,0,0:0:0:80:LR_Drum Hit Drop High.wav
320,192,193431,1,0,0:0:0:95:LR_Tom Hit Y.wav
192,192,193431,1,0,0:0:0:0:
64,192,193565,1,4,0:0:0:44:
448,192,193565,1,0,0:0:0:95:LR_Drum Hit Clap Sn.wav
192,192,193833,1,0,0:0:0:0:
320,192,193966,1,0,0:0:0:40:LR4_KickTBCRs.wav
448,192,193966,1,0,0:0:0:0:
192,192,194100,1,0,0:0:0:0:
64,192,194234,1,0,0:0:0:53:LR4_KickTBCRs.wav
448,192,194368,1,0,0:0:0:87:LR_Drum Rpd x2.wav
320,192,194368,1,0,0:0:0:62:LR_Drum Hit Clap Sn.wav
192,192,194368,1,0,0:0:0:0:
320,192,194636,1,0,0:0:0:0:
448,192,194636,1,0,0:0:0:0:
64,192,194904,1,0,0:0:0:0:
192,192,195038,1,0,0:0:0:0:
320,192,195172,1,0,0:0:0:53:LR4_KickTBCRs.wav
448,192,195172,1,0,0:0:0:0:
64,192,195172,1,0,0:0:0:0:
192,192,195440,1,0,0:0:0:0:
64,192,195574,1,0,0:0:0:53:LR4_KickTBCRs.wav
320,192,195574,1,0,0:0:0:0:
448,192,195708,1,0,0:0:0:0:
192,192,195841,1,0,0:0:0:40:LR4_KickTBCRs.wav
320,192,195975,1,0,0:0:0:62:LR_Drum Hit Clap Sn.wav
64,192,195975,1,0,0:0:0:87:LR_Drum Rpd x2.wav
448,192,195975,1,0,0:0:0:0:
320,192,196243,1,0,0:0:0:40:LR4_KickTBCRs.wav
448,192,196243,1,0,0:0:0:0:
192,192,196511,1,0,0:0:0:53:LR4_KickTBCRs.wav
320,192,196511,1,0,0:0:0:0:
64,192,196779,1,0,0:0:0:53:LR4_KickTBCRs.wav
192,192,196779,1,0,0:0:0:0:
320,192,196779,1,0,0:0:0:0:
448,192,197047,1,0,0:0:0:0:
320,192,197181,1,0,0:0:0:40:LR4_KickTBCRs.wav
192,192,197181,1,0,0:0:0:0:
64,192,197315,1,0,0:0:0:0:
192,192,197449,1,0,0:0:0:53:LR4_KickTBCRs.wav
448,192,197583,1,0,0:0:0:87:LR_Drum Rpd x2.wav
320,192,197583,1,0,0:0:0:62:LR_Drum Hit Clap Sn.wav
64,192,197583,1,0,0:0:0:0:
192,192,197850,1,0,0:0:0:40:LR4_KickTBCRs.wav
320,192,197850,1,0,0:0:0:0:
448,192,198118,1,0,0:0:0:40:LR4_KickTBCRs.wav
320,192,198118,1,0,0:0:0:0:
192,192,198252,1,0,0:0:0:0:
320,192,198386,1,0,0:0:0:53:LR4_KickTBCRs.wav
448,192,198386,1,0,0:0:0:0:
64,192,198386,1,0,0:0:0:0:
448,192,198654,1,0,0:0:0:0:
320,192,198788,1,0,0:0:0:40:LR4_KickTBCRs.wav
64,192,198788,1,0,0:0:0:0:
192,192,198922,1,0,0:0:0:0:
320,192,199056,1,0,0:0:0:53:LR4_KickTBCRs.wav
448,192,199190,1,0,0:0:0:87:LR_Drum Rpd x2.wav
64,192,199190,1,0,0:0:0:62:LR_Drum Hit Clap Sn.wav
192,192,199190,1,0,0:0:0:0:
320,192,199458,1,0,0:0:0:40:LR4_KickTBCRs.wav
448,192,199458,1,0,0:0:0:0:
64,192,199725,1,0,0:0:0:87:LR_Drum Rpd x2.wav
192,192,199725,1,0,0:0:0:62:LR_Drum Hit Clap Sn.wav
320,192,199859,1,0,0:0:0:62:LR_Drum Hit Clap Sn.wav
448,192,199859,1,0,0:0:0:87:LR_Drum Rpd x2.wav
192,192,199993,1,4,0:0:0:44:
64,192,199993,1,0,0:0:0:0:
320,192,200261,1,0,0:0:0:0:
448,192,200395,1,0,0:0:0:40:LR4_KickTBCRs.wav
64,192,200395,1,0,0:0:0:0:
192,192,200529,1,0,0:0:0:0:
320,192,200663,1,0,0:0:0:53:LR4_KickTBCRs.wav
448,192,200797,1,0,0:0:0:87:LR_Drum Rpd x2.wav
192,192,200797,1,0,0:0:0:62:LR_Drum Hit Clap Sn.wav
64,192,200797,1,0,0:0:0:0:
448,192,201065,1,0,0:0:0:0:
320,192,201065,1,0,0:0:0:0:
64,192,201065,1,0,0:0:0:0:
192,192,201333,1,0,0:0:0:0:
320,192,201333,1,0,0:0:0:0:
64,192,201466,1,0,0:0:0:0:
448,192,201600,1,0,0:0:0:53:LR4_KickTBCRs.wav
320,192,201600,1,0,0:0:0:0:
192,192,201600,1,0,0:0:0:0:
64,192,201868,1,0,0:0:0:0:
192,192,202002,1,0,0:0:0:53:LR4_KickTBCRs.wav
448,192,202002,1,0,0:0:0:0:
320,192,202136,1,0,0:0:0:0:
192,192,202270,1,0,0:0:0:40:LR4_KickTBCRs.wav
448,192,202404,1,0,0:0:0:62:LR_Drum Hit Clap Sn.wav
320,192,202404,1,0,0:0:0:87:LR_Drum Rpd x2.wav
64,192,202404,1,0,0:0:0:0:
192,192,202672,1,0,0:0:0:40:LR4_KickTBCRs.wav
448,192,202672,1,0,0:0:0:0:
320,192,202940,1,0,0:0:0:53:LR4_KickTBCRs.wav
64,192,202940,1,0,0:0:0:0:
448,192,203208,1,0,0:0:0:53:LR4_KickTBCRs.wav
320,192,203208,1,0,0:0:0:0:
192,192,203208,1,0,0:0:0:0:
64,192,203475,1,0,0:0:0:0:
192,192,203609,1,0,0:0:0:40:LR4_KickTBCRs.wav
320,192,203609,1,0,0:0:0:0:
448,192,203743,1,0,0:0:0:0:
320,192,203877,1,0,0:0:0:53:LR4_KickTBCRs.wav
448,192,204011,1,0,0:0:0:87:LR_Drum Rpd x2.wav
192,192,204011,1,0,0:0:0:62:LR_Drum Hit Clap Sn.wav
64,192,204011,1,0,0:0:0:0:
64,192,204279,1,0,0:0:0:40:LR4_KickTBCRs.wav
320,192,204279,1,0,0:0:0:0:
448,192,204547,1,0,0:0:0:40:LR4_KickTBCRs.wav
64,192,204547,1,0,0:0:0:0:
192,192,204815,1,0,0:0:0:53:LR4_KickTBCRs.wav
320,192,204815,1,0,0:0:0:0:
448,192,204949,1,0,0:0:0:0:
320,192,205083,1,0,0:0:0:85:LR_Drum Rpd x2.wav
64,192,205216,1,0,0:0:0:55:LR_Drum Hit Clap Sn.wav
192,192,205216,1,0,0:0:0:90:LR_Tom Hit Z.wav
320,192,205350,1,0,0:0:0:70:LR5_Tom Normal Sn.wav
448,192,205350,1,0,0:0:0:0:
192,192,205484,1,0,0:0:0:80:LR5_Tom Drop Sn.wav
64,192,205484,1,0,0:0:0:0:
320,192,205618,1,0,0:0:0:62:LR_Drum Hit Drop High.wav
448,192,205618,1,0,0:0:0:62:LR_Drum Hit Clap Sn.wav
320,192,205886,1,0,0:0:0:55:LR_Drum Hit Clap Sn.wav
448,192,205886,1,0,0:0:0:95:LR_Tom Hit X.wav
448,192,206020,1,0,0:0:0:95:LR_Tom Hit X.wav
320,192,206020,1,0,0:0:0:65:LR_Drum Rpd x2.wav
64,192,206154,1,0,0:0:0:55:LR_Drum Hit Clap Sn.wav
192,192,206154,1,0,0:0:0:97:LR_Tom Hit Y.wav
192,192,206288,1,0,0:0:0:97:LR_Tom Hit Y.wav
64,192,206288,1,0,0:0:0:65:LR_Drum Rpd x2.wav
448,192,206422,1,0,0:0:0:69:D#4S_Eb4S.wav
192,192,206690,1,0,0:0:0:64:F6S.wav
448,192,206824,1,0,0:0:0:64:A#6S_Bb6S.wav
64,192,207091,1,0,0:0:0:64:F6S.wav
320,192,207225,1,0,0:0:0:64:A6S.wav
192,192,207493,1,0,0:0:0:64:F6S.wav
448,192,207761,1,0,0:0:0:64:A6S.wav
64,192,207940,1,0,0:0:0:0:
192,192,207984,1,0,0:0:0:0:
320,192,208029,1,0,0:0:0:69:F4S.wav
64,192,208297,1,0,0:0:0:64:A#5S_Bb5S.wav
448,192,208431,1,0,0:0:0:64:F6S.wav
64,192,208699,1,0,0:0:0:64:A#5S_Bb5S.wav
320,192,208833,1,0,0:0:0:64:D6S.wav
192,192,209100,1,0,0:0:0:64:A#5S_Bb5S.wav
320,192,209368,1,0,0:0:0:64:D6S.wav
64,192,209547,1,0,0:0:0:0:
192,192,209591,1,0,0:0:0:0:
448,192,209636,1,0,0:0:0:52:C5S.wav
64,192,209904,1,0,0:0:0:40:F5S.wav
320,192,210038,1,0,0:0:0:64:C6S.wav
64,192,210306,1,0,0:0:0:40:F5S.wav
320,192,210440,1,0,0:0:0:64:C6S.wav
192,192,210708,1,0,0:0:0:64:D6S.wav
448,192,210975,1,0,0:0:0:64:D#6S_Eb6S.wav
192,192,211243,1,0,0:0:0:69:G4S.wav
64,192,211243,1,0,0:0:0:64:D6S.wav
448,192,211511,1,0,0:0:0:40:F5S.wav
320,192,211511,1,0,0:0:0:0:
192,192,211578,1,0,0:0:0:0:
64,192,211645,1,0,0:0:0:64:D6S.wav
320,192,211913,1,0,0:0:0:40:F5S.wav
64,192,212047,1,0,0:0:0:69:F4S.wav
448,192,212047,1,0,0:0:0:64:C6S.wav
192,192,212315,1,0,0:0:0:64:A#5S_Bb5S.wav
320,192,212315,1,0,0:0:0:0:
448,192,212583,1,0,0:0:0:64:A5S.wav
64,192,212583,1,0,0:0:0:0:
192,192,212761,1,0,0:0:0:0:
320,192,212806,1,0,0:0:0:0:
448,192,212850,1,0,0:0:0:69:D#4S_Eb4S.wav
192,192,213118,1,0,0:0:0:64:F6S.wav
448,192,213252,1,0,0:0:0:64:A#6S_Bb6S.wav
64,192,213520,1,0,0:0:0:64:F6S.wav
320,192,213654,1,0,0:0:0:64:A6S.wav
192,192,213922,1,0,0:0:0:64:F6S.wav
448,192,214190,1,0,0:0:0:64:A6S.wav
64,192,214324,1,0,0:0:0:0:
192,192,214357,1,0,0:0:0:0:
320,192,214458,1,0,0:0:0:69:F4S.wav
448,192,214458,1,0,0:0:0:64:F6S.wav
64,192,214725,1,0,0:0:0:64:A#5S_Bb5S.wav
448,192,214859,1,0,0:0:0:64:F6S.wav
64,192,215127,1,0,0:0:0:64:A#5S_Bb5S.wav
320,192,215261,1,0,0:0:0:64:D6S.wav
192,192,215529,1,0,0:0:0:64:A#5S_Bb5S.wav
448,192,215797,1,0,0:0:0:64:D6S.wav
320,192,215975,1,0,0:0:0:0:
192,192,216020,1,0,0:0:0:0:
64,192,216065,1,0,0:0:0:64:C6S.wav
192,192,216333,1,0,0:0:0:40:F5S.wav
448,192,216466,1,0,0:0:0:64:C6S.wav
64,192,216734,1,0,0:0:0:40:F5S.wav
320,192,216868,1,0,0:0:0:64:A#5S_Bb5S.wav
192,192,217136,1,0,0:0:0:40:F5S.wav
448,192,217404,1,0,0:0:0:64:C6S.wav
64,192,217672,128,0,222493:0:0:0:48:A#4S_Bb4S.wav
192,192,217672,128,0,222493:0:0:0:72:A#5S_Bb5S.wav
320,192,217672,128,0,222493:0:0:0:0:
