osu file format v14

[General]
AudioFilename: audio.mp3
AudioLeadIn: 0
PreviewTime: 179763
Countdown: 0
SampleSet: Soft
StackLeniency: 0.7
Mode: 0
LetterboxInBreaks: 0
WidescreenStoryboard: 0

[Editor]
DistanceSpacing: 1.1
BeatDivisor: 16
GridSize: 4
TimelineZoom: 1.8

[Metadata]
Title:in the Garden
TitleUnicode:in the Garden
Artist:Primary
ArtistUnicode:Primary
Creator:LeeSinOrAfk
Version:trrteds
Source:
Tags:
BeatmapID:1155180
BeatmapSetID:545206

[Difficulty]
HPDrainRate:6
CircleSize:4.7
OverallDifficulty:9
ApproachRate:9.7
SliderMultiplier:1.9
SliderTickRate:1

[Events]
//Background and Video events
0,0,"In the garden bby.jpg",0,0
//Break Periods
//Storyboard Layer 0 (Background)
//Storyboard Layer 1 (Fail)
//Storyboard Layer 2 (Pass)
//Storyboard Layer 3 (Foreground)
//Storyboard Sound Samples

[TimingPoints]
634,267.857142857143,6,2,0,40,1,0
634,-166.666666666667,6,2,0,40,0,0
13491,-100,6,2,0,70,0,1
26348,-125,6,2,0,50,0,0
52062,-125,6,2,0,60,0,0
57687,-166.666666666667,6,2,0,50,0,0
58491,-100,6,2,0,70,0,1
84205,-100,6,2,0,70,0,0
87285,-100,6,2,0,5,0,0
87419,-125,6,2,0,50,0,0

[HitObjects]
140,64,634,5,0,0:0:0:0:
256,60,901,1,0,0:0:0:0:
256,60,1035,2,0,L|260:180,1,113.999996520996
152,284,1437,2,0,L|232:288,1,56.9999982604981
344,316,1705,1,0,0:0:0:0:
424,176,1973,1,0,0:0:0:0:
259,173,2241,5,0,0:0:0:0:
392,28,2509,1,0,0:0:0:0:
392,28,2642,2,0,P|336:24|252:32,1,113.999996520996
160,44,3044,2,0,P|156:80|160:112,1,56.9999982604981
259,173,3312,1,0,0:0:0:0:
428,148,3580,1,0,0:0:0:0:
376,304,3848,5,0,0:0:0:0:
207,329,4116,1,0,0:0:0:0:
207,329,4250,2,0,L|204:248,1,56.9999982604981
308,184,4517,1,0,0:0:0:0:
308,184,4651,2,0,L|312:104,1,56.9999982604981
204,44,4919,1,0,0:0:0:0:
100,184,5187,1,0,0:0:0:0:
288,268,5455,5,0,0:0:0:0:
448,112,5723,1,0,0:0:0:0:
448,112,5857,2,0,L|372:108,1,56.9999982604981
240,112,6125,1,0,0:0:0:0:
240,112,6258,2,0,L|164:116,1,56.9999982604981
92,196,6526,1,0,0:0:0:0:
224,0,6794,1,0,0:0:0:0:
327,212,7062,5,0,0:0:0:0:
208,332,7330,1,0,0:0:0:0:
208,332,7464,2,0,B|192:276|220:276|204:212,1,113.999996520996
200,124,7866,1,0,0:0:0:0:
104,248,8133,1,0,0:0:0:0:
300,304,8401,1,0,0:0:0:0:
368,120,8669,5,0,0:0:0:0:
240,72,8937,1,0,0:0:0:0:
239,72,9071,2,0,P|228:124|244:184,1,113.999996520996
356,301,9473,2,0,L|272:305,1,56.9999982604981
160,284,9741,1,0,0:0:0:0:
180,104,10009,1,0,0:0:0:0:
344,204,10276,5,0,0:0:0:0:
344,44,10544,1,0,0:0:0:0:
344,44,10678,2,0,L|348:112,1,56.9999982604981
244,136,10946,1,0,0:0:0:0:
244,136,11080,2,0,L|240:204,1,56.9999982604981
156,296,11348,1,0,0:0:0:0:
344,256,11616,1,0,0:0:0:0:
128,112,11884,5,0,0:0:0:0:
128,112,13491,6,0,L|124:216,1,95
256,296,13759,1,0,0:0:0:0:
384,112,13892,2,0,L|388:216,1,95
256,28,14160,1,0,0:0:0:0:
123,207,14294,6,0,P|168:220|216:208,1,95
256,28,14562,2,0,P|223:61|210:107,1,95
345,232,14830,2,0,P|332:186|299:153,1,95
180,360,15098,6,0,L|284:356,1,95
440,312,15366,1,0,0:0:0:0:
299,153,15500,2,0,L|393:156,1,95
184,32,15767,1,0,0:0:0:0:
124,216,15901,5,0,0:0:0:0:
264,68,16035,1,0,0:0:0:0:
344,236,16169,1,0,0:0:0:0:
152,100,16303,5,0,0:0:0:0:
228,288,16437,1,0,0:0:0:0:
356,120,16571,1,0,0:0:0:0:
124,328,16705,6,0,L|8:324,1,95
240,184,16973,1,0,0:0:0:0:
420,184,17107,2,0,L|416:300,1,95
276,68,17375,1,0,0:0:0:0:
280,280,17509,6,0,P|232:276|184:300,1,95
292,120,17776,2,0,P|312:163|357:193,1,95
147,189,18044,2,0,P|174:149|177:95,1,95
440,36,18312,6,0,L|436:144,1,95
432,288,18580,1,0,0:0:0:0:
292,120,18714,2,0,L|296:228,1,95
160,152,18982,1,0,0:0:0:0:
160,152,19049,1,0,0:0:0:0:
160,152,19116,6,0,L|60:148,1,95
224,48,19384,1,0,0:0:0:0:
68,276,19517,1,0,0:0:0:0:
72,28,19651,1,0,0:0:0:0:
228,248,19784,1,0,0:0:0:0:
392,32,19919,6,0,P|400:80|388:128,1,95
304,248,20187,1,0,0:0:0:0:
184,120,20321,2,0,P|232:112|280:124,1,95
424,252,20589,1,0,0:0:0:0:
244,360,20723,6,0,L|124:356,1,95
280,200,20991,2,0,L|400:196,1,95
96,132,21259,2,0,L|-24:128,1,95
264,4,21526,6,0,P|272:48|260:104,1,95
448,196,21794,1,0,0:0:0:0:
256,360,21928,2,0,P|248:316|260:260,1,95
64,196,22196,1,0,0:0:0:0:
348,184,22330,5,0,0:0:0:0:
152,96,22464,1,0,0:0:0:0:
380,56,22598,1,0,0:0:0:0:
192,240,22732,5,0,0:0:0:0:
264,40,22866,1,0,0:0:0:0:
320,304,23000,1,0,0:0:0:0:
64,196,23134,6,0,L|60:308,1,95
256,148,23401,1,0,0:0:0:0:
256,148,23535,2,0,L|144:144,1,95
304,340,23803,1,0,0:0:0:0:
464,176,23937,6,0,P|472:129|461:83,1,95
269,211,24205,2,0,P|305:241|350:255,1,95
336,24,24473,2,0,P|291:40|256:72,1,95
60,164,24741,6,0,L|168:160,1,95
360,140,25009,1,0,0:0:0:0:
280,352,25142,2,0,L|185:348,1,95
264,148,25410,1,0,0:0:0:0:
264,148,25477,1,0,0:0:0:0:
264,148,25544,5,0,0:0:0:0:
280,352,25678,1,0,0:0:0:0:
352,196,25812,1,0,0:0:0:0:
368,296,25946,1,0,0:0:0:0:
444,236,26080,1,0,0:0:0:0:
444,236,26214,1,0,0:0:0:0:
396,80,26348,5,0,0:0:0:0:
260,28,26616,1,0,0:0:0:0:
260,28,26750,2,0,P|244:108|276:192,1,152
208,272,27151,2,0,L|104:276,1,76
56,168,27419,1,0,0:0:0:0:
64,156,27687,2,0,L|140:159,1,76
332,104,27955,6,0,L|328:284,1,152
480,256,28357,2,0,L|476:104,1,152
400,8,28759,1,0,0:0:0:0:
384,0,29026,1,0,0:0:0:0:
204,36,29294,1,0,0:0:0:0:
332,160,29562,6,0,L|248:164,1,76
160,276,29830,1,0,0:0:0:0:
160,276,29964,2,0,L|244:280,1,76
132,152,30232,1,0,0:0:0:0:
132,152,30366,2,0,L|128:64,1,76
300,4,30634,1,0,0:0:0:0:
300,4,30767,2,0,L|296:92,1,76
305,280,31035,1,0,0:0:0:0:
305,280,31169,6,0,P|232:259|160:280,1,152
160,140,31571,2,0,P|232:160|304:139,1,152
104,208,31973,1,0,0:0:0:0:
360,208,32241,1,0,0:0:0:0:
240,12,32509,2,0,L|156:16,1,76
420,0,32776,6,0,B|444:72|400:72|428:156,1,152
498,217,33178,2,0,B|524:140|480:140|504:68,1,152
404,240,33580,2,0,L|296:236,1,76
256,168,33848,2,0,L|180:170,1,76
232,272,34116,1,0,0:0:0:0:
236,292,34384,6,0,P|196:300|148:288,1,76
80,192,34651,1,0,0:0:0:0:
161,89,34785,2,0,P|199:84|236:92,2,76
320,192,35187,1,0,0:0:0:0:
336,184,35455,2,0,L|340:264,1,76
456,104,35723,2,0,L|452:184,1,76
336,40,35991,6,0,P|262:23|188:40,1,152
80,152,36392,2,0,P|153:135|227:152,1,152
336,264,36794,2,0,P|299:255|262:263,1,76
432,304,37062,1,0,0:0:0:0:
432,304,37196,2,0,P|440:267|432:227,1,76
348,156,37464,1,0,0:0:0:0:
348,156,37598,6,0,P|384:147|328:120,1,152
260,229,38000,2,0,P|225:278|211:219,1,152
188,100,38401,1,0,0:0:0:0:
196,84,38669,1,0,0:0:0:0:
348,12,38937,2,0,L|264:8,1,76
452,52,39205,5,0,0:0:0:0:
356,188,39473,1,0,0:0:0:0:
356,188,39607,2,0,L|352:288,1,76
204,268,39875,1,0,0:0:0:0:
204,268,40009,2,0,L|200:192,1,76
88,128,40276,1,0,0:0:0:0:
76,144,40544,2,0,L|0:142,1,76
48,336,40812,6,0,B|120:348|120:348|200:336,1,152
296,232,41214,2,0,B|224:244|224:244|144:232,1,152
242,127,41616,1,0,0:0:0:0:
252,112,41884,1,0,0:0:0:0:
396,56,42151,1,0,0:0:0:0:
368,196,42419,6,0,L|464:200,1,76
260,308,42687,1,0,0:0:0:0:
260,308,42821,2,0,L|360:304,1,76
224,172,43089,1,0,0:0:0:0:
224,172,43223,2,0,L|52:168,1,152
184,32,43625,2,0,L|356:28,1,152
408,160,44026,6,0,B|380:230|432:230|404:310,1,152
472,196,44428,2,0,L|340:272,1,152
196,296,44830,1,0,0:0:0:0:
184,288,45098,1,0,0:0:0:0:
220,140,45366,1,0,0:0:0:0:
220,140,45500,1,0,0:0:0:0:
300,212,45634,6,0,P|323:141|299:68,1,152
464,72,46035,2,0,P|441:143|465:214,1,152
420,316,46437,2,0,P|384:308|344:316,1,76
224,304,46705,1,0,0:0:0:0:
208,296,46973,2,0,P|199:259|208:220,1,76
156,120,47241,6,0,B|232:92|232:136|305:116,1,152
432,116,47642,2,0,L|428:276,1,152
308,332,48044,1,0,0:0:0:0:
292,336,48312,1,0,0:0:0:0:
232,176,48580,1,0,0:0:0:0:
120,288,48848,6,0,L|212:284,1,76
328,228,49116,1,0,0:0:0:0:
328,228,49250,2,0,P|324:188|344:136,1,76,0|0,0:0|0:0,2:0:0:0:
240,76,49517,1,0,0:0:0:0:
240,76,49651,2,0,P|207:99|152:108,1,76,0|0,0:0|0:0,2:0:0:0:
152,228,49919,1,0,0:0:0:0:
152,228,50053,2,0,P|188:244|223:287,1,76,0|0,0:0|0:0,2:0:0:0:
320,344,50321,1,0,0:0:0:0:
320,344,50455,6,0,L|428:340,1,76
464,252,50723,1,0,0:0:0:0:
464,252,50857,1,0,0:0:0:0:
336,180,50991,1,0,0:0:0:0:
336,180,51125,1,0,0:0:0:0:
448,144,51259,5,0,0:0:0:0:
340,280,51392,1,0,0:0:0:0:
332,80,51526,1,0,0:0:0:0:
200,288,51660,5,0,0:0:0:0:
336,180,51793,1,0,0:0:0:0:
136,172,51927,1,0,0:0:0:0:
240,40,52062,6,0,L|236:220,1,152
152,68,52464,1,0,0:0:0:0:
328,72,52598,1,0,0:0:0:0:
236,192,52732,1,0,0:0:0:0:
420,204,52866,6,0,P|432:276|408:368,1,152
296,268,53267,1,0,0:0:0:0:
420,204,53401,1,0,0:0:0:0:
415,352,53535,1,0,0:0:0:0:
300,152,53669,6,0,P|226:135|151:147,1,152
232,20,54071,1,0,0:0:0:0:
300,152,54205,1,0,0:0:0:0:
151,147,54339,1,0,0:0:0:0:
400,56,54473,6,0,L|404:156,1,76
312,252,54741,2,0,L|308:352,1,76
240,116,55009,1,0,0:0:0:0:
240,116,55142,1,0,0:0:0:0:
152,240,55276,6,0,L|64:236,1,76
312,252,55544,2,0,L|400:248,1,76
240,116,55812,2,0,L|132:120,1,76
232,288,56080,5,0,0:0:0:0:
232,288,56214,1,0,0:0:0:0:
344,156,56348,1,0,0:0:0:0:
344,156,56482,1,0,0:0:0:0:
168,124,56616,1,0,0:0:0:0:
168,124,56750,1,0,0:0:0:0:
336,256,56884,5,0,0:0:0:0:
264,72,57017,1,0,0:0:0:0:
144,224,57151,1,0,0:0:0:0:
356,248,57285,1,0,0:0:0:0:
256,56,57419,1,0,0:0:0:0:
120,232,57553,1,0,0:0:0:0:
352,132,57687,6,0,L|476:128,2,113.999996520996
103,51,58491,6,0,P|111:98|97:143,1,95
192,284,58759,1,0,0:0:0:0:
352,132,58892,2,0,P|344:178|358:223,1,95
248,36,59160,1,0,0:0:0:0:
101,237,59294,6,0,L|97:142,1,95
358,223,59562,2,0,L|354:317,1,95
248,36,59830,2,0,L|342:39,1,95
224,192,60098,5,0,0:0:0:0:
420,124,60232,1,0,0:0:0:0:
420,124,60366,1,0,0:0:0:0:
256,112,60500,5,0,0:0:0:0:
392,240,60634,1,0,0:0:0:0:
392,240,60768,1,0,0:0:0:0:
176,312,60901,5,0,0:0:0:0:
336,168,61035,1,0,0:0:0:0:
136,104,61169,1,0,0:0:0:0:
300,288,61303,5,0,0:0:0:0:
256,80,61437,1,0,0:0:0:0:
92,220,61571,1,0,0:0:0:0:
371,56,61705,6,0,P|418:46|463:58,1,95
368,228,61973,1,0,0:0:0:0:
176,128,62107,2,0,P|166:81|178:36,1,95
348,140,62375,1,0,0:0:0:0:
192,304,62509,6,0,L|68:300,1,95
368,228,62776,2,0,L|492:224,1,95
176,128,63044,2,0,L|52:124,1,95
400,92,63312,6,0,B|408:44|408:44|396:-4,2,95
280,248,63714,2,0,B|288:296|288:296|276:344,1,95
212,48,63982,1,0,0:0:0:0:
212,48,64049,1,0,0:0:0:0:
212,48,64116,5,0,0:0:0:0:
300,148,64250,1,0,0:0:0:0:
188,220,64384,1,0,0:0:0:0:
16,196,64517,5,0,0:0:0:0:
116,108,64651,1,0,0:0:0:0:
188,220,64785,1,0,0:0:0:0:
420,116,64919,6,0,L|416:8,1,95
316,268,65187,1,0,0:0:0:0:
216,112,65321,2,0,L|219:17,1,95
104,264,65589,1,0,0:0:0:0:
392,184,65723,6,0,P|376:136|332:104,1,95
168,228,65991,2,0,P|217:238|267:216,1,95
241,12,66259,2,0,P|207:49|201:103,1,95
344,272,66526,6,0,B|352:316|352:316|344:368,2,95
124,144,66928,2,0,B|116:94|116:94|124:50,2,95
308,108,67330,5,0,0:0:0:0:
184,296,67464,1,0,0:0:0:0:
308,108,67598,1,0,0:0:0:0:
124,236,67732,5,0,0:0:0:0:
336,228,67866,1,0,0:0:0:0:
199,91,68000,1,0,0:0:0:0:
184,296,68134,6,0,B|144:320|64:316,1,95
280,132,68401,1,0,0:0:0:0:
116,48,68535,2,0,B|100:96|120:144,1,95
312,8,68803,1,0,0:0:0:0:
364,272,68937,6,0,L|260:268,1,95
23,144,69205,2,0,L|127:140,1,95
364,18,69473,2,0,L|260:14,1,95
304,148,69741,5,0,0:0:0:0:
136,240,69875,1,0,0:0:0:0:
136,240,70009,1,0,0:0:0:0:
208,136,70142,5,0,0:0:0:0:
216,336,70276,1,0,0:0:0:0:
320,260,70410,1,0,0:0:0:0:
320,260,70477,1,0,0:0:0:0:
320,260,70544,5,0,0:0:0:0:
112,168,70678,1,0,0:0:0:0:
320,48,70812,1,0,0:0:0:0:
196,268,70946,5,0,0:0:0:0:
184,48,71080,1,0,0:0:0:0:
56,276,71214,1,0,0:0:0:0:
319,166,71348,6,0,P|326:215|318:263,1,95
112,168,71616,1,0,0:0:0:0:
184,48,71750,2,0,P|176:97|184:145,1,95
256,304,72017,1,0,0:0:0:0:
392,188,72151,6,0,L|500:184,1,95
308,120,72419,2,0,L|257:215,1,95
408,81,72687,2,0,L|350:-10,1,95
344,264,72955,6,0,B|336:312|336:312|348:364,2,95
212,100,73357,2,0,B|164:92|164:92|112:104,2,95
172,260,73759,5,0,0:0:0:0:
364,124,73892,1,0,0:0:0:0:
248,336,74026,1,0,0:0:0:0:
212,100,74160,5,0,0:0:0:0:
364,256,74293,1,0,0:0:0:0:
100,192,74427,1,0,0:0:0:0:
316,52,74562,6,0,P|364:43|412:51,1,95
256,196,74830,1,0,0:0:0:0:
196,52,74964,2,0,P|149:44|102:51,1,95
256,196,75232,1,0,0:0:0:0:
196,332,75366,6,0,L|92:336,1,95
376,208,75634,2,0,L|480:212,1,95
196,84,75901,2,0,L|92:88,1,95
336,80,76169,5,0,0:0:0:0:
208,220,76303,1,0,0:0:0:0:
208,220,76437,1,0,0:0:0:0:
376,208,76571,5,0,0:0:0:0:
248,132,76705,1,0,0:0:0:0:
296,264,76839,1,0,0:0:0:0:
296,264,76906,1,0,0:0:0:0:
296,264,76973,5,0,0:0:0:0:
392,136,77107,1,0,0:0:0:0:
256,48,77241,1,0,0:0:0:0:
384,44,77375,5,0,0:0:0:0:
248,132,77509,1,0,0:0:0:0:
379,231,77643,1,0,0:0:0:0:
208,296,77776,6,0,L|88:292,1,95
248,132,78044,1,0,0:0:0:0:
379,231,78178,2,0,L|375:351,1,95
212,196,78446,1,0,0:0:0:0:
399,67,78580,6,0,P|416:111|452:142,1,95
248,132,78848,2,0,P|277:95|286:49,1,95
379,231,79116,2,0,P|332:223|287:238,1,95
112,108,79384,6,0,B|64:104|64:104|16:112,2,95
344,144,79785,2,0,B|392:140|392:140|440:148,2,95
184,276,80187,5,0,0:0:0:0:
248,48,80321,1,0,0:0:0:0:
316,272,80455,1,0,0:0:0:0:
120,176,80589,5,0,0:0:0:0:
344,144,80723,1,0,0:0:0:0:
120,56,80857,1,0,0:0:0:0:
408,32,80991,6,0,L|508:28,1,95
232,144,81259,1,0,0:0:0:0:
396,276,81392,2,0,L|490:279,1,95
320,84,81660,1,0,0:0:0:0:
168,284,81794,6,0,L|120:380,1,95
284,223,82062,2,0,L|224:133,1,95
278,353,82330,2,0,L|385:346,1,95
440,136,82598,6,0,B|392:124|344:136,1,95
180,212,82866,1,0,0:0:0:0:
168,24,83000,2,0,B|216:12|264:24,1,95
400,216,83267,1,0,0:0:0:0:
400,216,83334,1,0,0:0:0:0:
400,216,83401,5,0,0:0:0:0:
216,128,83535,1,0,0:0:0:0:
216,128,83669,1,0,0:0:0:0:
388,80,83803,1,0,0:0:0:0:
388,80,83937,1,0,0:0:0:0:
248,260,84071,1,0,0:0:0:0:
248,260,84205,5,0,0:0:0:0:
256,192,84272,12,0,87285,0:0:0:0:
132,312,87419,6,0,L|304:308,1,152
408,224,87821,1,0,0:0:0:0:
276,164,87955,1,0,0:0:0:0:
283,308,88089,1,0,0:0:0:0:
408,76,88223,6,0,L|232:72,1,152
124,132,88625,1,0,0:0:0:0:
249,216,88759,1,0,0:0:0:0:
256,72,88892,1,0,0:0:0:0:
120,304,89026,6,0,L|280:308,1,152
208,144,89428,1,0,0:0:0:0:
384,196,89562,1,0,0:0:0:0:
336,36,89696,2,0,L|332:104,1,38
300,160,89830,6,0,L|296:264,1,76
208,144,90098,2,0,L|210:219,1,76
116,160,90366,1,0,0:0:0:0:
116,160,90500,1,0,0:0:0:0:
272,40,90634,6,0,P|348:28|424:44,1,152
272,156,91035,1,0,0:0:0:0:
424,156,91169,1,0,0:0:0:0:
348,288,91303,1,0,0:0:0:0:
168,80,91437,6,0,P|155:154|170:228,1,152
292,80,91839,1,0,0:0:0:0:
293,232,91973,1,0,0:0:0:0:
424,156,92107,1,0,0:0:0:0:
172,84,92241,6,0,P|98:72|21:89,1,152
101,209,92642,1,0,0:0:0:0:
172,84,92776,1,0,0:0:0:0:
24,87,92910,1,0,0:0:0:0:
168,324,93044,6,0,P|242:338|316:326,1,152
244,201,93445,1,0,0:0:0:0:
168,324,93580,1,0,0:0:0:0:
316,326,93714,1,0,0:0:0:0:
316,80,93848,6,0,L|480:76,1,152
352,160,94250,1,0,0:0:0:0:
336,4,94384,1,0,0:0:0:0:
468,76,94517,1,0,0:0:0:0:
248,248,94651,6,0,L|68:244,1,152
236,168,95053,1,0,0:0:0:0:
212,328,95187,1,0,0:0:0:0:
96,244,95320,1,0,0:0:0:0:
192,52,95455,6,0,L|288:48,1,76
376,136,95723,1,0,0:0:0:0:
376,136,95857,2,0,L|372:228,1,76
232,172,96125,1,0,0:0:0:0:
232,172,96259,6,0,L|236:264,1,76
320,344,96526,1,0,0:0:0:0:
320,344,96660,1,0,0:0:0:0:
160,348,96794,1,0,0:0:0:0:
160,348,96928,1,0,0:0:0:0:
236,248,97062,5,0,0:0:0:0:
164,112,97330,1,0,0:0:0:0:
164,112,97464,2,0,P|236:124|313:110,1,152
136,208,97866,2,0,L|24:212,1,76
188,296,98134,1,0,0:0:0:0:
208,292,98401,2,0,L|288:296,1,76
392,224,98669,6,0,L|396:64,1,152
248,24,99071,2,0,L|251:175,1,152
283,295,99473,1,0,0:0:0:0:
268,308,99741,1,0,0:0:0:0:
80,252,100009,1,0,0:0:0:0:
216,64,100276,6,0,B|288:40|368:68,1,152
444,192,100678,2,0,B|372:168|292:196,1,152
216,320,101080,2,0,B|293:292|365:316,1,152
152,208,101482,2,0,B|80:184|0:212,1,152
228,76,101884,6,0,L|232:244,1,152
380,228,102285,2,0,L|383:76,1,152
308,288,102687,1,0,0:0:0:0:
304,308,102955,1,0,0:0:0:0:
132,216,103223,1,0,0:0:0:0:
132,216,103357,1,0,0:0:0:0:
44,144,103491,6,0,P|23:216|40:295,1,152
224,292,103892,2,0,P|237:217|217:145,1,152
132,80,104294,1,0,0:0:0:0:
128,64,104562,1,0,0:0:0:0:
324,80,104830,2,0,L|327:133,2,38
200,236,105098,6,0,L|380:240,1,152
