osu file format v14

[General]
AudioFilename: audio.mp3
AudioLeadIn: 0
PreviewTime: 57619
Countdown: 0
SampleSet: Soft
StackLeniency: 0.7
Mode: 0
LetterboxInBreaks: 0
WidescreenStoryboard: 0

[Editor]
DistanceSpacing: 1.7
BeatDivisor: 2
GridSize: 16
TimelineZoom: 0.9

[Metadata]
Title:in the Garden
TitleUnicode:in the Garden
Artist:Primary
ArtistUnicode:Primary
Creator:Kyuukai
Version:Shogun's Easy
Source:
Tags:yuiko yuikonnu album Meis Clauson shogunmoon yaleufeu owens pono ponoyoshi momochikun
BeatmapID:1351693
BeatmapSetID:629217

[Difficulty]
HPDrainRate:2
CircleSize:2.3
OverallDifficulty:2
ApproachRate:3
SliderMultiplier:0.699999999999999
SliderTickRate:1

[Events]
//Background and Video events
0,0,"flowers.jpg",0,0
//Break Periods
//Storyboard Layer 0 (Background)
//Storyboard Layer 1 (Fail)
//Storyboard Layer 2 (Pass)
//Storyboard Layer 3 (Foreground)
//Storyboard Sound Samples

[TimingPoints]
650,267.857142857143,6,2,65,50,1,0
650,-133.333333333333,6,2,65,50,0,0
2257,-133.333333333333,6,2,66,50,0,0
3864,-133.333333333333,6,2,67,50,0,0
5203,-133.333333333333,6,2,100,50,0,0
5471,-133.333333333333,6,2,66,50,0,0
5739,-133.333333333333,6,2,67,50,0,0
5873,-133.333333333333,6,2,66,50,0,0
6141,-133.333333333333,6,2,67,50,0,0
6275,-133.333333333333,6,2,68,50,0,0
7078,-133.333333333333,6,2,65,50,0,0
8685,-133.333333333333,6,2,66,50,0,0
10292,-133.333333333333,6,2,67,50,0,0
11096,-133.333333333333,6,2,68,50,0,0
11364,-133.333333333333,6,2,67,50,0,0
11632,-133.333333333333,6,2,68,50,0,0
13490,267.857142857143,6,2,3,60,1,0
13490,-133.333333333333,6,2,3,60,0,0
13624,-133.333333333333,6,2,1,60,0,0
15097,-133.333333333333,6,2,3,60,0,0
15231,-133.333333333333,6,2,1,60,0,0
16704,-133.333333333333,6,2,3,60,0,0
16838,-133.333333333333,6,2,1,60,0,0
18311,-133.333333333333,6,2,3,60,0,0
18445,-133.333333333333,6,2,1,60,0,0
19919,-133.333333333333,6,2,3,60,0,0
20052,-133.333333333333,6,2,1,60,0,0
21526,-133.333333333333,6,2,3,60,0,0
21660,-133.333333333333,6,2,1,60,0,0
23133,-133.333333333333,6,2,3,60,0,0
23267,-133.333333333333,6,2,1,60,0,0
24740,-133.333333333333,6,2,3,60,0,0
24874,-133.333333333333,6,2,1,60,0,0
25811,-133.333333333333,6,2,1,65,0,0
26079,-133.333333333333,6,2,1,70,0,0
26347,-133.333333333333,6,2,2,50,0,0
26615,-133.333333333333,6,2,1,50,0,0
39204,-133.333333333333,6,2,2,60,0,0
39472,-133.333333333333,6,2,1,60,0,0
45633,-133.333333333333,6,2,2,60,0,0
45900,-133.333333333333,6,2,1,60,0,0
52061,-133.333333333333,6,2,2,50,0,0
52329,-133.333333333333,6,2,1,50,0,0
52865,-133.333333333333,6,2,2,50,0,0
53133,-133.333333333333,6,2,1,50,0,0
53669,-133.333333333333,6,2,2,50,0,0
53936,-133.333333333333,6,2,1,50,0,0
54472,-133.333333333333,6,2,2,50,0,0
54740,-133.333333333333,6,2,1,50,0,0
55285,267.857142857143,6,2,2,50,1,0
55285,-133.333333333333,6,2,2,50,0,0
55418,-133.333333333333,6,2,1,50,0,0
56088,-133.333333333333,6,2,2,55,0,0
56222,-133.333333333333,6,2,1,55,0,0
56883,267.857142857143,6,2,2,60,1,0
56883,-133.333333333333,6,2,2,60,0,0
57016,-133.333333333333,6,2,1,60,0,0
57150,-133.333333333333,6,2,1,65,0,0
57418,-133.333333333333,6,2,1,65,0,0
57686,-133.333333333333,6,2,99,65,0,0
57954,-133.333333333333,6,2,95,50,0,0
58222,-133.333333333333,6,2,96,50,0,0
58490,-133.333333333333,6,2,75,70,0,1
58624,-133.333333333333,6,2,96,70,0,1
59561,-133.333333333333,6,2,95,70,0,1
59829,-133.333333333333,6,2,94,70,0,1
60097,-133.333333333333,6,2,76,70,0,1
60231,-133.333333333333,6,2,94,70,0,1
61168,-133.333333333333,6,2,95,70,0,1
61436,-133.333333333333,6,2,94,70,0,1
61704,-133.333333333333,6,2,77,70,0,1
61838,-133.333333333333,6,2,93,70,0,1
62775,-133.333333333333,6,2,92,70,0,1
63043,-133.333333333333,6,2,91,70,0,1
63311,-133.333333333333,6,2,78,70,0,1
63445,-133.333333333333,6,2,1,70,0,1
64115,-133.333333333333,6,2,79,70,0,1
64383,-133.333333333333,6,2,95,70,0,1
64650,-133.333333333333,6,2,96,70,0,1
64919,-133.333333333333,6,2,75,70,0,1
65052,-133.333333333333,6,2,96,70,0,1
65990,-133.333333333333,6,2,95,70,0,1
66258,-133.333333333333,6,2,94,70,0,1
66526,-133.333333333333,6,2,76,70,0,1
66659,-133.333333333333,6,2,94,70,0,1
67597,-133.333333333333,6,2,97,70,0,1
67865,-133.333333333333,6,2,94,70,0,1
68133,-133.333333333333,6,2,77,70,0,1
68267,-133.333333333333,6,2,93,70,0,1
69204,-133.333333333333,6,2,94,70,0,1
69472,-133.333333333333,6,2,95,70,0,1
69740,-133.333333333333,6,2,80,70,0,1
69874,-133.333333333333,6,2,1,70,0,1
70543,-133.333333333333,6,2,79,70,0,1
70811,-133.333333333333,6,2,95,70,0,1
71079,-133.333333333333,6,2,96,70,0,1
71347,-133.333333333333,6,2,75,70,0,1
71481,-133.333333333333,6,2,96,70,0,1
72418,-133.333333333333,6,2,95,70,0,1
72686,-133.333333333333,6,2,94,70,0,1
72954,-133.333333333333,6,2,76,70,0,1
73088,-133.333333333333,6,2,94,70,0,1
74025,-133.333333333333,6,2,95,70,0,1
74293,-133.333333333333,6,2,94,70,0,1
74561,-133.333333333333,6,2,77,70,0,1
74695,-133.333333333333,6,2,93,70,0,1
75633,-133.333333333333,6,2,92,70,0,1
75900,-133.333333333333,6,2,91,70,0,1
76169,-133.333333333333,6,2,78,70,0,1
76302,-133.333333333333,6,2,1,70,0,1
76972,-133.333333333333,6,2,79,70,0,1
77240,-133.333333333333,6,2,95,70,0,1
77508,-133.333333333333,6,2,96,70,0,1
77776,-133.333333333333,6,2,75,70,0,1
77910,-133.333333333333,6,2,96,70,0,1
78847,-133.333333333333,6,2,95,70,0,1
79115,-133.333333333333,6,2,94,70,0,1
79383,-133.333333333333,6,2,76,70,0,1
79517,-133.333333333333,6,2,94,70,0,1
80454,-133.333333333333,6,2,97,70,0,1
80722,-133.333333333333,6,2,94,70,0,1
80990,-133.333333333333,6,2,77,70,0,1
81124,-133.333333333333,6,2,93,70,0,1
82061,-133.333333333333,6,2,94,70,0,1
82329,-133.333333333333,6,2,95,70,0,1
82597,-133.333333333333,6,2,80,70,0,1
82731,-133.333333333333,6,2,1,70,0,1
83400,-133.333333333333,6,2,82,70,0,1
83534,-133.333333333333,6,2,1,70,0,1
83936,-133.333333333333,6,2,96,70,0,1
84204,-133.333333333333,6,2,81,60,0,0
84335,-133.333333333333,6,2,1,60,0,0
90633,-133.333333333333,6,2,2,60,0,0
90766,-133.333333333333,6,2,1,60,0,0
97061,-133.333333333333,6,2,2,50,0,0
97329,-133.333333333333,6,2,65,50,0,0
98668,-133.333333333333,6,2,66,50,0,0
100275,-133.333333333333,6,2,67,50,0,0
101615,-133.333333333333,6,2,100,50,0,0
101883,-133.333333333333,6,2,66,50,0,0
102552,-133.333333333333,6,2,68,50,0,0
103490,-133.333333333333,6,2,65,50,0,0
105097,-133.333333333333,6,2,66,50,0,0
106704,-133.333333333333,6,2,67,50,0,0
107508,-133.333333333333,6,2,68,50,0,0
107775,-133.333333333333,6,2,67,50,0,0
108043,-133.333333333333,6,2,68,50,0,0
108980,-133.333333333333,6,2,1,25,0,0
109784,-133.333333333333,6,2,1,20,0,0
110588,-133.333333333333,6,2,1,15,0,0
111525,-133.333333333333,6,2,1,5,0,0

[Colours]
Combo1 : 55,155,255
Combo2 : 69,200,13
Combo3 : 249,240,134
Combo4 : 255,173,91

[HitObjects]
308,68,650,6,0,P|235:32|162:61,1,157.500006008148,2|2,0:0|0:0,0:0:0:0:
98,112,1721,2,0,L|104:175,1,52.5000020027161,4|2,0:0|0:0,0:0:0:0:
183,204,2257,2,0,L|169:369,1,157.500006008148,2|8,0:0|0:0,0:0:0:0:
258,359,3328,2,0,P|287:356|319:357,1,52.5000020027161,4|8,0:0|0:0,0:0:0:0:
399,361,3864,6,0,P|456:321|449:230,1,157.500006008148,2|2,0:0|0:0,0:0:0:0:
407,163,4935,2,0,L|348:157,1,52.5000020027161,8|2,0:0|0:0,0:0:0:0:
283,102,5471,2,0,L|124:116,1,157.500006008148,8|2,0:0|0:0,0:0:0:0:
73,188,6542,2,0,P|72:218|76:251,1,52.5000020027161,4|8,0:0|0:0,0:0:0:0:
153,282,7078,6,0,P|227:281|279:350,1,157.500006008148,2|2,0:0|0:0,0:0:0:0:
366,337,8150,2,0,L|370:280,1,52.5000020027161,4|2,0:0|0:0,0:0:0:0:
312,216,8685,2,0,L|301:58,1,157.500006008148,2|8,0:0|0:0,0:0:0:0:
388,40,9757,2,0,P|415:38|444:45,1,52.5000020027161,4|8,0:0|0:0,0:0:0:0:
482,121,10292,6,0,P|469:197|393:228,1,157.500006008148,2|2,0:0|0:0,0:0:0:0:
312,216,11364,2,0,L|246:209,1,52.5000020027161,4|2,0:0|0:0,0:0:0:0:
203,140,11900,1,4,0:0:0:0:
33,294,13490,6,0,P|107:342|175:318,1,157.500006008148,12|8,0:0|0:0,0:0:0:0:
206,243,14561,1,8,0:0:0:0:
164,163,14829,1,8,0:0:0:0:
197,80,15097,2,0,B|280:66|275:121|352:97,1,157.500006008148,12|8,0:0|0:0,0:0:0:0:
412,34,16168,1,8,0:3:0:0:
497,59,16436,1,8,0:3:0:0:
512,144,16704,6,0,B|522:250|522:250|493:305,1,157.500006008148,12|8,0:0|0:0,0:0:0:0:
434,358,17775,1,8,0:0:0:0:
344,360,18043,1,8,0:0:0:0:
293,286,18311,2,0,P|244:242|155:254,1,157.500006008148,12|8,0:0|0:0,0:0:0:0:
114,330,19382,1,8,0:0:0:0:
25,342,19650,1,8,0:0:0:0:
3,255,19918,6,0,B|-11:151|-11:151|17:88,1,157.500006008148,12|8,0:0|0:0,0:0:0:0:
67,33,20990,1,8,0:0:0:0:
155,35,21257,1,8,0:0:0:0:
213,102,21525,2,0,P|291:139|358:103,1,157.500006008148,12|8,0:0|0:3,0:0:0:0:
390,31,22597,1,8,0:3:0:0:
479,35,22865,1,8,0:3:0:0:
507,119,23132,6,0,P|493:191|492:293,1,157.500006008148,12|8,0:0|0:0,0:0:0:0:
430,341,24204,1,8,0:0:0:0:
369,275,24472,1,8,0:0:0:0:
303,336,24740,2,0,P|204:354|144:316,1,157.500006008148,12|8,0:0|0:0,0:0:0:0:
89,271,25811,1,8,0:0:0:0:
55,188,26079,1,8,0:0:0:0:
112,119,26347,6,0,B|209:78|209:78|328:88,1,210.000008010864,12|0,0:0|0:0,0:0:0:0:
439,212,27954,2,0,L|219:192,1,210.000008010864,4|0,0:0|0:0,0:0:0:0:
105,320,29561,2,0,P|198:357|319:337,1,210.000008010864,4|0,0:0|0:0,0:0:0:0:
452,243,31168,2,0,L|437:75,1,157.500006008148,4|2,0:0|0:0,0:0:0:0:
360,41,32240,2,0,P|319:35|285:37,1,52.5000020027161,0|0,0:0|0:0,0:0:0:0:
237,89,32775,6,0,B|121:58|141:139|17:101,1,210.000008010864,4|0,0:0|0:0,0:0:0:0:
42,284,34382,2,0,P|139:318|243:262,1,210.000008010864,4|0,0:0|0:0,0:0:0:0:
330,126,35990,2,0,P|231:92|120:138,1,210.000008010864,4|0,0:0|0:0,0:0:0:0:
231,275,37597,2,0,B|312:295|312:295|386:265,1,157.500006008148,4|2,0:0|0:0,0:0:0:0:
460,226,38668,2,0,L|466:156,1,52.5000020027161,2|8,0:0|0:0,0:0:0:0:
455,84,39204,6,0,P|374:76|322:133,1,157.500006008148,4|8,0:0|0:0,0:0:0:0:
304,213,40275,2,0,P|299:240|290:273,1,52.5000020027161,0|8,0:0|0:0,0:0:0:0:
228,326,40811,2,0,L|65:318,1,157.500006008148,4|8,0:0|0:0,0:0:0:0:
29,239,41882,2,0,P|22:208|20:180,1,52.5000020027161,0|0,0:0|0:0,0:0:0:0:
23,97,42418,6,0,L|187:86,1,157.500006008148,4|8,0:0|0:0,0:0:0:0:
267,65,43490,2,0,L|325:69,1,52.5000020027161,0|0,0:0|0:0,0:0:0:0:
400,108,44025,2,0,B|424:156|424:156|404:276,1,157.500006008148,4|8,0:0|0:0,0:0:0:0:
355,331,45097,1,8,0:0:0:0:
266,338,45365,1,8,0:0:0:0:
244,252,45632,6,0,P|232:148|207:95,1,157.500006008148,4|8,0:0|0:0,0:0:0:0:
138,47,46704,2,0,L|79:55,1,52.5000020027161,0|0,0:0|0:0,0:0:0:0:
50,136,47240,2,0,P|62:240|87:293,1,157.500006008148,4|8,0:0|0:0,0:0:0:0:
165,322,48311,2,0,P|189:318|224:316,1,52.5000020027161,0|0,0:0|0:0,0:0:0:0:
304,335,48847,6,0,B|386:370|383:312|460:340,1,157.500006008148,4|8,0:0|0:0,0:0:0:0:
500,260,49918,2,0,L|495:202,1,52.5000020027161,0|0,0:0|0:0,0:0:0:0:
480,119,50454,2,0,P|430:53|356:45,1,157.500006008148,4|8,0:0|0:0,0:0:0:0:
271,55,51525,2,0,L|198:49,1,52.5000020027161,8|8,0:0|0:3,0:0:0:0:
137,88,52061,6,0,B|122:164|122:164|143:245,2,157.500006008148,12|12|12,0:0|0:0|0:0,0:0:0:0:
398,142,54472,1,12,0:0:0:0:
214,340,55285,2,0,P|141:362|71:323,1,157.500006008148,12|12,0:0|0:0,0:0:0:0:
290,174,56883,2,0,P|362:142|442:170,1,157.500006008148,12|14,0:0|0:0,0:0:0:0:
182,74,58490,6,0,L|21:67,1,157.500006008148,14|10,0:0|0:0,0:0:0:0:
0,153,59561,2,0,P|-3:183|1:217,1,52.5000020027161,10|10,0:0|0:0,0:0:0:0:
61,268,60097,2,0,L|54:352,2,78.7500030040741,14|8|10,0:0|0:0|0:0,0:0:0:0:
142,230,61168,1,10,0:0:0:0:
298,316,61704,6,0,P|349:328|456:306,1,157.500006008148,14|10,0:0|0:0,0:0:0:0:
489,228,62775,2,0,L|484:166,1,52.5000020027161,10|10,0:0|0:0,0:0:0:0:
442,96,63311,2,0,P|391:84|284:106,1,157.500006008148,14|14,0:0|0:0,0:0:0:0:
202,127,64383,1,10,0:0:0:0:
38,194,64918,6,0,B|53:353,1,157.500006008148,14|10,0:0|0:0,0:0:0:0:
141,362,65990,2,0,P|169:357|199:354,1,52.5000020027161,10|10,0:0|0:0,0:0:0:0:
281,348,66525,2,0,P|319:352|367:348,2,78.7500030040741,14|8|10,0:0|0:0|0:0,0:0:0:0:
236,270,67597,1,10,0:0:0:0:
273,95,68133,6,0,P|344:56|422:53,1,157.500006008148,14|10,0:0|0:0,0:0:0:0:
489,107,69204,2,0,L|498:164,1,52.5000020027161,10|10,0:0|0:0,0:0:0:0:
490,248,69740,2,0,P|419:287|341:290,1,157.500006008148,14|14,0:0|0:0,0:0:0:0:
265,247,70811,1,10,0:0:0:0:
176,91,71347,6,0,B|115:43|115:43|30:49,1,157.500006008148,14|10,0:0|0:0,0:0:0:0:
2,131,72418,2,0,L|9:194,1,52.5000020027161,10|10,0:0|0:0,0:0:0:0:
66,251,72954,2,0,L|55:337,2,78.7500030040741,14|8|10,0:0|0:0|0:0,0:0:0:0:
150,222,74025,1,10,0:0:0:0:
294,327,74561,6,0,P|369:344|450:313,1,157.500006008148,14|10,0:0|0:0,0:0:0:0:
489,241,75633,2,0,L|483:183,1,52.5000020027161,10|10,0:0|0:0,0:0:0:0:
415,131,76168,2,0,P|337:135|268:173,1,157.500006008148,14|14,0:0|0:0,0:0:0:0:
218,247,77240,1,10,0:0:0:0:
43,212,77775,6,0,B|31:55,1,157.500006008148,14|10,0:0|0:0,0:0:0:0:
117,32,78847,2,0,P|148:28|180:33,1,52.5000020027161,10|10,0:0|0:0,0:0:0:0:
254,57,79383,2,0,L|245:146,2,78.7500030040741,14|8|10,0:0|0:0|0:0,0:0:0:0:
339,30,80454,1,10,0:0:0:0:
467,154,80990,6,0,B|492:236|442:234|471:315,1,157.500006008148,14|10,0:0|0:0,0:0:0:0:
397,362,82061,2,0,L|336:358,1,52.5000020027161,10|10,0:0|0:0,0:0:0:0:
276,300,82597,2,0,L|116:310,2,157.500006008148,14|14|14,0:0|0:0|0:0,0:0:0:0:
256,192,84338,12,12,87418,0:0:0:0:
55,76,89025,6,0,P|40:156|29:235,1,157.500006008148,12|8,0:0|0:0,0:0:0:0:
20,320,90097,2,0,L|76:328,1,52.5000020027161,8|8,0:0|0:0,0:0:0:0:
158,302,90633,6,0,B|236:284|236:284|316:308,1,157.500006008148,12|8,0:0|0:0,0:0:0:0:
395,331,91704,1,8,0:0:0:0:
477,296,91972,1,8,0:0:0:0:
503,210,92240,2,0,P|517:133|465:52,1,157.500006008148,12|8,0:0|0:0,0:0:0:0:
400,27,93311,1,8,0:0:0:0:
311,41,93579,1,8,0:0:0:0:
293,128,93847,6,0,P|222:155|134:126,1,157.500006008148,12|8,0:0|0:0,0:0:0:0:
113,51,94918,1,8,0:0:0:0:
23,46,95186,1,8,0:0:0:0:
0,132,95454,2,0,B|-20:188|-20:188|0:286,1,157.500006008148,12|8,0:0|0:0,0:0:0:0:
47,359,96525,1,8,0:0:0:0:
135,367,96793,1,8,0:0:0:0:
185,293,97061,6,0,P|256:257|325:289,1,157.500006008148,6|8,0:0|0:0,0:0:0:0:
364,365,98133,2,0,L|426:360,1,52.5000020027161,4|8,0:0|0:0,0:0:0:0:
467,287,98668,2,0,P|485:212|452:133,1,157.500006008148,2|8,0:0|0:0,0:0:0:0:
387,83,99740,2,0,L|328:79,1,52.5000020027161,4|8,0:0|0:0,0:0:0:0:
259,127,100275,6,0,L|267:296,1,157.500006008148,2|2,0:0|0:0,0:0:0:0:
209,353,101347,2,0,P|183:356|155:352,1,52.5000020027161,8|2,0:0|0:0,0:0:0:0:
92,289,101883,2,0,L|85:124,1,157.500006008148,8|2,0:0|0:0,0:0:0:0:
131,55,102954,2,0,P|160:50|192:54,1,52.5000020027161,4|8,0:0|0:0,0:0:0:0:
259,97,103490,6,0,P|332:118|407:83,1,157.500006008148,2|8,0:0|0:0,0:0:0:0:
490,64,104561,2,0,L|486:124,1,52.5000020027161,4|8,0:0|0:0,0:0:0:0:
430,186,105097,2,0,L|441:349,1,157.500006008148,2|8,0:0|0:0,0:0:0:0:
352,358,106168,2,0,L|293:353,1,52.5000020027161,4|8,0:0|0:0,0:0:0:0:
223,305,106704,6,0,P|191:238|109:225,1,157.500006008148,2|4,0:0|0:0,0:0:0:0:
33,185,107775,2,0,P|35:158|39:128,1,52.5000020027161,4|2,0:0|0:0,0:0:0:0:
96,64,108311,1,4,0:0:0:0:
256,192,108445,12,0,111525,0:0:0:0:
