osu file format v14

[General]
AudioFilename: audio.mp3
AudioLeadIn: 0
PreviewTime: 57619
Countdown: 0
SampleSet: Soft
StackLeniency: 0.7
Mode: 0
LetterboxInBreaks: 0
WidescreenStoryboard: 0

[Editor]
Bookmarks: 13546,58546,77783,84262,90636,97064,111525
DistanceSpacing: 1.3
BeatDivisor: 4
GridSize: 16
TimelineZoom: 1.1

[Metadata]
Title:in the Garden
TitleUnicode:in the Garden
Artist:Primary
ArtistUnicode:Primary
Creator:Kyuukai
Version:Owens' Insane
Source:
Tags:yuiko yuikonnu album Meis Clauson shogunmoon yaleufeu owens pono ponoyoshi momochikun
BeatmapID:1354320
BeatmapSetID:629217

[Difficulty]
HPDrainRate:5.5
CircleSize:3.4
OverallDifficulty:7
ApproachRate:9
SliderMultiplier:1.5
SliderTickRate:1

[Events]
//Background and Video events
0,0,"flowers.jpg",0,0
//Break Periods
//Storyboard Layer 0 (Background)
//Storyboard Layer 1 (Fail)
//Storyboard Layer 2 (Pass)
//Storyboard Layer 3 (Foreground)
//Storyboard Sound Samples

[TimingPoints]
650,267.857142857143,6,2,65,50,1,0
650,-200,6,2,65,50,0,0
2257,-200,6,2,66,50,0,0
3864,-200,6,2,67,50,0,0
5203,-200,6,2,100,50,0,0
5471,-200,6,2,66,50,0,0
5739,-200,6,2,67,50,0,0
5873,-200,6,2,66,50,0,0
6141,-200,6,2,67,50,0,0
6275,-200,6,2,68,50,0,0
7078,-200,6,2,65,50,0,0
8685,-200,6,2,66,50,0,0
10292,-200,6,2,67,50,0,0
11096,-200,6,2,68,50,0,0
11364,-200,6,2,67,50,0,0
11632,-200,6,2,68,50,0,0
13490,267.857142857143,6,2,3,60,1,0
13490,-100,6,2,3,60,0,0
13624,-100,6,2,1,60,0,0
15097,-100,6,2,3,60,0,0
15231,-100,6,2,1,60,0,0
16704,-100,6,2,3,60,0,0
16838,-100,6,2,1,60,0,0
18311,-100,6,2,3,60,0,0
18445,-100,6,2,1,60,0,0
19919,-100,6,2,3,60,0,0
20052,-100,6,2,1,60,0,0
21526,-100,6,2,3,60,0,0
21660,-100,6,2,1,60,0,0
23133,-100,6,2,3,60,0,0
23267,-100,6,2,1,60,0,0
24740,-100,6,2,3,60,0,0
24874,-100,6,2,1,60,0,0
25811,-100,6,2,1,65,0,0
26079,-100,6,2,1,70,0,0
26347,-166.666666666667,6,2,2,50,0,0
26615,-166.666666666667,6,2,1,50,0,0
39204,-142.857142857143,6,2,2,60,0,0
39472,-142.857142857143,6,2,1,60,0,0
45633,-142.857142857143,6,2,2,60,0,0
45900,-142.857142857143,6,2,1,60,0,0
52061,-166.666666666667,6,2,2,50,0,0
52329,-125,6,2,1,50,0,0
52865,-125,6,2,2,50,0,0
53133,-125,6,2,1,50,0,0
53669,-125,6,2,2,50,0,0
53936,-125,6,2,1,50,0,0
54472,-125,6,2,2,50,0,0
54740,-125,6,2,1,50,0,0
55285,267.857142857143,6,2,2,50,1,0
55285,-125,6,2,2,50,0,0
55418,-125,6,2,1,50,0,0
56088,-125,6,2,2,55,0,0
56222,-125,6,2,1,55,0,0
56883,267.857142857143,6,2,2,60,1,0
56883,-125,6,2,2,60,0,0
57016,-125,6,2,1,60,0,0
57150,-125,6,2,1,65,0,0
57418,-125,6,2,1,65,0,0
57686,-125,6,2,99,65,0,0
57954,-125,6,2,95,50,0,0
58222,-125,6,2,96,50,0,0
58490,-100,6,2,75,70,0,1
58624,-100,6,2,96,70,0,1
59561,-100,6,2,95,70,0,1
59829,-100,6,2,94,70,0,1
60097,-100,6,2,76,70,0,1
60231,-100,6,2,94,70,0,1
61168,-100,6,2,95,70,0,1
61436,-100,6,2,94,70,0,1
61704,-100,6,2,77,70,0,1
61838,-100,6,2,93,70,0,1
62775,-100,6,2,92,70,0,1
63043,-100,6,2,91,70,0,1
63311,-100,6,2,78,70,0,1
63445,-100,6,2,1,70,0,1
64115,-100,6,2,79,70,0,1
64383,-100,6,2,95,70,0,1
64650,-100,6,2,96,70,0,1
64919,-100,6,2,75,70,0,1
65052,-100,6,2,96,70,0,1
65990,-100,6,2,95,70,0,1
66258,-100,6,2,94,70,0,1
66526,-100,6,2,76,70,0,1
66659,-100,6,2,94,70,0,1
67597,-100,6,2,97,70,0,1
67865,-100,6,2,94,70,0,1
68133,-100,6,2,77,70,0,1
68267,-100,6,2,93,70,0,1
69204,-100,6,2,94,70,0,1
69472,-100,6,2,95,70,0,1
69740,-100,6,2,80,70,0,1
69874,-100,6,2,1,70,0,1
70543,-100,6,2,79,70,0,1
70811,-100,6,2,95,70,0,1
71079,-100,6,2,96,70,0,1
71347,-100,6,2,75,70,0,1
71481,-100,6,2,96,70,0,1
72418,-100,6,2,95,70,0,1
72686,-100,6,2,94,70,0,1
72954,-100,6,2,76,70,0,1
73088,-100,6,2,94,70,0,1
74025,-100,6,2,95,70,0,1
74293,-100,6,2,94,70,0,1
74561,-100,6,2,77,70,0,1
74695,-100,6,2,93,70,0,1
75633,-100,6,2,92,70,0,1
75900,-100,6,2,91,70,0,1
76169,-100,6,2,78,70,0,1
76302,-100,6,2,1,70,0,1
76972,-100,6,2,79,70,0,1
77240,-100,6,2,95,70,0,1
77508,-100,6,2,96,70,0,1
77776,-100,6,2,75,70,0,1
77910,-100,6,2,96,70,0,1
78847,-100,6,2,95,70,0,1
79115,-100,6,2,94,70,0,1
79383,-100,6,2,76,70,0,1
79517,-100,6,2,94,70,0,1
80454,-100,6,2,97,70,0,1
80722,-100,6,2,94,70,0,1
80990,-100,6,2,77,70,0,1
81124,-100,6,2,93,70,0,1
82061,-100,6,2,94,70,0,1
82329,-100,6,2,95,70,0,1
82597,-100,6,2,80,70,0,1
82731,-100,6,2,1,70,0,1
83400,-100,6,2,82,70,0,1
83534,-100,6,2,1,70,0,1
83936,-100,6,2,96,70,0,1
84204,-133.333333333333,6,2,81,60,0,0
84335,-133.333333333333,6,2,1,60,0,0
90633,-133.333333333333,6,2,2,60,0,0
90766,-133.333333333333,6,2,1,60,0,0
97061,-200,6,2,2,50,0,0
97329,-200,6,2,65,50,0,0
98668,-200,6,2,66,50,0,0
100275,-200,6,2,67,50,0,0
101615,-200,6,2,100,50,0,0
101883,-200,6,2,66,50,0,0
102552,-200,6,2,68,50,0,0
103490,-200,6,2,65,50,0,0
105097,-200,6,2,66,50,0,0
106704,-200,6,2,67,50,0,0
107508,-200,6,2,68,50,0,0
107775,-200,6,2,67,50,0,0
108043,-200,6,2,68,50,0,0
108311,-200,6,2,68,50,0,0
108980,-200,6,2,1,25,0,0
109784,-200,6,2,1,20,0,0
110588,-200,6,2,1,15,0,0
111525,-200,6,2,1,5,0,0

[Colours]
Combo1 : 55,155,255
Combo2 : 69,200,13
Combo3 : 249,240,134
Combo4 : 255,173,91

[HitObjects]
176,272,650,6,0,P|208:240|224:208,1,75,2|4,0:0|0:0,0:0:0:0:
112,128,1051,2,0,P|123:171|143:201,1,75,2|4,0:0|0:0,0:0:0:0:
267,143,1453,2,0,P|223:131|187:133,2,75,2|4|2,0:0|0:0|0:0,0:0:0:0:
384,192,2257,6,0,L|464:176,1,75,2|4,0:0|0:0,0:0:0:0:
304,256,2658,2,0,L|224:240,1,75,2|4,0:0|0:0,0:0:0:0:
384,320,3060,2,0,L|464:304,2,75,8|4|8,0:0|0:0|0:0,0:0:0:0:
229,240,3864,6,0,P|216:275|219:313,1,75,2|4,0:0|0:0,0:0:0:0:
146,221,4266,2,0,P|163:187|192:164,1,75,2|4,0:0|0:0,0:0:0:0:
200,80,4667,2,0,P|164:86|133:107,2,75,2|8|2,0:0|0:0|0:0,0:0:0:0:
320,112,5471,6,0,L|400:128,1,75,8|2,0:0|0:0,0:0:0:0:
480,160,5873,2,0,L|426:221,1,75,8|2,0:0|0:0,0:0:0:0:
357,272,6275,2,0,L|330:194,2,75,2|4|8,0:0|0:0|0:0,0:0:0:0:
240,320,7078,6,0,P|192:320|160:336,1,75,2|4,0:0|0:0,0:0:0:0:
64,320,7480,2,0,P|88:278|90:242,1,75,2|4,0:0|0:0,0:0:0:0:
152,168,7882,2,0,P|176:209|205:229,2,75,2|4|2,0:0|0:0|0:0,0:0:0:0:
160,48,8685,6,0,L|80:32,1,75,2|4,0:0|0:0,0:0:0:0:
260,115,9087,2,0,L|340:131,1,75,2|4,0:0|0:0,0:0:0:0:
152,168,9489,2,0,L|72:152,2,75,8|4|8,0:0|0:0|0:0,0:0:0:0:
256,240,10292,6,0,P|276:192|272:156,1,75,2|4,0:0|0:0,0:0:0:0:
160,48,10694,2,0,P|191:89|224:103,1,75,2|4,0:0|0:0,0:0:0:0:
373,59,11096,2,0,P|321:65|292:87,2,75,2|4|2,0:0|0:0|0:0,0:0:0:0:
360,160,11900,5,4,0:0:0:0:
360,160,13490,6,0,P|304:208|208:192,1,150,12|0,0:0|0:0,0:0:0:0:
168,24,13891,2,0,P|237:48|271:139,1,150,8|0,0:0|0:0,0:0:0:0:
125,179,14293,6,0,P|140:145|167:119,1,75,8|0,0:0|0:0,0:0:0:0:
231,205,14561,2,0,P|253:234|261:271,1,75,8|0,0:0|0:0,0:0:0:0:
157,285,14829,2,0,P|119:289|84:278,1,75,8|0,0:0|0:0,0:0:0:0:
231,205,15097,6,0,B|289:192|289:192|397:245,1,150,12|0,0:0|0:0,0:0:0:0:
416,320,15498,2,0,P|464:272|460:188,1,150,8|0,0:0|0:0,0:0:0:0:
400,96,15900,5,8,0:0:0:0:
316,144,16034,1,8,0:3:0:0:
246,80,16168,2,0,L|256:0,1,75,8|8,0:3|0:3,0:0:0:0:
144,112,16436,2,0,L|154:192,1,75,8|8,0:3|0:3,0:0:0:0:
112,320,16704,6,0,P|176:288|272:336,1,150,12|0,0:0|0:0,0:0:0:0:
384,304,17106,2,0,P|324:264|317:157,1,150,8|0,0:0|0:0,0:0:0:0:
480,168,17507,6,0,P|423:199|384:198,1,75,8|0,0:0|0:0,0:0:0:0:
240,159,17775,2,0,P|296:190|335:189,1,75,8|0,0:0|0:0,0:0:0:0:
448,48,18043,2,0,P|415:103|380:122,1,75,8|0,0:0|0:0,0:0:0:0:
272,40,18311,6,0,P|184:56|128:112,1,150,12|0,0:0|0:0,0:0:0:0:
144,208,18713,2,0,L|160:304,2,75,8|0|0,0:0|0:0|0:0,0:0:0:0:
240,224,19115,5,8,0:0:0:0:
328,183,19248,1,8,0:3:0:0:
377,99,19382,2,0,P|386:52|374:21,1,75,8|8,0:0|0:3,0:0:0:0:
425,183,19650,2,0,P|416:230|428:261,1,75,8|8,0:0|0:0,0:0:0:0:
464,352,19918,6,0,B|416:336|416:336|288:368,1,150,12|0,0:0|0:0,0:0:0:0:
208,352,20320,2,0,P|192:272|208:192,1,150,8|0,0:0|0:0,0:0:0:0:
240,96,20722,6,0,L|224:16,1,75,8|0,0:0|0:0,0:0:0:0:
112,80,20990,2,0,L|97:153,1,75,8|0,0:0|0:0,0:0:0:0:
203,205,21257,2,0,P|256:212|288:200,1,75,8|0,0:0|0:0,0:0:0:0:
359,138,21525,6,0,P|383:218|351:282,1,150,12|0,0:0|0:0,0:0:0:0:
256,320,21927,2,0,B|208:304|208:304|160:304|160:304|96:272,1,150,8|0,0:0|0:0,0:0:0:0:
32,192,22329,5,8,0:3:0:0:
76,104,22463,1,8,0:3:0:0:
133,179,22597,2,0,L|209:172,1,75,8|8,0:3|0:3,0:0:0:0:
336,96,22865,2,0,L|260:89,1,75,8|8,0:3|0:3,0:0:0:0:
208,272,23132,6,0,P|284:232|304:176,1,150,12|0,0:0|0:0,0:0:0:0:
171,40,23534,2,0,P|167:125|206:171,1,150,8|0,0:0|0:0,0:0:0:0:
400,192,23936,6,0,L|480:176,1,75,8|0,0:0|0:0,0:0:0:0:
416,304,24204,2,0,L|336:288,1,75,8|0,0:0|0:0,0:0:0:0:
224,224,24472,2,0,L|304:208,1,75,8|0,0:0|0:0,0:0:0:0:
170,320,24740,6,0,P|122:256|126:176,1,150,12|0,0:0|0:0,0:0:0:0:
176,80,25141,2,0,L|208:0,2,75,8|0|0,0:0|0:0|0:0,0:0:0:0:
240,144,25543,5,8,0:0:0:0:
304,208,25677,1,8,0:0:0:0:
328,121,25811,2,0,P|294:71|257:56,1,75,8|8,0:0|0:0,0:0:0:0:
304,208,26079,2,0,P|338:258|375:273,1,75,8|8,0:0|0:0,0:0:0:0:
416,336,26347,6,0,P|352:320|320:336,1,89.9999972534181,12|0,0:0|0:0,0:0:0:0:
144,272,26748,2,0,P|201:258|244:274,1,89.9999972534181,0|0,0:0|0:0,0:0:0:0:
192,352,27150,2,0,P|135:366|92:350,2,89.9999972534181,2|0|0,0:0|0:0|0:0,0:0:0:0:
144,272,27820,1,0,0:0:0:0:
144,272,27954,6,0,L|128:176,1,89.9999972534181,4|0,0:0|0:0,0:0:0:0:
256,48,28356,2,0,L|240:144,1,89.9999972534181,0|0,0:0|0:0,0:0:0:0:
224,224,28757,1,2,0:0:0:0:
400,304,29025,1,0,0:0:0:0:
384,208,29293,1,0,0:0:0:0:
368,112,29561,6,0,P|320:96|272:112,1,89.9999972534181,4|0,0:0|0:0,0:0:0:0:
240,256,29963,2,0,P|277:222|288:172,1,89.9999972534181,0|0,0:0|0:0,0:0:0:0:
179,72,30365,2,0,P|189:121|227:155,1,89.9999972534181,2|0,0:0|0:0,0:0:0:0:
288,185,30766,1,0,0:0:0:0:
144,224,31034,1,0,0:0:0:0:
144,224,31168,6,0,L|160:320,1,89.9999972534181,4|0,0:0|0:0,0:0:0:0:
256,320,31570,2,0,P|296:300|348:304,1,89.9999972534181,0|0,0:0|0:0,0:0:0:0:
384,176,31972,2,0,L|324:201,1,44.999998626709,2|0,0:0|0:0,0:0:0:0:
195,136,32240,2,0,L|246:174,1,44.999998626709,0|0,0:0|0:0,0:0:0:0:
149,244,32507,2,0,L|113:218,1,44.999998626709,0|0,0:0|0:0,0:0:0:0:
96,80,32775,6,0,P|144:32|172:24,1,89.9999972534181,4|0,0:0|0:0,0:0:0:0:
270,52,33177,2,0,P|307:77|352:84,1,89.9999972534181,0|0,0:0|0:0,0:0:0:0:
464,96,33579,2,0,L|480:0,2,89.9999972534181,2|0|0,0:0|0:0|0:0,0:0:0:0:
448,192,34248,1,0,0:0:0:0:
448,192,34382,6,0,P|403:199|366:224,1,89.9999972534181,4|0,0:0|0:0,0:0:0:0:
424,368,34784,2,0,P|439:326|436:281,1,89.9999972534181,0|0,0:0|0:0,0:0:0:0:
283,258,35186,2,0,P|311:292|351:312,2,89.9999972534181,2|0|0,0:0|0:0|0:0,0:0:0:0:
272,128,35990,6,0,L|176:144,1,89.9999972534181,4|0,0:0|0:0,0:0:0:0:
32,208,36391,2,0,L|128:224,1,89.9999972534181,0|0,0:0|0:0,0:0:0:0:
208,288,36793,1,2,0:0:0:0:
352,256,37061,1,0,0:0:0:0:
352,256,37195,2,0,P|368:208|352:160,1,89.9999972534181,0|0,0:0|0:0,0:0:0:0:
224,48,37597,6,0,P|257:85|307:96,1,89.9999972534181,4|0,0:0|0:0,0:0:0:0:
432,112,37998,2,0,L|455:16,1,89.9999972534181,0|0,0:0|0:0,0:0:0:0:
464,208,38400,2,0,L|448:272,1,44.999998626709,2|0,0:0|0:0,0:0:0:0:
362,299,38668,2,0,L|351:255,1,44.999998626709,2|0,0:0|0:0,0:0:0:0:
256,208,38936,2,0,L|240:272,1,44.999998626709,8|8,0:0|0:0,0:0:0:0:
154,299,39204,6,0,P|96:288|48:240,1,104.999996795654,4|0,0:0|0:0,0:0:0:0:
128,96,39606,2,0,P|147:151|129:217,1,104.999996795654,0|0,0:0|0:0,0:0:0:0:
48,160,40007,2,0,P|28:128|24:96,1,52.4999983978272,8|0,0:0|0:0,0:0:0:0:
130,44,40275,2,0,P|132:82|119:112,1,52.4999983978272,0|0,0:0|0:0,0:0:0:0:
229,80,40543,1,8,0:0:0:0:
229,80,40677,1,8,0:0:0:0:
244,180,40811,6,0,L|260:308,1,104.999996795654,4|0,0:0|0:0,0:0:0:0:
384,320,41213,2,0,L|397:215,1,104.999996795654,4|0,0:0|0:0,0:0:0:0:
464,144,41615,1,8,0:0:0:0:
288,48,41882,1,0,0:0:0:0:
304,144,42150,1,0,0:0:0:0:
320,240,42418,6,0,P|272:256|208:240,1,104.999996795654,4|0,0:0|0:0,0:0:0:0:
32,192,42820,2,0,P|80:208|144:192,1,104.999996795654,4|0,0:0|0:0,0:0:0:0:
208,144,43222,2,0,P|256:128|320:144,1,104.999996795654,8|0,0:0|0:0,0:0:0:0:
384,208,43623,2,0,L|376:328,1,104.999996795654,0|0,0:0|0:0,0:0:0:0:
304,384,44025,5,4,0:0:0:0:
176,320,44293,1,0,0:0:0:0:
176,320,44427,1,4,0:0:0:0:
176,320,44561,2,0,L|104:312,1,52.4999983978272,0|0,0:0|0:0,0:0:0:0:
0,240,44829,6,0,L|72:232,1,52.4999983978272,8|0,0:0|0:0,0:0:0:0:
208,176,45097,2,0,L|136:168,1,52.4999983978272,8|0,0:0|0:0,0:0:0:0:
0,128,45365,1,8,0:0:0:0:
16,32,45498,1,8,0:0:0:0:
121,32,45632,6,0,P|176:48|224:48,1,104.999996795654,4|0,0:0|0:0,0:0:0:0:
368,32,46034,2,0,P|326:71|302:113,1,104.999996795654,0|0,0:0|0:0,0:0:0:0:
243,244,46436,2,0,P|229:188|205:146,2,104.999996795654,8|0|0,0:0|0:0|0:0,0:0:0:0:
224,352,47106,1,0,0:0:0:0:
320,288,47240,6,0,B|352:272|352:272|432:288,1,104.999996795654,4|0,0:0|0:0,0:0:0:0:
480,208,47641,2,0,P|496:160|464:96,1,104.999996795654,4|0,0:0|0:0,0:0:0:0:
400,48,48043,1,8,0:0:0:0:
304,144,48311,1,0,0:0:0:0:
224,112,48579,1,0,0:0:0:0:
144,80,48847,6,0,P|112:128|112:176,1,104.999996795654,4|0,0:0|0:0,0:0:0:0:
192,256,49248,2,0,L|304:272,1,104.999996795654,4|0,0:0|0:0,0:0:0:0:
400,288,49650,1,8,0:0:0:0:
368,160,49918,1,0,0:0:0:0:
368,160,50052,2,0,L|256:144,1,104.999996795654,0|0,0:0|0:0,0:0:0:0:
160,128,50454,6,0,P|160:96|176:64,2,52.4999983978272,4|0|0,0:0|0:0|0:0,0:0:0:0:
192,224,50856,2,0,P|219:240|239:269,2,52.4999983978272,4|0|0,0:0|0:0|0:0,0:0:0:0:
92,203,51257,5,8,0:0:0:0:
60,105,51391,1,8,0:0:0:0:
92,203,51525,2,0,P|64:219|28:221,1,52.4999983978272,8|8,0:0|0:0,0:0:0:0:
135,302,51793,2,0,P|162:318|198:320,1,52.4999983978272,8|8,0:3|0:3,0:0:0:0:
288,320,52061,5,12,0:0:0:0:
288,320,52329,6,0,L|272:256,1,60,8|0,0:0|0:0,0:0:0:0:
368,240,52597,2,0,L|352:176,1,60,8|0,0:0|0:0,0:0:0:0:
432,112,52865,1,12,0:0:0:0:
224,64,53132,6,0,L|240:128,1,60,0|0,0:0|0:0,0:0:0:0:
144,144,53400,2,0,L|160:208,1,60,8|0,0:0|0:0,0:0:0:0:
80,272,53668,1,12,0:0:0:0:
288,320,53936,6,0,P|328:296|336:272,1,60,0|0,0:0|0:0,0:0:0:0:
304,144,54204,2,0,P|304:190|321:209,1,60,8|0,0:0|0:0,0:0:0:0:
397,224,54472,1,12,0:0:0:0:
224,64,54740,6,0,P|184:88|176:112,1,60,8|0,0:0|0:0,0:0:0:0:
208,240,55007,2,0,P|207:193|190:174,1,60,8|8,0:0|0:0,0:0:0:0:
115,160,55285,1,12,0:0:0:0:
196,298,55552,6,0,L|212:218,1,60,8|8,0:0|0:0,0:0:0:0:
320,224,55820,2,0,L|304:144,1,60,8|8,0:0|0:0,0:0:0:0:
208,96,56088,6,0,P|248:60|320:48,1,120,12|8,0:0|0:0,0:0:0:0:
416,96,56490,1,8,0:0:0:0:
416,96,56624,2,0,L|400:176,1,60,8|8,0:0|0:0,0:0:0:0:
331,282,56883,6,0,L|319:223,1,60,12|8,0:0|0:0,0:0:0:0:
240,96,57150,2,0,L|224:176,1,60,8|8,0:0|0:0,0:0:0:0:
167,283,57418,5,8,0:0:0:0:
103,150,57552,1,8,0:0:0:0:
20,273,57686,1,14,0:0:0:0:
20,273,58490,6,0,P|112:288|160:256,1,150,14|0,0:0|0:0,0:0:0:0:
240,176,58891,2,0,P|305:143|376:162,1,150,10|0,0:0|0:0,0:0:0:0:
360,304,59293,2,0,P|328:272|316:228,1,75,10|0,0:0|0:0,0:0:0:0:
480,160,59561,2,0,P|468:203|436:236,1,75,10|0,0:0|0:0,0:0:0:0:
320,80,59829,2,0,P|331:36|363:3,1,75,10|0,0:0|0:0,0:0:0:0:
376,162,60097,6,0,P|328:180|236:132,1,150,14|0,0:0|0:0,0:0:0:0:
160,80,60499,2,0,B|128:128|128:128|144:224,1,150,8|0,0:0|0:0,0:0:0:0:
160,320,60900,2,0,L|80:336,1,75,10|8,0:0|0:3,0:0:0:0:
240,256,61168,2,0,L|229:169,1,75,10|8,0:0|0:3,0:0:0:0:
144,336,61436,2,0,L|64:352,1,75,10|8,0:0|0:3,0:0:0:0:
256,384,61704,6,0,P|336:352|360:284,1,150,14|0,0:0|0:0,0:0:0:0:
216,122,62106,2,0,P|203:207|250:262,1,150,10|0,0:0|0:0,0:0:0:0:
335,171,62508,2,0,L|352:80,1,75,10|0,0:0|0:0,0:0:0:0:
202,48,62775,2,0,L|216:122,1,75,10|0,0:0|0:0,0:0:0:0:
352,176,63043,2,0,L|368:84,1,75,10|0,0:0|0:0,0:0:0:0:
256,240,63311,6,0,P|320:288|416:272,1,150,14|0,0:0|0:0,0:0:0:0:
192,160,63713,2,0,P|128:208|32:192,1,150,8|0,0:0|0:0,0:0:0:0:
96,96,64115,2,0,P|140:56|184:48,1,75,14|8,0:0|0:3,0:0:0:0:
259,187,64383,2,0,P|202:168|173:134,1,75,10|8,0:0|0:3,0:0:0:0:
256,0,64650,2,0,P|268:58|253:100,1,75,10|8,0:0|0:3,0:0:0:0:
384,96,64918,6,0,P|448:96|512:32,1,150,14|0,0:0|0:0,0:0:0:0:
496,176,65320,2,0,P|464:231|487:318,1,150,10|0,0:0|0:0,0:0:0:0:
352,336,65722,2,0,L|256:320,1,75,10|0,0:0|0:0,0:0:0:0:
288,208,65990,2,0,L|192:192,1,75,10|0,0:0|0:0,0:0:0:0:
368,352,66258,2,0,L|272:336,1,75,10|0,0:0|0:0,0:0:0:0:
160,288,66525,6,0,P|112:208|132:128,1,150,14|0,0:0|0:0,0:0:0:0:
192,64,66927,2,0,L|352:48,1,150,8|0,0:0|0:0,0:0:0:0:
448,136,67329,2,0,P|476:92|476:60,1,75,10|8,0:0|0:3,0:0:0:0:
352,160,67597,2,0,P|376:206|403:222,1,75,10|8,0:0|0:3,0:0:0:0:
464,288,67865,2,0,P|492:244|492:212,1,75,10|8,0:0|0:3,0:0:0:0:
368,320,68133,6,0,L|208:304,1,150,14|0,0:0|0:0,0:0:0:0:
32,224,68534,2,0,L|192:208,1,150,10|0,0:0|0:0,0:0:0:0:
304,192,68936,2,0,L|320:112,1,75,10|0,0:0|0:0,0:0:0:0:
176,96,69204,2,0,L|160:16,1,75,10|0,0:0|0:0,0:0:0:0:
320,208,69472,2,0,L|336:128,1,75,10|0,0:0|0:0,0:0:0:0:
176,208,69740,6,0,P|112:192|64:112,1,150,14|0,0:0|0:0,0:0:0:0:
349,60,70141,2,0,L|317:220,1,150,8|0,0:0|0:0,0:0:0:0:
271,352,70543,2,0,L|352:336,1,75,14|8,0:0|0:3,0:0:0:0:
480,272,70811,2,0,L|399:256,1,75,10|8,0:0|0:3,0:0:0:0:
256,192,71079,2,0,L|337:176,1,75,10|8,0:0|0:3,0:0:0:0:
512,112,71347,6,0,P|480:48|384:0,1,150,14|0,0:0|0:0,0:0:0:0:
384,128,71749,2,0,P|318:162|244:158,1,150,10|0,0:0|0:0,0:0:0:0:
128,72,72150,2,0,P|96:120|96:152,1,75,10|0,0:0|0:0,0:0:0:0:
210,222,72418,2,0,P|242:174|242:142,1,75,10|0,0:0|0:0,0:0:0:0:
112,64,72686,2,0,P|80:112|80:144,1,75,10|0,0:0|0:0,0:0:0:0:
224,240,72954,6,0,B|272:272|272:272|368:256,1,150,14|0,0:0|0:0,0:0:0:0:
464,320,73356,2,0,P|480:240|448:176,1,150,8|0,0:0|0:0,0:0:0:0:
368,80,73758,2,0,L|320:16,1,75,10|8,0:0|0:3,0:0:0:0:
240,192,74025,2,0,P|288:192|336:160,1,75,10|8,0:0|0:3,0:0:0:0:
384,64,74293,2,0,L|336:0,1,75,10|8,0:0|0:3,0:0:0:0:
208,48,74561,6,0,P|144:64|96:144,1,150,14|0,0:0|0:0,0:0:0:0:
128,256,74963,2,0,L|288:272,1,150,10|0,0:0|0:0,0:0:0:0:
416,240,75365,2,0,P|416:208|448:160,1,75,10|0,0:0|0:0,0:0:0:0:
320,160,75633,2,0,L|304:80,1,75,10|0,0:0|0:0,0:0:0:0:
432,256,75900,2,0,P|432:224|464:176,1,75,10|0,0:0|0:0,0:0:0:0:
368,336,76168,6,0,P|304:352|192:320,1,150,14|0,0:0|0:0,0:0:0:0:
48,224,76570,2,0,P|112:208|224:240,1,150,8|0,0:0|0:0,0:0:0:0:
124,304,76972,2,0,P|120:360|132:388,1,75,14|8,0:0|0:3,0:0:0:0:
193,222,77240,2,0,P|197:166|185:138,1,75,10|8,0:0|0:3,0:0:0:0:
96,32,77508,2,0,P|92:88|104:116,1,75,10|8,0:0|0:3,0:0:0:0:
190,149,77775,6,0,L|352:160,1,150,14|0,0:0|0:0,0:0:0:0:
496,256,78177,2,0,L|334:266,1,150,10|0,0:0|0:0,0:0:0:0:
224,336,78579,2,0,L|208:256,1,75,10|0,0:0|0:0,0:0:0:0:
361,192,78847,2,0,L|346:265,1,75,10|0,0:0|0:0,0:0:0:0:
208,352,79115,2,0,L|192:272,1,75,10|0,0:0|0:0,0:0:0:0:
96,176,79383,6,0,P|176:144|256:160,1,150,14|0,0:0|0:0,0:0:0:0:
317,262,79784,2,0,P|360:201|368:128,1,150,8|0,0:0|0:0,0:0:0:0:
288,32,80186,2,0,L|192:16,1,75,10|8,0:0|0:3,0:0:0:0:
54,51,80454,2,0,L|128:64,1,75,10|8,0:0|0:3,0:0:0:0:
304,16,80722,2,0,L|208:0,1,75,10|8,0:0|0:3,0:0:0:0:
54,51,80990,6,0,B|32:96|32:96|48:208,1,150,14|0,0:0|0:0,0:0:0:0:
128,288,81391,2,0,P|176:272|288:288,1,150,10|0,0:0|0:0,0:0:0:0:
384,352,81793,2,0,P|404:300|400:272,1,75,10|0,0:0|0:0,0:0:0:0:
272,160,82061,2,0,P|307:203|333:213,1,75,10|0,0:0|0:0,0:0:0:0:
400,368,82329,2,0,P|420:316|416:288,1,75,10|0,0:0|0:0,0:0:0:0:
368,112,82597,6,0,P|368:80|480:48,1,150,14|0,0:0|0:0,0:0:0:0:
323,210,82999,2,0,L|160:192,1,150,8|0,0:0|0:0,0:0:0:0:
3,173,83400,5,14,0:0:0:0:
100,102,83534,1,8,0:3:0:0:
80,269,83668,1,8,0:3:0:0:
223,84,83802,5,8,0:3:0:0:
235,204,83936,1,10,0:0:0:0:
82,67,84070,1,8,0:3:0:0:
235,204,84204,6,0,P|287:188|332:120,1,112.500004291535,14|0,0:0|0:0,0:0:0:0:
400,208,84606,2,0,P|362:247|357:329,1,112.500004291535,12|0,0:0|0:0,0:0:0:0:
448,320,85008,2,0,P|432:368|416:384,1,56.2500021457673,8|0,0:0|0:0,0:0:0:0:
256,320,85275,2,0,P|272:368|288:384,1,56.2500021457673,8|0,0:0|0:0,0:0:0:0:
496,320,85543,2,0,P|480:368|464:384,1,56.2500021457673,8|0,0:0|0:0,0:0:0:0:
376,304,85811,6,0,L|360:176,1,112.500004291535,12|0,0:0|0:0,0:0:0:0:
240,112,86213,2,0,P|256:176|240:224,1,112.500004291535,12|0,0:0|0:0,0:0:0:0:
242,347,86615,2,0,L|178:331,1,56.2500021457673,8|0,0:0|0:0,0:0:0:0:
66,283,86883,2,0,L|130:267,1,56.2500021457673,8|0,0:0|0:0,0:0:0:0:
258,219,87150,2,0,L|203:205,1,56.2500021457673,8|0,0:0|0:0,0:0:0:0:
32,144,87418,6,0,L|16:32,1,112.500004291535,12|0,0:0|0:0,0:0:0:0:
112,48,87820,2,0,P|144:80|224:80,1,112.500004291535,12|0,0:0|0:0,0:0:0:0:
320,64,88222,2,0,L|304:0,1,56.2500021457673,8|0,0:0|0:0,0:0:0:0:
384,160,88490,2,0,L|400:96,1,56.2500021457673,8|0,0:0|0:0,0:0:0:0:
320,256,88758,2,0,L|304:192,1,56.2500021457673,8|0,0:0|0:0,0:0:0:0:
400,320,89025,6,0,P|352:352|288:352,1,112.500004291535,12|0,0:0|0:0,0:0:0:0:
128,272,89427,2,0,P|177:296|233:292,1,112.500004291535,12|0,0:0|0:0,0:0:0:0:
196,208,89829,2,0,P|212:176|212:144,1,56.2500021457673,8|0,0:0|0:0,0:0:0:0:
96,80,90097,2,0,P|115:109|143:125,1,56.2500021457673,8|0,0:0|0:0,0:0:0:0:
202,67,90365,1,8,0:0:0:0:
202,67,90499,1,8,0:0:0:0:
202,67,90633,6,0,P|244:56|306:93,1,112.500004291535,12|0,0:0|0:0,0:0:0:0:
400,64,91034,2,0,P|397:118|433:160,1,112.500004291535,12|0,0:0|0:0,0:0:0:0:
496,240,91436,2,0,L|416:256,1,56.2500021457673,8|0,0:0|0:0,0:0:0:0:
384,336,91704,2,0,L|328:324,1,56.2500021457673,8|0,0:0|0:0,0:0:0:0:
272,240,91972,2,0,L|192:256,1,56.2500021457673,8|0,0:0|0:0,0:0:0:0:
144,336,92240,6,0,P|112:288|112:224,1,112.500004291535,12|0,0:0|0:0,0:0:0:0:
16,256,92641,2,0,L|32:128,1,112.500004291535,12|0,0:0|0:0,0:0:0:0:
112,80,93043,2,0,P|144:64|176:64,1,56.2500021457673,8|0,0:0|0:0,0:0:0:0:
272,128,93311,2,0,P|240:144|208:144,1,56.2500021457673,8|0,0:0|0:0,0:0:0:0:
272,32,93579,2,0,P|304:16|336:16,1,56.2500021457673,8|0,0:0|0:0,0:0:0:0:
432,64,93847,6,0,P|448:128|432:176,1,112.500004291535,12|0,0:0|0:0,0:0:0:0:
352,176,94249,2,0,P|336:240|352:288,1,112.500004291535,12|0,0:0|0:0,0:0:0:0:
432,336,94650,2,0,P|448:304|448:272,1,56.2500021457673,8|0,0:0|0:0,0:0:0:0:
349,283,94918,2,0,P|331:305|307:319,1,56.2500021457673,8|0,0:0|0:0,0:0:0:0:
212,240,95186,2,0,P|247:237|275:221,1,56.2500021457673,8|0,0:0|0:0,0:0:0:0:
96,288,95454,6,0,B|80:240|80:240|96:160,1,112.500004291535,12|4,0:0|0:0,0:0:0:0:
192,160,95856,2,0,B|208:112|208:112|192:32,1,112.500004291535,8|4,0:0|0:0,0:0:0:0:
96,64,96258,1,8,0:0:0:0:
192,160,96525,5,8,0:0:0:0:
288,128,96659,1,4,0:0:0:0:
267,227,96793,1,8,0:0:0:0:
363,195,96927,1,12,0:0:0:0:
342,294,97061,6,0,P|301:322|273:328,1,75,6|4,0:0|0:0,0:0:0:0:
112,288,97463,2,0,P|153:316|181:322,1,75,8|4,0:0|0:0,0:0:0:0:
188,220,97865,2,0,P|147:192|119:186,2,75,8|4|8,0:0|0:0|0:0,0:0:0:0:
288,112,98668,6,0,L|272:32,1,75,2|4,0:0|0:0,0:0:0:0:
369,38,99070,2,0,L|383:111,1,75,2|4,0:0|0:0,0:0:0:0:
480,112,99472,2,0,L|464:32,2,75,8|4|8,0:0|0:0|0:0,0:0:0:0:
310,281,100275,6,0,P|294:249|294:201,1,75,2|4,0:0|0:0,0:0:0:0:
446,177,100677,2,0,P|426:206|384:230,1,75,2|4,0:0|0:0,0:0:0:0:
288,112,101079,2,0,P|323:114|365:138,2,75,2|8|2,0:0|0:0|0:0,0:0:0:0:
57,140,101883,6,0,P|90:157|128:160,1,75,8|4,0:0|0:0,0:0:0:0:
256,208,102284,2,0,P|222:225|185:227,1,75,8|8,0:0|0:0,0:0:0:0:
48,272,102686,2,0,P|81:289|118:291,2,75,2|4|8,0:0|0:0|0:0,0:0:0:0:
256,336,103490,6,0,L|336:304,1,75,2|4,0:0|0:0,0:0:0:0:
336,144,103891,2,0,L|323:229,1,75,8|4,0:0|0:0,0:0:0:0:
462,309,104293,2,0,L|394:255,2,75,8|4|8,0:0|0:0|0:0,0:0:0:0:
437,106,105097,6,0,P|432:63|409:24,1,75,2|4,0:0|0:0,0:0:0:0:
336,64,105499,2,0,P|351:97|355:134,1,75,2|4,0:0|0:0,0:0:0:0:
273,162,105900,2,0,P|269:125|254:92,2,75,8|4|8,0:0|0:0|0:0,0:0:0:0:
80,288,106704,6,0,P|120:310|154:308,1,75,2|4,0:0|0:0,0:0:0:0:
112,144,107106,2,0,P|72:167|57:198,1,75,2|4,0:0|0:0,0:0:0:0:
220,243,107508,2,0,P|219:197|200:168,2,75,4|4|2,0:0|0:0|0:0,0:0:0:0:
137,225,108311,5,4,0:0:0:0:
256,192,108378,12,0,111525,0:0:0:0:
