osu file format v14

[General]
AudioFilename: audio.mp3
AudioLeadIn: 0
PreviewTime: 57619
Countdown: 0
SampleSet: Soft
StackLeniency: 0.4
Mode: 0
LetterboxInBreaks: 0
WidescreenStoryboard: 0

[Editor]
Bookmarks: 13546,58546,77783,84262,90636,97064,111525
DistanceSpacing: 1.4
BeatDivisor: 4
GridSize: 16
TimelineZoom: 1.2

[Metadata]
Title:in the Garden
TitleUnicode:in the Garden
Artist:Primary
ArtistUnicode:Primary
Creator:Kyuukai
Version:Mochi's Hard
Source:
Tags:yuiko yuikonnu album Meis Clauson shogunmoon yaleufeu owens pono ponoyoshi momochikun
BeatmapID:1344994
BeatmapSetID:629217

[Difficulty]
HPDrainRate:5
CircleSize:3.8
OverallDifficulty:6
ApproachRate:7.5
SliderMultiplier:1.28
SliderTickRate:1

[Events]
//Background and Video events
0,0,"flowers.jpg",0,0
//Break Periods
//Storyboard Layer 0 (Background)
//Storyboard Layer 1 (Fail)
//Storyboard Layer 2 (Pass)
//Storyboard Layer 3 (Foreground)
//Storyboard Sound Samples

[TimingPoints]
650,267.857142857143,6,2,65,50,1,0
650,-133.333333333333,6,2,65,50,0,0
2257,-133.333333333333,6,2,66,50,0,0
3864,-133.333333333333,6,2,67,50,0,0
5203,-133.333333333333,6,2,100,50,0,0
5471,-133.333333333333,6,2,66,50,0,0
5739,-133.333333333333,6,2,67,50,0,0
5873,-133.333333333333,6,2,66,50,0,0
6141,-133.333333333333,6,2,67,50,0,0
6275,-133.333333333333,6,2,68,50,0,0
7078,-133.333333333333,6,2,65,50,0,0
8685,-133.333333333333,6,2,66,50,0,0
10292,-133.333333333333,6,2,67,50,0,0
11096,-133.333333333333,6,2,68,50,0,0
11364,-133.333333333333,6,2,67,50,0,0
11632,-133.333333333333,6,2,68,50,0,0
13490,267.857142857143,6,2,3,60,1,0
13490,-100,6,2,3,60,0,0
13624,-100,6,2,1,60,0,0
15097,-100,6,2,3,60,0,0
15231,-100,6,2,1,60,0,0
16704,-100,6,2,3,60,0,0
16838,-100,6,2,1,60,0,0
18311,-100,6,2,3,60,0,0
18445,-100,6,2,1,60,0,0
19919,-100,6,2,3,60,0,0
20052,-100,6,2,1,60,0,0
21526,-100,6,2,3,60,0,0
21660,-100,6,2,1,60,0,0
23133,-100,6,2,3,60,0,0
23267,-100,6,2,1,60,0,0
24740,-100,6,2,3,60,0,0
24874,-100,6,2,1,60,0,0
25811,-100,6,2,1,65,0,0
26079,-100,6,2,1,70,0,0
26347,-100,6,2,2,50,0,0
26615,-100,6,2,1,50,0,0
39204,-100,6,2,2,60,0,0
39472,-100,6,2,1,60,0,0
45633,-100,6,2,2,60,0,0
45900,-100,6,2,1,60,0,0
52061,-100,6,2,2,50,0,0
52329,-100,6,2,1,50,0,0
52865,-100,6,2,2,50,0,0
53133,-100,6,2,1,50,0,0
53669,-100,6,2,2,50,0,0
53936,-100,6,2,1,50,0,0
54472,-100,6,2,2,50,0,0
54740,-100,6,2,1,50,0,0
55285,267.857142857143,6,2,2,50,1,0
55285,-100,6,2,2,50,0,0
55418,-100,6,2,1,50,0,0
56088,-100,6,2,2,55,0,0
56222,-100,6,2,1,55,0,0
56883,267.857142857143,6,2,2,60,1,0
56883,-100,6,2,2,60,0,0
57016,-100,6,2,1,60,0,0
57150,-100,6,2,1,65,0,0
57418,-100,6,2,1,65,0,0
57686,-100,6,2,99,65,0,0
57954,-100,6,2,95,50,0,0
58222,-100,6,2,96,50,0,0
58490,-100,6,2,75,70,0,1
58624,-100,6,2,96,70,0,1
59561,-100,6,2,95,70,0,1
59829,-100,6,2,94,70,0,1
60097,-100,6,2,76,70,0,1
60231,-100,6,2,94,70,0,1
61168,-100,6,2,95,70,0,1
61436,-100,6,2,94,70,0,1
61704,-100,6,2,77,70,0,1
61838,-100,6,2,93,70,0,1
62775,-100,6,2,92,70,0,1
63043,-100,6,2,91,70,0,1
63311,-100,6,2,78,70,0,1
63445,-100,6,2,1,70,0,1
64115,-100,6,2,79,70,0,1
64383,-100,6,2,95,70,0,1
64650,-100,6,2,96,70,0,1
64919,-100,6,2,75,70,0,1
65052,-100,6,2,96,70,0,1
65990,-100,6,2,95,70,0,1
66258,-100,6,2,94,70,0,1
66526,-100,6,2,76,70,0,1
66659,-100,6,2,94,70,0,1
67597,-100,6,2,97,70,0,1
67865,-100,6,2,94,70,0,1
68133,-100,6,2,77,70,0,1
68267,-100,6,2,93,70,0,1
69204,-100,6,2,94,70,0,1
69472,-100,6,2,95,70,0,1
69740,-100,6,2,80,70,0,1
69874,-100,6,2,1,70,0,1
70543,-100,6,2,79,70,0,1
70811,-100,6,2,95,70,0,1
71079,-100,6,2,96,70,0,1
71347,-100,6,2,75,70,0,1
71481,-100,6,2,96,70,0,1
72418,-100,6,2,95,70,0,1
72686,-100,6,2,94,70,0,1
72954,-100,6,2,76,70,0,1
73088,-100,6,2,94,70,0,1
74025,-100,6,2,95,70,0,1
74293,-100,6,2,94,70,0,1
74561,-100,6,2,77,70,0,1
74695,-100,6,2,93,70,0,1
75633,-100,6,2,92,70,0,1
75900,-100,6,2,91,70,0,1
76169,-100,6,2,78,70,0,1
76302,-100,6,2,1,70,0,1
76972,-100,6,2,79,70,0,1
77240,-100,6,2,95,70,0,1
77508,-100,6,2,96,70,0,1
77776,-100,6,2,75,70,0,1
77910,-100,6,2,96,70,0,1
78847,-100,6,2,95,70,0,1
79115,-100,6,2,94,70,0,1
79383,-100,6,2,76,70,0,1
79517,-100,6,2,94,70,0,1
80454,-100,6,2,97,70,0,1
80722,-100,6,2,94,70,0,1
80990,-100,6,2,77,70,0,1
81124,-100,6,2,93,70,0,1
82061,-100,6,2,94,70,0,1
82329,-100,6,2,95,70,0,1
82597,-100,6,2,80,70,0,1
82731,-100,6,2,1,70,0,1
83400,-100,6,2,82,70,0,1
83534,-100,6,2,1,70,0,1
83936,-100,6,2,96,70,0,1
84204,-100,6,2,81,60,0,0
84335,-100,6,2,1,60,0,0
90633,-100,6,2,2,60,0,0
90766,-100,6,2,1,60,0,0
97061,-133.333333333333,6,2,2,50,0,0
97329,-133.333333333333,6,2,65,50,0,0
98668,-133.333333333333,6,2,66,50,0,0
100275,-133.333333333333,6,2,67,50,0,0
101615,-133.333333333333,6,2,100,50,0,0
101883,-133.333333333333,6,2,66,50,0,0
102552,-133.333333333333,6,2,68,50,0,0
103490,-133.333333333333,6,2,65,50,0,0
105097,-133.333333333333,6,2,66,50,0,0
106704,-133.333333333333,6,2,67,50,0,0
107508,-133.333333333333,6,2,68,50,0,0
107775,-133.333333333333,6,2,67,50,0,0
108043,-133.333333333333,6,2,68,50,0,0
108980,-133.333333333333,6,2,1,25,0,0
109784,-133.333333333333,6,2,1,20,0,0
110588,-133.333333333333,6,2,1,15,0,0
111525,-133.333333333333,6,2,1,5,0,0

[Colours]
Combo1 : 55,155,255
Combo2 : 69,200,13
Combo3 : 249,240,134
Combo4 : 255,173,91

[HitObjects]
188,229,650,6,0,B|156:225|130:240|130:240|76:212|31:232,2,144.000005493164,2|2|2,0:0|0:0|0:0,0:0:0:0:
308,288,1721,2,0,L|286:194,1,96.0000036621095,4|2,0:0|0:0,0:0:0:0:
405,91,2257,2,0,L|383:249,2,144.000005493164,2|2|8,0:0|0:0|0:0,0:0:0:0:
272,56,3328,2,0,P|230:33|176:38,1,96.0000036621095,4|8,0:0|0:0,0:0:0:0:
96,152,3864,6,0,P|146:163|213:103,2,144.000005493164,2|2|2,0:0|0:0|0:0,0:0:0:0:
52,279,4935,1,8,0:0:0:0:
52,279,5203,1,2,0:0:0:0:
186,316,5471,2,0,B|228:335|228:335|338:305,2,144.000005493164,8|8|2,0:0|0:0|0:0,0:0:0:0:
283,224,6542,2,0,P|302:183|290:129,1,96.0000036621095,4|8,0:0|0:0,0:0:0:0:
175,46,7078,6,0,P|176:133|217:178,2,144.000005493164,2|2|2,0:0|0:0|0:0,0:0:0:0:
310,57,8150,2,0,P|355:66|411:74,1,96.0000036621095,4|2,0:0|0:0,0:0:0:0:
496,171,8685,2,0,P|432:184|350:201,2,144.000005493164,2|2|8,0:0|0:0|0:0,0:0:0:0:
418,277,9757,2,0,P|393:321|398:376,1,96.0000036621095,4|8,0:0|0:0,0:0:0:0:
292,278,10292,6,0,P|325:205|311:133,2,144.000005493164,2|2|2,0:0|0:0|0:0,0:0:0:0:
173,220,11364,1,4,0:0:0:0:
75,312,11632,1,2,0:0:0:0:
173,220,11900,1,4,0:0:0:0:
173,220,13490,6,0,P|236:211|317:242,1,128,12|0,0:0|0:0,0:0:0:0:
366,285,13891,2,0,L|332:147,1,128,8|0,0:0|0:0,0:0:0:0:
407,106,14293,2,0,L|437:230,2,128,8|8|8,0:0|0:0|0:0,0:0:0:0:
231,66,15097,6,0,P|167:70|89:32,1,128,12|0,0:0|0:0,0:0:0:0:
20,27,15498,2,0,L|50:151,1,128,8|0,0:0|0:0,0:0:0:0:
105,222,15900,2,0,L|88:298,2,64,8|8|8,0:0|0:3|0:3,0:0:0:0:
178,170,16302,1,8,0:3:0:0:
220,248,16436,2,0,P|253:265|294:264,1,64,8|8,0:3|0:3,0:0:0:0:
357,221,16704,6,0,P|356:156|311:106,1,128,12|0,0:0|0:0,0:0:0:0:
233,76,17106,2,0,P|165:80|118:122,1,128,8|0,0:0|0:0,0:0:0:0:
87,199,17507,1,8,0:0:0:0:
197,339,17775,2,0,L|261:320,1,64,8|0,0:0|0:0,0:0:0:0:
335,367,18043,2,0,L|399:348,1,64,8|0,0:0|0:0,0:0:0:0:
475,305,18311,6,0,P|507:255|488:188,1,128,12|0,0:0|0:0,0:0:0:0:
417,133,18713,2,0,L|290:166,1,128,8|0,0:0|0:0,0:0:0:0:
204,149,19115,2,0,P|183:184|179:232,2,64,8|8|8,0:0|0:3|0:0,0:0:0:0:
264,79,19516,1,8,0:3:0:0:
264,79,19650,1,8,0:0:0:0:
264,79,19918,6,0,P|208:49|139:53,1,128,12|0,0:0|0:0,0:0:0:0:
63,89,20320,2,0,P|30:145|37:214,1,128,8|0,0:0|0:0,0:0:0:0:
101,265,20722,2,0,L|225:229,2,128,8|8|8,0:0|0:0|0:0,0:0:0:0:
203,102,21525,6,0,L|325:137,1,128,12|0,0:0|0:0,0:0:0:0:
411,107,21927,2,0,P|457:166|450:234,1,128,8|0,0:0|0:0,0:0:0:0:
433,317,22329,2,0,L|498:302,1,64,8|8,0:3|0:3,0:0:0:0:
367,243,22597,2,0,L|304:257,1,64,8|8,0:3|0:3,0:0:0:0:
228,306,22865,2,0,P|191:294|156:293,1,64,8|8,0:3|0:3,0:0:0:0:
72,263,23132,6,0,P|54:225|57:189,1,64,12|0,0:0|0:0,0:0:0:0:
86,120,23400,1,0,0:0:0:0:
86,120,23534,2,0,P|138:84|208:89,1,128,8|0,0:0|0:0,0:0:0:0:
280,127,23936,2,0,P|332:163|402:158,1,128,8|8,0:0|0:0,0:0:0:0:
473,128,24338,1,0,0:0:0:0:
392,98,24472,2,0,P|391:152|406:183,1,64,8|0,0:0|0:0,0:0:0:0:
449,235,24740,1,12,0:0:0:0:
478,347,25007,5,0,0:0:0:0:
478,347,25141,2,0,P|484:277|427:226,1,128,8|0,0:0|0:0,0:0:0:0:
368,275,25543,2,0,L|291:258,1,64,8|8,0:0|0:0,0:0:0:0:
217,280,25811,2,0,P|197:244|196:216,1,64,8|8,0:0|0:0,0:0:0:0:
155,140,26079,2,0,L|232:123,1,64,8|8,0:0|0:0,0:0:0:0:
304,55,26347,5,12,0:0:0:0:
304,55,26615,1,0,0:0:0:0:
387,24,26748,2,0,L|520:48,1,128,0|0,0:0|0:0,0:0:0:0:
505,147,27150,2,0,P|468:203|481:280,2,128,2|0|0,0:0|0:0|0:0,0:0:0:0:
450,76,27820,1,0,0:0:0:0:
371,118,27954,6,0,P|316:126|251:86,1,128,4|0,0:0|0:0,0:0:0:0:
190,28,28356,2,0,L|217:168,1,128,0|0,0:0|0:0,0:0:0:0:
234,241,28757,1,2,0:0:0:0:
88,137,29025,2,0,L|115:277,1,128,0|0,0:0|0:0,0:0:0:0:
277,333,29561,6,0,B|339:320|335:371|414:345,1,128,4|0,0:0|0:0,0:0:0:0:
481,309,29963,2,0,P|510:256|495:185,1,128,0|0,0:0|0:0,0:0:0:0:
445,119,30365,1,2,0:0:0:0:
275,61,30632,1,0,0:0:0:0:
275,61,30766,2,0,L|407:25,1,128,0|0,0:0|0:0,0:0:0:0:
502,95,31168,6,0,L|378:128,1,128,4|0,0:0|0:0,0:0:0:0:
291,153,31570,2,0,P|251:209|263:280,1,128,0|0,0:0|0:0,0:0:0:0:
322,325,31972,2,0,P|362:269|350:198,2,128,2|0|0,0:0|0:0|0:0,0:0:0:0:
146,359,32775,5,4,0:0:0:0:
59,201,33043,1,0,0:0:0:0:
112,129,33177,2,0,B|147:113|147:113|243:136,1,128,0|0,0:0|0:0,0:0:0:0:
288,206,33579,2,0,L|256:62,2,128,2|0|0,0:0|0:0|0:0,0:0:0:0:
462,162,34382,6,0,L|434:286,1,128,4|0,0:0|0:0,0:0:0:0:
473,367,34784,1,0,0:0:0:0:
323,267,35052,1,0,0:0:0:0:
323,267,35186,2,0,P|261:263|193:294,1,128,2|0,0:0|0:0,0:0:0:0:
57,175,35722,1,0,0:0:0:0:
57,175,35990,6,0,B|95:165|95:165|134:204|200:178,1,128,4|0,0:0|0:0,0:0:0:0:
254,140,36391,2,0,P|265:85|281:15,1,128,0|0,0:0|0:0,0:0:0:0:
355,65,36793,2,0,P|340:127|327:190,1,128,2|0,0:0|0:0,0:0:0:0:
278,265,37195,2,0,P|348:223|405:247,1,128,0|0,0:0|0:0,0:0:0:0:
461,338,37597,6,0,P|399:346|350:307,1,128,4|0,0:0|0:0,0:0:0:0:
278,265,37998,2,0,P|215:256|152:287,1,128,0|0,0:0|0:0,0:0:0:0:
96,349,38400,2,0,L|131:213,1,128,2|2,0:0|0:0,0:0:0:0:
174,51,38936,1,8,0:0:0:0:
174,51,39204,6,0,P|235:80|314:75,1,128,4|0,0:0|0:0,0:0:0:0:
371,33,39606,2,0,P|325:78|323:160,1,128,0|0,0:0|0:0,0:0:0:0:
378,204,40007,2,0,L|515:173,2,128,8|0|8,0:0|0:0|0:0,0:0:0:0:
317,270,40677,1,8,0:0:0:0:
228,253,40811,6,0,P|190:302|193:375,1,128,4|0,0:0|0:0,0:0:0:0:
102,343,41213,2,0,L|74:205,1,128,4|0,0:0|0:0,0:0:0:0:
64,127,41615,1,8,0:0:0:0:
234,180,41882,2,0,P|252:140|246:99,1,64,0|0,0:0|0:0,0:0:0:0:
207,42,42150,1,0,0:0:0:0:
343,157,42418,6,0,P|411:164|467:143,1,128,4|0,0:0|0:0,0:0:0:0:
506,63,42820,2,0,L|358:46,1,128,4|0,0:0|0:0,0:0:0:0:
300,3,43222,1,8,0:0:0:0:
135,73,43490,1,0,0:0:0:0:
162,157,43623,2,0,B|202:171|202:171|299:143,1,128,0|0,0:0|0:0,0:0:0:0:
359,99,44025,6,0,P|326:176|312:239,1,128,4|0,0:0|0:0,0:0:0:0:
268,296,44427,2,0,P|345:329|408:343,1,128,4|0,0:0|0:0,0:0:0:0:
470,303,44829,1,8,0:0:0:0:
481,124,45097,2,0,P|442:150|422:180,1,64,8|0,0:0|0:0,0:0:0:0:
341,157,45365,2,0,P|352:202|373:231,1,64,8|8,0:0|0:0,0:0:0:0:
433,270,45632,6,0,L|292:227,1,128,4|0,0:0|0:0,0:0:0:0:
241,176,46034,2,0,L|118:213,1,128,0|0,0:0|0:0,0:0:0:0:
37,254,46436,2,0,P|75:206|66:131,2,128,8|0|0,0:0|0:0|0:0,0:0:0:0:
56,342,47106,1,0,0:0:0:0:
142,316,47240,6,0,P|192:293|277:284,1,128,4|0,0:0|0:0,0:0:0:0:
343,323,47641,2,0,P|306:274|311:188,1,128,4|0,0:0|0:0,0:0:0:0:
363,142,48043,2,0,P|400:191|395:277,2,128,8|0|0,0:0|0:0|0:0,0:0:0:0:
191,48,48847,6,0,L|65:86,1,128,4|0,0:0|0:0,0:0:0:0:
49,173,49248,2,0,L|171:136,1,128,4|0,0:0|0:0,0:0:0:0:
242,190,49650,1,8,0:0:0:0:
347,45,49918,1,0,0:0:0:0:
347,45,50052,2,0,B|371:80|371:80|345:175,1,128,0|0,0:0|0:0,0:0:0:0:
320,248,50454,6,0,P|378:276|452:278,2,128,4|0|0,0:0|0:0|0:0,0:0:0:0:
148,193,51257,2,0,P|126:227|119:258,2,64,8|8|8,0:0|0:0|0:0,0:0:0:0:
203,122,51659,1,8,0:0:0:0:
203,122,51793,2,0,P|184:82|159:60,1,64,8|8,0:3|0:3,0:0:0:0:
88,31,52061,5,12,0:0:0:0:
88,31,52329,2,0,L|229:60,1,128,8|8,0:0|0:0,0:0:0:0:
357,164,52865,2,0,L|482:138,2,128,12|0|8,0:0|0:0|0:0,0:0:0:0:
179,136,53668,6,0,P|138:186|138:256,1,128,12|0,0:0|0:0,0:0:0:0:
280,352,54204,1,8,0:0:0:0:
280,352,54472,2,0,P|345:344|423:374,2,128,12|8|8,0:0|0:0|0:0,0:0:0:0:
192,331,55141,1,8,0:0:0:0:
129,267,55285,6,0,L|149:200,1,64,12|8,0:0|0:0,0:0:0:0:
231,173,55552,2,0,L|271:37,1,128,8|8,0:0|0:0,0:0:0:0:
354,29,55954,1,8,0:0:0:0:
445,20,56088,2,0,L|408:142,1,128,12|8,0:0|0:0,0:0:0:0:
463,214,56490,2,0,P|477:244|481:275,2,64,8|8|8,0:0|0:0|0:0,0:0:0:0:
378,246,56883,6,0,P|324:253|259:211,1,128,12|8,0:0|0:0,0:0:0:0:
196,155,57284,1,8,0:0:0:0:
196,155,57418,2,0,L|177:93,1,64,8|8,0:0|0:0,0:0:0:0:
256,32,57686,1,14,0:0:0:0:
256,32,58490,6,0,B|297:45|297:45|336:12|395:24,1,128,14|0,0:0|0:0,0:0:0:0:
454,65,58891,2,0,P|456:129|410:192,1,128,10|0,0:0|0:0,0:0:0:0:
383,257,59293,2,0,P|440:221|509:234,2,128,10|10|10,0:0|0:0|0:0,0:0:0:0:
220,333,60097,6,0,P|162:306|135:250,1,128,14|0,0:0|0:0,0:0:0:0:
202,190,60499,2,0,L|165:60,1,128,8|0,0:0|0:0,0:0:0:0:
248,29,60900,2,0,L|316:40,1,64,10|8,0:0|0:3,0:0:0:0:
359,115,61168,2,0,L|422:104,2,64,10|8|10,0:0|0:3|0:0,0:0:0:0:
296,180,61570,5,8,0:3:0:0:
296,180,61704,2,0,P|234:176|157:214,1,128,14|0,0:0|0:0,0:0:0:0:
99,251,62106,2,0,P|161:247|238:285,1,128,10|0,0:0|0:0,0:0:0:0:
291,327,62508,2,0,B|372:339|372:339|426:305,2,128,10|10|10,0:0|0:0|0:0,0:0:0:0:
380,171,63311,6,0,P|362:98|343:43,1,128,14|0,0:0|0:0,0:0:0:0:
260,15,63713,2,0,P|213:55|205:122,1,128,8|0,0:0|0:0,0:0:0:0:
135,174,64115,2,0,P|96:184|50:188,2,64,14|8|10,0:0|0:3|0:0,0:0:0:0:
203,232,64516,1,8,0:3:0:0:
203,232,64650,2,0,P|242:222|288:218,1,64,10|8,0:0|0:3,0:0:0:0:
369,261,64918,6,0,P|406:214|387:138,1,128,14|0,0:0|0:0,0:0:0:0:
321,99,65320,2,0,P|248:117|173:138,1,128,10|0,0:0|0:0,0:0:0:0:
130,69,65722,2,0,P|191:52|253:37,2,128,10|10|10,0:0|0:0|0:0,0:0:0:0:
27,215,66525,6,0,B|7:267|28:308|28:308|21:347,1,128,14|0,0:0|0:0,0:0:0:0:
107,370,66927,2,0,P|170:340|247:346,1,128,8|0,0:0|0:0,0:0:0:0:
307,301,67329,2,0,P|336:288|374:279,1,64,10|8,0:0|0:3,0:0:0:0:
422,208,67597,1,10,0:0:0:0:
422,208,67731,2,0,P|466:178|493:170,2,64,8|10|8,0:3|0:0|0:3,0:0:0:0:
343,162,68133,6,0,P|294:159|231:111,1,128,14|0,0:0|0:0,0:0:0:0:
167,51,68534,2,0,P|126:99|118:161,1,128,10|0,0:0|0:0,0:0:0:0:
177,228,68936,2,0,L|202:365,2,128,10|10|10,0:0|0:0|0:0,0:0:0:0:
346,122,69740,6,0,L|323:247,1,128,14|0,0:0|0:0,0:0:0:0:
351,332,70141,2,0,P|409:316|437:234,1,128,8|0,0:0|0:0,0:0:0:0:
496,189,70543,2,0,L|507:126,1,64,14|8,0:0|0:3,0:0:0:0:
437,69,70811,2,0,P|409:51|377:48,1,64,10|8,0:0|0:3,0:0:0:0:
295,12,71079,2,0,P|265:27|246:53,1,64,10|8,0:0|0:3,0:0:0:0:
158,66,71347,6,0,L|180:191,1,128,14|0,0:0|0:0,0:0:0:0:
211,276,71749,2,0,L|233:150,1,128,10|0,0:0|0:0,0:0:0:0:
316,185,72150,2,0,P|366:198|429:147,2,128,10|10|10,0:0|0:0|0:0,0:0:0:0:
183,63,72954,6,0,P|133:50|70:101,1,128,14|0,0:0|0:0,0:0:0:0:
28,169,73356,2,0,P|39:236|70:300,1,128,8|0,0:0|0:0,0:0:0:0:
146,331,73758,2,0,P|162:297|165:270,1,64,10|8,0:0|0:3,0:0:0:0:
224,204,74025,2,0,P|194:191|171:170,1,64,10|8,0:0|0:3,0:0:0:0:
224,97,74293,2,0,P|253:109|276:130,1,64,10|8,0:0|0:3,0:0:0:0:
340,195,74561,6,0,P|406:156|415:99,1,128,14|0,0:0|0:0,0:0:0:0:
503,135,74963,2,0,P|489:225|509:274,1,128,10|0,0:0|0:0,0:0:0:0:
468,342,75365,2,0,B|421:327|421:327|376:331|364:390,2,128,10|10|10,0:0|0:0|0:0,0:0:0:0:
343,213,76168,6,0,L|268:233,2,64,14|0|0,0:0|0:0|0:0,0:0:0:0:
284,143,76570,2,0,P|218:150|168:113,1,128,8|0,0:0|0:0,0:0:0:0:
119,40,76972,2,0,P|122:106|86:169,1,128,14|10,0:0|0:0,0:0:0:0:
16,204,77374,1,8,0:3:0:0:
94,159,77508,2,0,P|118:199|120:227,1,64,10|8,0:0|0:3,0:0:0:0:
81,300,77775,6,0,P|142:332|214:321,1,128,14|0,0:0|0:0,0:0:0:0:
282,361,78177,2,0,L|308:221,1,128,10|0,0:0|0:0,0:0:0:0:
333,149,78579,2,0,L|311:71,1,64,10|0,0:0|0:0,0:0:0:0:
196,87,78847,2,0,L|179:149,1,64,10|0,0:0|0:0,0:0:0:0:
132,226,79115,6,0,P|192:183|258:202,2,128,10|14|0,0:0|0:0|0:0,0:0:0:0:
46,200,79784,2,0,B|29:249|44:291|44:291|37:345,1,128,8|0,0:0|0:0,0:0:0:0:
114,376,80186,2,0,L|181:359,1,64,10|8,0:0|0:3,0:0:0:0:
240,297,80454,2,0,L|307:280,2,64,10|8|10,0:0|0:3|0:0,0:0:0:0:
166,244,80856,5,8,0:3:0:0:
166,244,80990,2,0,P|163:177|196:118,1,128,14|0,0:0|0:0,0:0:0:0:
148,44,81391,2,0,P|151:111|118:170,1,128,10|0,0:0|0:0,0:0:0:0:
45,209,81793,2,0,P|60:267|77:290,1,64,10|0,0:0|0:0,0:0:0:0:
61,269,82061,2,0,L|210:313,1,128,10|10,0:0|0:0,0:0:0:0:
327,196,82597,6,0,B|358:180|358:180|403:200|449:166,1,128,14|0,0:0|0:0,0:0:0:0:
511,86,82999,2,0,B|480:102|480:102|435:82|389:116,1,128,8|0,0:0|0:0,0:0:0:0:
322,57,83400,2,0,P|292:47|266:27,1,64,14|8,0:0|0:3,0:0:0:0:
184,64,83668,2,0,P|152:65|122:78,1,64,8|8,0:3|0:3,0:0:0:0:
48,129,83936,2,0,P|27:152|14:182,1,64,10|8,0:0|0:3,0:0:0:0:
35,270,84204,5,14,0:0:0:0:
256,192,84271,12,12,87418,0:0:0:0:
98,78,88222,6,0,P|63:124|63:200,1,128,8|8,0:0|0:0,0:0:0:0:
84,279,88624,1,0,0:0:0:0:
171,253,88758,1,8,0:0:0:0:
171,253,89025,6,0,L|304:224,1,128,12|0,0:0|0:0,0:0:0:0:
379,260,89427,2,0,P|414:214|414:138,1,128,12|0,0:0|0:0,0:0:0:0:
371,67,89829,2,0,P|416:34|486:40,2,128,8|8|8,0:0|0:0|0:0,0:0:0:0:
293,113,90499,1,8,0:0:0:0:
211,74,90633,6,0,B|181:66|161:75|161:75|121:51|74:56,1,128,12|0,0:0|0:0,0:0:0:0:
3,85,91034,1,12,0:0:0:0:
3,85,91302,1,0,0:0:0:0:
67,160,91436,2,0,L|42:286,2,128,8|8|8,0:0|0:0|0:0,0:0:0:0:
247,162,92240,6,0,P|285:148|328:143,1,64,12|0,0:0|0:0,0:0:0:0:
361,216,92508,1,0,0:0:0:0:
279,253,92641,2,0,P|215:261|155:284,1,128,12|0,0:0|0:0,0:0:0:0:
73,321,93043,2,0,P|27:278|41:205,2,128,8|8|8,0:0|0:0|0:0,0:0:0:0:
187,182,93847,6,0,P|233:139|221:69,1,128,12|0,0:0|0:0,0:0:0:0:
151,29,94249,2,0,L|291:72,1,128,12|0,0:0|0:0,0:0:0:0:
343,121,94650,2,0,L|404:102,1,64,8|0,0:0|0:0,0:0:0:0:
476,48,94918,2,0,P|443:111|458:174,1,128,8|8,0:0|0:0,0:0:0:0:
339,318,95454,6,0,P|372:255|357:192,1,128,12|4,0:0|0:0,0:0:0:0:
307,129,95856,2,0,L|321:67,2,64,8|0|4,0:0|0:0|0:0,0:0:0:0:
236,217,96258,2,0,B|216:233|202:266|202:266|167:283|119:254,1,128,8|8,0:0|0:0,0:0:0:0:
55,226,96659,2,0,P|35:258|30:291,1,64,4|8,0:0|0:0,0:0:0:0:
65,366,96927,1,12,0:0:0:0:
137,264,97061,6,0,P|160:215|132:122,2,144.000005493164,6|8|8,0:0|0:0|0:0,0:0:0:0:
266,302,98133,2,0,P|251:258|264:211,1,96.0000036621095,4|8,0:0|0:0,0:0:0:0:
355,113,98668,2,0,B|405:97|405:97|452:97|483:149,2,144.000005493164,2|2|8,0:0|0:0|0:0,0:0:0:0:
239,43,99740,1,4,0:0:0:0:
239,43,100008,1,8,0:0:0:0:
112,86,100275,6,0,B|81:151|81:151|105:181|96:230,2,144.000005493164,2|2|2,0:0|0:0|0:0,0:0:0:0:
217,170,101347,2,0,L|245:273,1,96.0000036621095,8|2,0:0|0:0,0:0:0:0:
351,344,101883,2,0,P|416:366|489:355,2,144.000005493164,8|8|2,0:0|0:0|0:0,0:0:0:0:
323,212,102954,1,4,0:0:0:0:
323,212,103222,1,8,0:0:0:0:
218,127,103490,6,0,L|77:159,2,144.000005493164,2|8|8,0:0|0:0|0:0,0:0:0:0:
323,212,104561,2,0,L|223:234,1,96.0000036621095,4|8,0:0|0:0,0:0:0:0:
365,290,105097,2,0,P|408:264|400:165,2,144.000005493164,2|2|8,0:0|0:0|0:0,0:0:0:0:
346,127,106168,2,0,P|388:98|439:103,1,96.0000036621095,4|8,0:0|0:0,0:0:0:0:
315,29,106704,6,0,B|270:40|270:40|216:17|161:68,2,144.000005493164,2|2|4,0:0|0:0|0:0,0:0:0:0:
346,127,107775,1,4,0:0:0:0:
249,220,108043,1,2,0:0:0:0:
127,163,108311,5,4,0:0:0:0:
256,192,108378,12,0,111525,0:0:0:0:
