osu file format v14

[General]
AudioFilename: audio.mp3
AudioLeadIn: 0
PreviewTime: 57619
Countdown: 0
SampleSet: Soft
StackLeniency: 0.7
Mode: 0
LetterboxInBreaks: 0
WidescreenStoryboard: 0

[Editor]
Bookmarks: 13546,58546,77783,84262,90636,97064,111525
DistanceSpacing: 2.4
BeatDivisor: 4
GridSize: 4
TimelineZoom: 1.6

[Metadata]
Title:in the Garden
TitleUnicode:in the Garden
Artist:Primary
ArtistUnicode:Primary
Creator:Kyuukai
Version:Garden's Extra
Source:
Tags:yuiko yuikonnu album Meis Clauson shogunmoon yaleufeu owens pono ponoyoshi momochikun
BeatmapID:1361273
BeatmapSetID:629217

[Difficulty]
HPDrainRate:6
CircleSize:4
OverallDifficulty:8.7
ApproachRate:9.3
SliderMultiplier:1.6
SliderTickRate:1

[Events]
//Background and Video events
0,0,"flowers.jpg",0,0
//Break Periods
//Storyboard Layer 0 (Background)
//Storyboard Layer 1 (Fail)
//Storyboard Layer 2 (Pass)
//Storyboard Layer 3 (Foreground)
//Storyboard Sound Samples

[TimingPoints]
650,267.857142857143,6,2,65,50,1,0
650,-133.333333333333,6,2,65,50,0,0
2257,-133.333333333333,6,2,66,50,0,0
3864,-133.333333333333,6,2,67,50,0,0
5203,-133.333333333333,6,2,100,50,0,0
5471,-133.333333333333,6,2,66,50,0,0
5739,-133.333333333333,6,2,67,50,0,0
5873,-133.333333333333,6,2,66,50,0,0
6141,-133.333333333333,6,2,67,50,0,0
6275,-133.333333333333,6,2,68,50,0,0
7078,-133.333333333333,6,2,65,50,0,0
8685,-133.333333333333,6,2,66,50,0,0
10292,-133.333333333333,6,2,67,50,0,0
11096,-133.333333333333,6,2,68,50,0,0
11364,-133.333333333333,6,2,67,50,0,0
11632,-133.333333333333,6,2,68,50,0,0
13490,267.857142857143,6,2,3,70,1,0
13490,-76.9230769230769,6,2,3,70,0,0
13624,-76.9230769230769,6,2,1,70,0,0
15097,-76.9230769230769,6,2,3,70,0,0
15231,-76.9230769230769,6,2,1,70,0,0
15900,-76.9230769230769,6,2,3,70,0,0
16034,-76.9230769230769,6,2,1,70,0,0
16704,-76.9230769230769,6,2,3,70,0,0
16838,-76.9230769230769,6,2,1,70,0,0
17106,-76.9230769230769,6,2,3,70,0,0
18311,-76.9230769230769,6,2,3,70,0,0
18445,-76.9230769230769,6,2,1,70,0,0
18713,-76.9230769230769,6,2,3,70,0,0
18847,-76.9230769230769,6,2,1,70,0,0
19650,-58.8235294117647,6,2,1,70,0,0
19851,-58.8235294117647,6,2,1,5,0,0
19918,-76.9230769230769,6,2,1,70,0,0
19919,-76.9230769230769,6,2,3,70,0,0
20052,-76.9230769230769,6,2,1,70,0,0
20320,-76.9230769230769,6,2,3,70,0,0
21526,-76.9230769230769,6,2,3,70,0,0
21660,-76.9230769230769,6,2,1,70,0,0
22329,-76.9230769230769,6,2,3,70,0,0
22463,-76.9230769230769,6,2,1,70,0,0
23133,-76.9230769230769,6,2,3,70,0,0
23267,-76.9230769230769,6,2,1,70,0,0
23534,-76.9230769230769,6,2,3,70,0,0
24740,-76.9230769230769,6,2,3,70,0,0
24874,-76.9230769230769,6,2,1,70,0,0
25141,-76.9230769230769,6,2,3,70,0,0
25275,-76.9230769230769,6,2,1,70,0,0
25811,-76.9230769230769,6,2,1,70,0,0
26079,-76.9230769230769,6,2,1,70,0,0
26347,-125,6,2,2,70,0,0
26615,-125,6,2,1,50,0,0
27351,-125,6,2,1,5,0,0
27418,-125,6,2,1,50,0,0
27619,-125,6,2,1,5,0,0
27686,-125,6,2,1,50,0,0
29226,-125,6,2,1,5,0,0
29293,-125,6,2,1,50,0,0
29494,-125,6,2,1,5,0,0
29561,-125,6,2,1,50,0,0
32173,-125,6,2,1,5,0,0
32240,-125,6,2,1,50,0,0
32441,-125,6,2,1,5,0,0
32508,-125,6,2,1,50,0,0
33780,-125,6,2,1,5,0,0
33847,-125,6,2,1,50,0,0
34048,-125,6,2,1,5,0,0
34115,-125,6,2,1,50,0,0
35655,-125,6,2,1,5,0,0
35722,-125,6,2,1,50,0,0
38467,-125,6,2,1,5,0,0
38668,-125,6,2,1,50,0,0
38869,-125,6,2,1,5,0,0
38936,-90.9090909090909,6,2,1,50,0,0
39137,-90.9090909090909,6,2,1,5,0,0
39204,-100,6,2,2,60,0,0
39472,-100,6,2,1,60,0,0
40208,-100,6,2,1,5,0,0
40275,-100,6,2,1,60,0,0
42083,-100,6,2,1,5,0,0
42150,-100,6,2,1,60,0,0
43423,-100,6,2,1,5,0,0
43490,-100,6,2,1,60,0,0
45030,-100,6,2,1,5,0,0
45097,-100,6,2,1,60,0,0
45298,-100,6,2,1,5,0,0
45365,-100,6,2,1,60,0,0
45633,-100,6,2,2,60,0,0
45900,-100,6,2,1,60,0,0
46905,-100,6,2,1,5,0,0
46972,-100,6,2,1,60,0,0
48512,-100,6,2,1,5,0,0
48579,-100,6,2,1,60,0,0
49851,-100,6,2,1,5,0,0
49918,-100,6,2,1,60,0,0
52061,-100,6,2,2,70,0,0
52329,-100,6,2,1,60,0,0
52865,-100,6,2,2,70,0,0
53133,-100,6,2,1,60,0,0
53669,-100,6,2,2,70,0,0
53936,-100,6,2,1,60,0,0
54472,-100,6,2,2,70,0,0
54740,-100,6,2,1,60,0,0
55285,267.857142857143,6,2,2,70,1,0
55285,-100,6,2,2,70,0,0
55418,-100,6,2,1,60,0,0
56087,-90.9090909090909,6,2,2,70,0,0
56221,-90.9090909090909,6,2,1,60,0,0
56883,267.857142857143,6,2,2,70,1,0
56883,-90.9090909090909,6,2,2,70,0,0
57016,-90.9090909090909,6,2,1,70,0,0
57150,-90.9090909090909,6,2,1,70,0,0
57418,-90.9090909090909,6,2,1,70,0,0
57686,-133.333333333333,6,2,99,65,0,0
57887,-133.333333333333,6,2,99,5,0,0
57954,-133.333333333333,6,2,95,50,0,0
58155,-133.333333333333,6,2,95,5,0,0
58222,-133.333333333333,6,2,96,50,0,0
58423,-133.333333333333,6,2,96,5,0,0
58490,-76.9230769230769,6,2,75,70,0,1
58624,-76.9230769230769,6,2,96,70,0,1
58691,-76.9230769230769,6,2,96,5,0,1
58758,-76.9230769230769,6,2,96,70,0,1
59561,-76.9230769230769,6,2,95,70,0,1
59829,-76.9230769230769,6,2,94,70,0,1
60097,-76.9230769230769,6,2,76,70,0,1
60231,-76.9230769230769,6,2,94,70,0,1
61168,-76.9230769230769,6,2,95,70,0,1
61436,-76.9230769230769,6,2,94,70,0,1
61704,-76.9230769230769,6,2,77,70,0,1
61838,-76.9230769230769,6,2,93,70,0,1
61905,-76.9230769230769,6,2,93,5,0,1
61972,-76.9230769230769,6,2,93,70,0,1
62775,-76.9230769230769,6,2,92,70,0,1
63043,-76.9230769230769,6,2,91,70,0,1
63311,-76.9230769230769,6,2,78,70,0,1
63445,-76.9230769230769,6,2,1,70,0,1
64115,-76.9230769230769,6,2,79,70,0,1
64383,-76.9230769230769,6,2,95,70,0,1
64650,-62.5,6,2,96,70,0,1
64851,-62.5,6,2,96,70,0,1
64918,-76.9230769230769,6,2,96,70,0,1
64919,-76.9230769230769,6,2,75,70,0,1
65052,-76.9230769230769,6,2,96,70,0,1
65119,-76.9230769230769,6,2,96,5,0,1
65186,-76.9230769230769,6,2,96,70,0,1
65990,-76.9230769230769,6,2,95,70,0,1
66258,-76.9230769230769,6,2,94,70,0,1
66526,-76.9230769230769,6,2,76,70,0,1
66659,-76.9230769230769,6,2,94,70,0,1
67597,-76.9230769230769,6,2,97,70,0,1
67865,-76.9230769230769,6,2,94,70,0,1
68133,-76.9230769230769,6,2,77,70,0,1
68267,-76.9230769230769,6,2,93,70,0,1
68333,-76.9230769230769,6,2,93,5,0,1
68400,-76.9230769230769,6,2,93,70,0,1
69204,-76.9230769230769,6,2,94,70,0,1
69472,-76.9230769230769,6,2,95,70,0,1
69740,-76.9230769230769,6,2,80,70,0,1
69874,-76.9230769230769,6,2,1,70,0,1
70543,-76.9230769230769,6,2,79,70,0,1
70811,-76.9230769230769,6,2,95,70,0,1
71079,-76.9230769230769,6,2,96,70,0,1
71347,-76.9230769230769,6,2,75,70,0,1
71481,-76.9230769230769,6,2,96,70,0,1
71548,-76.9230769230769,6,2,96,5,0,1
71615,-76.9230769230769,6,2,96,70,0,1
72418,-76.9230769230769,6,2,95,70,0,1
72686,-76.9230769230769,6,2,94,70,0,1
72954,-76.9230769230769,6,2,76,70,0,1
73088,-76.9230769230769,6,2,94,70,0,1
74025,-76.9230769230769,6,2,95,70,0,1
74293,-76.9230769230769,6,2,94,70,0,1
74561,-76.9230769230769,6,2,77,70,0,1
74695,-76.9230769230769,6,2,93,70,0,1
74762,-76.9230769230769,6,2,93,5,0,1
74829,-76.9230769230769,6,2,93,70,0,1
75633,-76.9230769230769,6,2,92,70,0,1
75900,-76.9230769230769,6,2,91,70,0,1
76169,-76.9230769230769,6,2,78,70,0,1
76302,-76.9230769230769,6,2,1,70,0,1
76972,-76.9230769230769,6,2,79,70,0,1
77240,-76.9230769230769,6,2,95,70,0,1
77508,-76.9230769230769,6,2,96,70,0,1
77776,-76.9230769230769,6,2,75,70,0,1
77910,-76.9230769230769,6,2,96,70,0,1
77976,-76.9230769230769,6,2,96,5,0,1
78043,-76.9230769230769,6,2,96,70,0,1
78847,-76.9230769230769,6,2,95,70,0,1
79115,-76.9230769230769,6,2,94,70,0,1
79383,-76.9230769230769,6,2,76,70,0,1
79517,-76.9230769230769,6,2,94,70,0,1
80454,-76.9230769230769,6,2,97,70,0,1
80722,-76.9230769230769,6,2,94,70,0,1
80990,-76.9230769230769,6,2,77,70,0,1
81124,-76.9230769230769,6,2,93,70,0,1
81191,-76.9230769230769,6,2,93,5,0,1
81258,-76.9230769230769,6,2,93,70,0,1
82061,-76.9230769230769,6,2,94,70,0,1
82329,-76.9230769230769,6,2,95,70,0,1
82597,-76.9230769230769,6,2,80,70,0,1
82731,-76.9230769230769,6,2,1,70,0,1
83400,-76.9230769230769,6,2,82,70,0,1
83534,-76.9230769230769,6,2,1,70,0,1
83936,-76.9230769230769,6,2,96,70,0,1
84204,-100,6,2,81,70,0,0
84335,-100,6,2,1,70,0,0
85208,-100,6,2,1,5,0,0
85275,-100,6,2,1,70,0,0
85476,-100,6,2,1,5,0,0
85543,-100,6,2,1,70,0,0
86816,-100,6,2,1,5,0,0
86883,-100,6,2,1,70,0,0
87083,-100,6,2,1,5,0,0
87150,-100,6,2,1,70,0,0
88423,-100,6,2,1,5,0,0
88490,-100,6,2,1,70,0,0
88691,-100,6,2,1,5,0,0
88758,-100,6,2,1,70,0,0
90030,-100,6,2,1,5,0,0
90097,-100,6,2,1,70,0,0
90298,-100,6,2,1,5,0,0
90365,-100,6,2,1,70,0,0
90633,-100,6,2,2,70,0,0
90766,-100,6,2,1,70,0,0
91637,-100,6,2,1,5,0,0
91704,-100,6,2,1,70,0,0
91905,-100,6,2,1,5,0,0
91972,-100,6,2,1,70,0,0
93244,-100,6,2,1,5,0,0
93311,-100,6,2,1,70,0,0
93512,-100,6,2,1,5,0,0
93579,-100,6,2,1,70,0,0
94851,-100,6,2,1,5,0,0
94918,-100,6,2,1,70,0,0
95119,-100,6,2,1,5,0,0
95186,-100,6,2,1,70,0,0
97061,-133.333333333333,6,2,2,50,0,0
97329,-133.333333333333,6,2,65,50,0,0
98668,-133.333333333333,6,2,66,50,0,0
100275,-133.333333333333,6,2,67,50,0,0
101615,-133.333333333333,6,2,100,50,0,0
101883,-133.333333333333,6,2,66,50,0,0
102552,-133.333333333333,6,2,68,50,0,0
103490,-133.333333333333,6,2,65,50,0,0
105097,-133.333333333333,6,2,66,50,0,0
106704,-133.333333333333,6,2,67,50,0,0
107508,-133.333333333333,6,2,68,50,0,0
107775,-133.333333333333,6,2,67,50,0,0
108043,-133.333333333333,6,2,68,50,0,0
108980,-133.333333333333,6,2,1,25,0,0
109784,-133.333333333333,6,2,1,20,0,0
110588,-133.333333333333,6,2,1,15,0,0
111525,-133.333333333333,6,2,1,5,0,0

[Colours]
Combo1 : 55,155,255
Combo2 : 69,200,13
Combo3 : 249,240,134
Combo4 : 255,173,91

[HitObjects]
54,160,650,6,0,P|122:161|171:203,1,120.000004577637,2|4,0:0|0:0,0:0:0:0:
216,264,1051,2,0,L|336:248,1,120.000004577637,2|4,0:0|0:0,0:0:0:0:
432,233,1453,1,2,0:0:0:0:
216,264,1721,1,4,0:0:0:0:
432,233,1989,1,2,0:0:0:0:
346,361,2257,6,0,P|325:313|350:224,1,120.000004577637,2|4,0:0|0:0,0:0:0:0:
436,118,2658,2,0,P|448:182|423:245,1,120.000004577637,2|4,0:0|0:0,0:0:0:0:
247,208,3060,1,8,0:0:0:0:
436,118,3328,1,4,0:0:0:0:
247,208,3596,1,8,0:0:0:0:
284,43,3864,6,0,P|322:89|327:148,1,120.000004577637,2|4,0:0|0:0,0:0:0:0:
247,208,4266,2,0,L|111:199,1,120.000004577637,2|4,0:0|0:0,0:0:0:0:
29,193,4667,1,2,0:0:0:0:
155,115,4935,1,8,0:0:0:0:
284,43,5203,1,2,0:0:0:0:
155,115,5471,6,0,L|163:243,1,120.000004577637,8|2,0:0|0:0,0:0:0:0:
261,331,5873,2,0,L|271:194,1,120.000004577637,8|2,0:0|0:0,0:0:0:0:
294,117,6275,1,2,0:0:0:0:
456,160,6542,1,4,0:0:0:0:
270,212,6810,1,8,0:0:0:0:
446,40,7078,6,0,L|455:159,1,120.000004577637,2|4,0:0|0:0,0:0:0:0:
384,230,7480,2,0,P|329:208|270:212,1,120.000004577637,2|4,0:0|0:0,0:0:0:0:
182,270,7882,1,2,0:0:0:0:
384,230,8150,1,4,0:0:0:0:
182,270,8417,1,2,0:0:0:0:
377,327,8685,6,0,L|509:308,1,120.000004577637,2|4,0:0|0:0,0:0:0:0:
502,214,9087,2,0,L|383:229,1,120.000004577637,2|4,0:0|0:0,0:0:0:0:
298,275,9489,1,8,0:0:0:0:
495,309,9757,1,4,0:0:0:0:
298,275,10025,1,8,0:0:0:0:
114,372,10292,6,0,P|183:372|232:340,1,120.000004577637,2|4,0:0|0:0,0:0:0:0:
302,279,10694,1,2,0:0:0:0:
302,279,10962,1,4,0:0:0:0:
233,201,11096,2,0,L|221:78,2,120.000004577637,2|4|2,0:0|0:0|0:0,0:0:0:0:
304,14,11900,1,4,0:0:0:0:
20,95,13507,6,0,B|121:60|124:149|225:121,1,207.999990478516,12|0,0:0|0:0,0:0:0:0:
63,179,13891,2,0,L|54:282,1,103.999995239258,8|0,0:0|0:0,0:0:0:0:
188,32,14159,1,0,0:0:0:0:
308,212,14293,6,0,L|205:221,1,103.999995239258,8|0,0:0|0:0,0:0:0:0:
421,167,14561,2,0,P|428:228|409:291,1,103.999995239258,8|0,0:0|0:0,0:0:0:0:
286,115,14829,2,0,P|280:63|293:-5,1,103.999995239258,8|0,0:0|0:0,0:0:0:0:
497,59,15097,6,0,L|375:69,1,103.999995239258,12|0,0:0|0:0,0:0:0:0:
210,225,15365,1,0,0:0:0:0:
210,225,15498,2,0,L|327:212,1,103.999995239258,8|0,0:0|0:0,0:0:0:0:
421,167,15766,1,0,0:0:0:0:
236,315,15900,5,12,0:0:0:0:
236,315,16034,1,8,0:3:0:0:
338,235,16168,1,8,0:3:0:0:
338,235,16302,1,8,0:3:0:0:
442,302,16436,1,8,0:3:0:0:
348,378,16570,1,8,0:3:0:0:
236,315,16704,6,0,P|128:318|32:367,1,207.999990478516,12|0,0:0|0:0,0:0:0:0:
101,160,17106,2,0,P|95:108|78:59,1,103.999995239258,12|0,0:0|0:0,0:0:0:0:
42,243,17373,1,0,0:0:0:0:
210,156,17507,6,0,L|316:140,1,103.999995239258,12|0,0:0|0:0,0:0:0:0:
491,288,17775,2,0,L|362:267,1,103.999995239258,12|0,0:0|0:0,0:0:0:0:
400,74,18043,2,0,P|418:128|414:189,1,103.999995239258,12|0,0:0|0:0,0:0:0:0:
179,256,18311,5,12,0:0:0:0:
179,256,18445,2,0,L|288:242,1,103.999995239258
202,369,18713,5,12,0:0:0:0:
202,369,18847,2,0,L|313:355,1,103.999995239258
499,195,19115,5,8,0:0:0:0:
493,220,19248,1,8,0:3:0:0:
374,252,19382,1,8,0:0:0:0:
382,272,19516,1,8,0:3:0:0:
347,102,19650,6,0,P|380:29|423:118,1,204.000003890991,8|0,0:0|0:0,0:0:0:0:
398,173,19918,6,0,B|296:218|303:130|193:171,1,207.999990478516,12|0,0:0|0:0,0:0:0:0:
128,373,20320,2,0,P|144:322|142:250,1,103.999995239258,12|0,0:0|0:0,0:0:0:0:
57,210,20588,1,0,0:0:0:0:
251,264,20722,6,0,L|372:252,1,103.999995239258,12|0,0:0|0:0,0:0:0:0:
190,68,20990,2,0,P|184:131|214:193,1,103.999995239258,12|0,0:0|0:0,0:0:0:0:
434,325,21257,2,0,P|455:271|455:219,1,103.999995239258,12|0,0:0|0:0,0:0:0:0:
222,368,21525,6,0,L|345:356,1,103.999995239258,12|0,0:0|0:0,0:0:0:0:
388,152,21793,1,0,0:0:0:0:
251,264,21927,2,0,L|356:255,1,103.999995239258,8|0,0:0|0:0,0:0:0:0:
414,53,22195,1,0,0:0:0:0:
278,178,22329,5,12,0:0:0:0:
278,178,22463,1,8,0:3:0:0:
455,225,22597,1,8,0:3:0:0:
455,225,22731,1,8,0:3:0:0:
414,53,22865,1,8,0:3:0:0:
388,152,22998,1,8,0:3:0:0:
186,95,23132,6,0,P|91:89|0:162,1,207.999990478516,12|0,0:0|0:0,0:0:0:0:
261,175,23534,2,0,P|285:133|290:66,1,103.999995239258,12|0,0:0|0:0,0:0:0:0:
156,202,23802,1,0,0:0:0:0:
338,254,23936,6,0,L|466:241,1,103.999995239258,12|0,0:0|0:0,0:0:0:0:
181,324,24204,2,0,L|65:337,1,103.999995239258,12|0,0:0|0:0,0:0:0:0:
357,224,24472,2,0,L|504:208,1,103.999995239258,12|0,0:0|0:0,0:0:0:0:
239,73,24740,5,12,0:0:0:0:
239,73,24873,2,0,L|265:195,1,103.999995239258
117,77,25141,5,12,0:0:0:0:
117,77,25275,2,0,L|143:188,1,103.999995239258
279,184,25543,5,8,0:0:0:0:
260,174,25677,1,8,0:0:0:0:
367,248,25811,1,8,0:0:0:0:
375,221,25945,1,8,0:0:0:0:
343,355,26079,1,8,0:0:0:0:
369,341,26213,1,8,0:0:0:0:
234,378,26347,5,12,0:0:0:0:
234,378,26615,5,0,0:0:0:0:
141,337,26748,2,0,P|79:318|-1:333,1,128,0|0,0:0|0:0,0:0:0:0:
132,235,27150,2,0,P|146:191|138:129,1,96,2|0,0:0|0:0,0:0:0:0:
117,127,27418,2,0,L|16:139,1,96,0|0,0:0|0:0,0:0:0:0:
0,109,27686,2,0,L|75:100,1,64,0|0,0:0|0:0,0:0:0:0:
172,42,27954,6,0,P|247:33|316:72,1,128,4|0,0:0|0:0,0:0:0:0:
384,173,28356,2,0,P|381:141|378:89,1,64,0|0,0:0|0:0,0:0:0:0:
395,17,28623,1,0,0:0:0:0:
288,146,28757,1,2,0:0:0:0:
288,146,29025,2,0,L|285:260,1,96,0|0,0:0|0:0,0:0:0:0:
285,272,29293,2,0,P|332:259|394:258,1,96,0|0,0:0|0:0,0:0:0:0:
404,286,29561,6,0,P|339:283|275:310,1,128,4|0,0:0|0:0,0:0:0:0:
482,358,29963,2,0,P|504:300|487:222,1,128,0|0,0:0|0:0,0:0:0:0:
438,150,30365,1,2,0:0:0:0:
438,150,30632,1,0,0:0:0:0:
345,193,30766,2,0,L|281:188,1,64,0|0,0:0|0:0,0:0:0:0:
173,118,31034,1,0,0:0:0:0:
173,118,31168,6,0,L|319:96,1,128,4|0,0:0|0:0,0:0:0:0:
410,8,31570,2,0,P|403:39|399:70,1,64,0|0,0:0|0:0,0:0:0:0:
464,145,31838,1,0,0:0:0:0:
378,212,31972,2,0,L|265:201,1,96,2|0,0:0|0:0,0:0:0:0:
255,222,32240,2,0,P|208:246|150:232,1,96,0|0,0:0|0:0,0:0:0:0:
138,223,32507,2,0,L|144:134,1,64,0|0,0:0|0:0,0:0:0:0:
18,41,32775,5,4,0:0:0:0:
18,41,33043,1,0,0:0:0:0:
106,75,33177,2,0,L|197:68,1,64,0|0,0:0|0:0,0:0:0:0:
26,138,33445,1,0,0:0:0:0:
26,138,33579,2,0,P|11:200|24:254,1,96,2|0,0:0|0:0,0:0:0:0:
36,255,33847,2,0,L|129:234,1,96,0|0,0:0|0:0,0:0:0:0:
163,247,34115,2,0,P|197:254|228:251,1,64,0|0,0:0|0:0,0:0:0:0:
397,166,34382,6,0,P|322:151|258:186,1,128,4|0,0:0|0:0,0:0:0:0:
346,307,34784,2,0,L|341:242,1,64,0|0,0:0|0:0,0:0:0:0:
486,134,35052,1,0,0:0:0:0:
486,134,35186,2,0,L|480:209,1,64,2|0,0:0|0:0,0:0:0:0:
357,109,35454,2,0,L|352:5,1,96,0|0,0:0|0:0,0:0:0:0:
377,0,35722,2,0,P|413:7|456:19,1,64,0|0,0:0|0:0,0:0:0:0:
258,53,35990,5,4,0:0:0:0:
258,53,36257,1,0,0:0:0:0:
165,88,36391,2,0,P|134:90|97:87,1,64,0|0,0:0|0:0,0:0:0:0:
249,152,36659,1,0,0:0:0:0:
249,152,36793,2,0,P|286:148|327:145,1,64,2|0,0:0|0:0,0:0:0:0:
149,191,37061,1,0,0:0:0:0:
230,313,37195,2,0,L|234:241,1,64,0|0,0:0|0:0,0:0:0:0:
142,339,37463,1,0,0:0:0:0:
325,363,37597,6,0,B|329:322|329:322|325:307|325:307|329:235,1,128,4|0,0:0|0:0,0:0:0:0:
481,272,37998,2,0,P|449:277|417:276,1,64,0|0,0:0|0:0,0:0:0:0:
328,235,38266,1,0,0:0:0:0:
417,146,38400,6,0,L|418:186,1,32,2|0,0:0|0:0,0:0:0:0:
411,185,38668,2,0,L|409:71,1,96,2|0,0:0|0:0,0:0:0:0:
433,55,38936,6,0,P|368:94|293:85,1,132.00000402832,8|0,0:0|0:0,0:0:0:0:
245,59,39204,5,4,0:0:0:0:
245,59,39472,1,0,0:0:0:0:
139,105,39606,2,0,L|50:97,1,80,0|0,0:0|0:0,0:0:0:0:
211,181,39873,1,0,0:0:0:0:
128,243,40007,2,0,P|106:299|120:373,1,120,8|0,0:0|0:0,0:0:0:0:
144,373,40275,2,0,L|249:365,1,80,0|0,0:0|0:0,0:0:0:0:
310,313,40543,1,8,0:0:0:0:
402,361,40677,1,8,0:0:0:0:
500,309,40811,6,0,L|507:133,1,160,4|0,0:0|0:0,0:0:0:0:
389,48,41213,2,0,P|397:95|401:135,1,80,4|0,0:0|0:0,0:0:0:0:
355,217,41481,1,0,0:0:0:0:
242,164,41615,2,0,L|144:165,1,80,8|0,0:0|0:0,0:0:0:0:
355,217,41882,2,0,P|374:273|365:354,1,120,0|0,0:0|0:0,0:0:0:0:
399,357,42150,2,0,L|493:349,1,80,0|0,0:0|0:0,0:0:0:0:
279,288,42418,5,4,0:0:0:0:
279,288,42686,1,0,0:0:0:0:
355,217,42820,2,0,P|359:171|352:131,1,80,4|0,0:0|0:0,0:0:0:0:
281,59,43088,1,0,0:0:0:0:
170,126,43222,2,0,L|33:122,1,120,8|0,0:0|0:0,0:0:0:0:
16,121,43490,1,0,0:0:0:0:
146,223,43623,2,0,P|161:260|174:301,1,80,0|0,0:0|0:0,0:0:0:0:
71,291,43891,1,0,0:0:0:0:
241,194,44025,6,0,B|327:167|321:218|413:195,1,160,4|0,0:0|0:0,0:0:0:0:
285,281,44427,2,0,P|270:331|262:365,1,80,4|0,0:0|0:0,0:0:0:0:
373,336,44695,1,0,0:0:0:0:
173,298,44829,2,0,L|26:308,1,120,8|0,0:0|0:0,0:0:0:0:
22,317,45097,2,0,P|46:251|29:168,1,120,8|0,0:0|0:0,0:0:0:0:
24,173,45365,1,8,0:0:0:0:
208,204,45498,1,8,0:0:0:0:
126,52,45632,6,0,L|135:151,1,80,4|0,0:0|0:0,0:0:0:0:
208,204,45900,1,0,0:0:0:0:
317,177,46034,2,0,P|360:176|416:177,1,80,0|0,0:0|0:0,0:0:0:0:
208,204,46302,1,0,0:0:0:0:
301,351,46436,2,0,L|289:266,1,80,8|0,0:0|0:0,0:0:0:0:
371,91,46704,2,0,P|439:97|477:131,1,120,0|0,0:0|0:0,0:0:0:0:
481,163,46972,2,0,L|490:253,1,80,0|0,0:0|0:0,0:0:0:0:
317,177,47240,6,0,P|271:117|296:15,1,160,4|0,0:0|0:0,0:0:0:0:
488,23,47641,2,0,P|444:17|409:9,1,80,4|0,0:0|0:0,0:0:0:0:
279,36,47909,1,0,0:0:0:0:
434,120,48043,2,0,P|481:112|536:109,1,80,8|0,0:0|0:0,0:0:0:0:
317,177,48311,2,0,P|255:172|194:167,1,120,0|0,0:0|0:0,0:0:0:0:
164,160,48579,2,0,L|171:241,1,80,0|0,0:0|0:0,0:0:0:0:
103,78,48847,5,4,0:0:0:0:
103,78,49115,1,0,0:0:0:0:
22,141,49248,2,0,P|15:192|12:230,1,80,4|0,0:0|0:0,0:0:0:0:
89,379,49516,1,0,0:0:0:0:
224,270,49650,2,0,L|91:285,1,120,8|0,0:0|0:0,0:0:0:0:
74,288,49918,1,0,0:0:0:0:
312,322,50052,2,0,P|322:283|320:236,1,80,0|0,0:0|0:0,0:0:0:0:
196,94,50320,1,0,0:0:0:0:
145,185,50454,6,0,P|195:196|298:128,1,160,4|0,0:0|0:0,0:0:0:0:
379,5,50856,2,0,P|374:64|372:106,1,80,4|0,0:0|0:0,0:0:0:0:
455,155,51123,1,0,0:0:0:0:
273,20,51257,5,8,0:0:0:0:
476,53,51391,1,8,0:0:0:0:
287,147,51525,2,0,P|294:193|300:226,1,80,8|8,0:0|0:0,0:0:0:0:
413,325,51793,2,0,P|416:282|421:231,1,80,8|8,0:3|0:3,0:0:0:0:
246,365,52061,5,12,0:0:0:0:
246,365,52329,2,0,P|293:359|353:356,1,80,8|0,0:0|0:0,0:0:0:0:
56,369,52597,2,0,P|99:355|153:332,1,80,8|0,0:0|0:0,0:0:0:0:
183,131,52865,5,12,0:0:0:0:
183,131,53132,2,0,P|190:173|199:209,1,80,0|0,0:0|0:0,0:0:0:0:
72,9,53400,2,0,P|59:51|48:103,1,80,8|0,0:0|0:0,0:0:0:0:
363,86,53668,5,12,0:0:0:0:
363,86,53936,2,0,P|324:73|286:64,1,80,0|0,0:0|0:0,0:0:0:0:
512,212,54204,2,0,P|500:172|491:125,1,80,8|0,0:0|0:0,0:0:0:0:
292,341,54472,5,12,0:0:0:0:
292,341,54740,2,0,P|296:305|303:247,1,80,8|0,0:0|0:0,0:0:0:0:
166,120,55007,2,0,P|171:159|176:199,1,80,8|8,0:0|0:0,0:0:0:0:
378,159,55285,5,12,0:0:0:0:
378,159,55418,1,8,0:0:0:0:
274,17,55552,2,0,L|271:125,1,80,8|8,0:0|0:0,0:0:0:0:
470,299,55820,2,0,L|478:199,1,80,8|8,0:0|0:0,0:0:0:0:
176,199,56088,6,0,B|220:206|267:190,1,88.000002685547,12|8,0:0|0:0,0:0:0:0:
493,73,56356,2,0,B|453:60|399:74,1,88.000002685547,8|8,0:0|0:0,0:0:0:0:
470,299,56624,2,0,P|479:256|469:207,1,88.000002685547,8|8,0:0|0:0,0:0:0:0:
271,96,56883,5,12,0:0:0:0:
300,294,57016,1,8,0:0:0:0:
463,186,57150,1,8,0:0:0:0:
174,216,57284,5,8,0:0:0:0:
393,245,57418,1,8,0:0:0:0:
213,36,57552,1,8,0:0:0:0:
84,223,57686,6,0,L|190:214,1,90.0000034332277,14|0,0:0|0:0,0:0:0:0:
205,226,57954,6,0,P|259:224|302:193,1,90.0000034332277,2|0,0:0|0:0,0:0:0:0:
304,177,58222,6,0,L|296:62,1,90.0000034332277,2|0,0:0|0:0,0:0:0:0:
334,17,58490,6,0,L|348:209,1,155.999992858887,14|0,0:0|0:0,0:0:0:0:
394,232,58758,1,0,0:0:0:0:
167,111,58891,2,0,P|121:96|55:102,1,103.999995239258,10|0,0:0|0:0,0:0:0:0:
219,329,59159,1,0,0:0:0:0:
219,329,59293,2,0,L|205:227,1,103.999995239258,10|0,0:0|0:0,0:0:0:0:
407,129,59561,2,0,L|395:232,1,103.999995239258,10|0,0:0|0:0,0:0:0:0:
267,131,59829,2,0,L|252:29,1,103.999995239258,10|0,0:0|0:0,0:0:0:0:
466,311,60097,6,0,P|367:334|291:263,1,207.999990478516,14|0,0:0|0:0,0:0:0:0:
86,320,60499,2,0,P|140:310|191:303,1,103.999995239258,8|0,0:0|0:0,0:0:0:0:
394,232,60766,1,0,0:0:0:0:
179,206,60900,5,10,0:0:0:0:
179,206,61034,1,8,0:3:0:0:
234,107,61168,1,10,0:0:0:0:
234,107,61302,1,8,0:3:0:0:
340,123,61436,1,10,0:0:0:0:
406,28,61570,1,8,0:3:0:0:
501,140,61704,6,0,B|477:350,1,207.999990478516,14|0,0:0|0:0,0:0:0:0:
293,268,62106,2,0,L|162:278,1,103.999995239258,10|0,0:0|0:0,0:0:0:0:
299,384,62374,1,0,0:0:0:0:
483,322,62508,2,0,L|366:327,1,103.999995239258,10|0,0:0|0:0,0:0:0:0:
374,129,62775,2,0,P|385:183|378:245,1,103.999995239258,10|0,0:0|0:0,0:0:0:0:
113,339,63043,2,0,P|97:297|103:227,1,103.999995239258,10|0,0:0|0:0,0:0:0:0:
283,189,63311,6,0,L|496:180,1,207.999990478516,14|0,0:0|0:0,0:0:0:0:
218,101,63713,2,0,L|-3:113,1,207.999990478516,8|0,0:0|0:0,0:0:0:0:
308,5,64115,1,14,0:0:0:0:
283,189,64249,1,8,0:3:0:0:
218,101,64383,1,10,0:0:0:0:
254,299,64516,1,8,0:3:0:0:
283,189,64650,1,10,0:0:0:0:
359,378,64784,1,8,0:3:0:0:
254,299,64918,6,0,L|88:288,1,155.999992858887,14|0,0:0|0:0,0:0:0:0:
21,283,65186,1,0,0:0:0:0:
198,200,65320,2,0,P|218:149|215:87,1,103.999995239258,10|0,0:0|0:0,0:0:0:0:
102,130,65588,1,0,0:0:0:0:
321,168,65722,2,0,L|441:171,1,103.999995239258,10|0,0:0|0:0,0:0:0:0:
254,299,65990,2,0,L|121:290,1,103.999995239258,10|0,0:0|0:0,0:0:0:0:
369,278,66258,2,0,P|368:331|344:382,1,103.999995239258,10|0,0:0|0:0,0:0:0:0:
219,207,66525,6,0,L|202:-8,1,207.999990478516,14|0,0:0|0:0,0:0:0:0:
15,197,66927,2,0,P|67:176|126:171,1,103.999995239258,8|0,0:0|0:0,0:0:0:0:
321,168,67195,1,0,0:0:0:0:
129,54,67329,5,10,0:0:0:0:
129,54,67463,1,8,0:3:0:0:
219,207,67597,1,10,0:0:0:0:
219,207,67731,1,8,0:3:0:0:
242,91,67865,1,10,0:0:0:0:
242,91,67999,1,8,0:3:0:0:
114,170,68133,6,0,L|127:325,1,155.999992858887,14|0,0:0|0:0,0:0:0:0:
175,384,68400,1,0,0:0:0:0:
294,185,68534,2,0,L|401:170,1,103.999995239258,10|0,0:0|0:0,0:0:0:0:
242,91,68802,1,0,0:0:0:0:
238,292,68936,2,0,L|355:273,1,103.999995239258,10|0,0:0|0:0,0:0:0:0:
512,228,69204,2,0,P|500:292|494:339,1,103.999995239258,10|0,0:0|0:0,0:0:0:0:
396,170,69472,2,0,P|389:118|380:67,1,103.999995239258,10|0,0:0|0:0,0:0:0:0:
164,352,69740,6,0,P|259:383|336:303,1,207.999990478516,14|0,0:0|0:0,0:0:0:0:
512,228,70141,2,0,P|454:237|392:254,1,103.999995239258,8|0,0:0|0:0,0:0:0:0:
238,292,70409,1,0,0:0:0:0:
438,344,70543,5,14,0:0:0:0:
290,179,70677,1,8,0:3:0:0:
438,344,70811,1,10,0:0:0:0:
301,157,70945,1,8,0:3:0:0:
438,344,71079,1,10,0:0:0:0:
312,137,71213,1,8,0:3:0:0:
512,269,71347,6,0,B|333:253,1,155.999992858887,14|0,0:0|0:0,0:0:0:0:
279,248,71615,1,0,0:0:0:0:
160,331,71749,2,0,P|105:336|51:319,1,103.999995239258,10|0,0:0|0:0,0:0:0:0:
283,251,72016,1,0,0:0:0:0:
283,251,72150,2,0,P|300:203|300:121,1,103.999995239258,10|0,0:0|0:0,0:0:0:0:
192,10,72418,2,0,L|210:141,1,103.999995239258,10|0,0:0|0:0,0:0:0:0:
406,187,72686,2,0,L|416:76,1,103.999995239258,10|0,0:0|0:0,0:0:0:0:
124,177,72954,6,0,P|207:207|308:142,1,207.999990478516,14|0,0:0|0:0,0:0:0:0:
454,1,73356,2,0,P|404:-2|340:22,1,103.999995239258,8|0,0:0|0:0,0:0:0:0:
206,113,73624,1,0,0:0:0:0:
419,87,73758,5,10,0:0:0:0:
419,87,73891,1,8,0:3:0:0:
308,153,74025,1,10,0:0:0:0:
308,153,74159,1,8,0:3:0:0:
408,220,74293,1,10,0:0:0:0:
295,281,74427,1,8,0:3:0:0:
495,350,74561,6,0,P|498:272|514:130,1,207.999990478516,14|0,0:0|0:0,0:0:0:0:
389,0,74963,2,0,P|400:44|414:102,1,103.999995239258,10|0,0:0|0:0,0:0:0:0:
408,220,75231,1,0,0:0:0:0:
279,52,75365,2,0,P|293:99|308:155,1,103.999995239258,10|0,0:0|0:0,0:0:0:0:
101,181,75633,2,0,P|153:171|208:162,1,103.999995239258,10|0,0:0|0:0,0:0:0:0:
102,285,75900,2,0,P|55:294|-14:304,1,103.999995239258,10|0,0:0|0:0,0:0:0:0:
221,289,76168,6,0,P|338:262|417:321,1,207.999990478516,14|0,0:0|0:0,0:0:0:0:
497,131,76570,2,0,P|476:194|479:265,1,103.999995239258,8|0,0:0|0:0,0:0:0:0:
487,384,76838,1,0,0:0:0:0:
305,356,76972,5,14,0:0:0:0:
482,238,77106,1,8,0:3:0:0:
286,352,77240,1,10,0:0:0:0:
482,238,77374,1,8,0:3:0:0:
267,347,77508,1,10,0:0:0:0:
482,238,77641,1,8,0:3:0:0:
381,7,77775,6,0,P|375:82|375:169,1,155.999992858887,14|0,0:0|0:0,0:0:0:0:
393,237,78043,1,0,0:0:0:0:
221,289,78177,2,0,P|169:293|115:281,1,103.999995239258,10|0,0:0|0:0,0:0:0:0:
51,192,78445,1,0,0:0:0:0:
265,93,78579,2,0,L|272:203,1,103.999995239258,10|0,0:0|0:0,0:0:0:0:
422,322,78847,2,0,L|432:203,1,103.999995239258,10|0,0:0|0:0,0:0:0:0:
221,377,79115,2,0,P|279:374|326:339,1,103.999995239258,10|0,0:0|0:0,0:0:0:0:
490,137,79383,6,0,P|384:133|322:218,1,207.999990478516,14|0,0:0|0:0,0:0:0:0:
57,110,79784,2,0,P|176:101|274:92,1,207.999990478516,8|0,0:0|0:0,0:0:0:0:
490,137,80186,5,10,0:0:0:0:
490,137,80320,1,8,0:3:0:0:
415,31,80454,1,10,0:0:0:0:
415,31,80588,1,8,0:3:0:0:
323,209,80722,1,10,0:0:0:0:
323,209,80856,1,8,0:3:0:0:
490,137,80990,6,0,B|337:108,1,155.999992858887,14|0,0:0|0:0,0:0:0:0:
264,92,81258,1,0,0:0:0:0:
140,295,81391,2,0,P|202:278|252:270,1,103.999995239258,10|0,0:0|0:0,0:0:0:0:
462,243,81659,1,0,0:0:0:0:
462,243,81793,2,0,P|456:299|451:353,1,103.999995239258,10|0,0:0|0:0,0:0:0:0:
319,142,82061,2,0,P|327:199|336:258,1,103.999995239258,10|0,0:0|0:0,0:0:0:0:
442,24,82329,2,0,P|436:75|432:127,1,103.999995239258,10|0,0:0|0:0,0:0:0:0:
224,70,82597,6,0,P|121:80|65:166,1,207.999990478516,14|0,0:0|0:0,0:0:0:0:
173,376,82999,2,0,L|182:168,1,207.999990478516,8|0,0:0|0:0,0:0:0:0:
82,320,83400,5,14,0:0:0:0:
82,320,83534,1,8,0:3:0:0:
298,216,83668,1,8,0:3:0:0:
298,216,83802,1,8,0:3:0:0:
269,340,83936,1,10,0:0:0:0:
269,340,84070,1,8,0:3:0:0:
182,168,84204,6,0,P|176:93|172:7,1,160,14|0,0:0|0:0,0:0:0:0:
277,120,84606,2,0,B|352:144|355:90|434:115,1,160,12|0,0:0|0:0,0:0:0:0:
512,235,85008,2,0,P|453:214|373:229,1,120,8|0,0:0|0:0,0:0:0:0:
363,231,85275,2,0,L|347:359,1,120,8|0,0:0|0:0,0:0:0:0:
309,380,85543,2,0,L|320:296,1,80,8|0,0:0|0:0,0:0:0:0:
153,145,85811,6,0,P|206:206|207:303,1,160,12|0,0:0|0:0,0:0:0:0:
126,372,86213,1,12,0:0:0:0:
126,372,86481,1,0,0:0:0:0:
0,285,86615,2,0,L|119:271,1,120,8|0,0:0|0:0,0:0:0:0:
152,276,86883,2,0,P|217:281|274:244,1,120,8|0,0:0|0:0,0:0:0:0:
273,224,87150,2,0,L|263:138,1,80,8|0,0:0|0:0,0:0:0:0:
394,8,87418,6,0,L|383:193,1,160,12|0,0:0|0:0,0:0:0:0:
456,322,87820,2,0,L|462:242,1,80,12|0,0:0|0:0,0:0:0:0:
384,167,88088,1,0,0:0:0:0:
273,224,88222,2,0,L|120:214,1,120,8|0,0:0|0:0,0:0:0:0:
131,206,88490,2,0,P|182:250|186:324,1,120,8|0,0:0|0:0,0:0:0:0:
181,321,88758,2,0,L|275:327,1,80,8|0,0:0|0:0,0:0:0:0:
453,174,89025,6,0,L|444:355,1,160,12|0,0:0|0:0,0:0:0:0:
340,368,89427,2,0,L|345:272,1,80,12|0,0:0|0:0,0:0:0:0:
293,97,89695,1,0,0:0:0:0:
201,208,89829,2,0,L|327:191,1,120,8|0,0:0|0:0,0:0:0:0:
352,184,90097,2,0,P|382:146|390:60,1,120,8|0,0:0|0:0,0:0:0:0:
376,41,90365,1,8,0:0:0:0:
502,142,90499,1,8,0:0:0:0:
293,97,90633,6,0,L|108:117,1,160,12|0,0:0|0:0,0:0:0:0:
8,278,91034,2,0,P|73:244|180:257,1,160,12|0,0:0|0:0,0:0:0:0:
378,287,91436,2,0,P|317:281|249:313,1,120,8|0,0:0|0:0,0:0:0:0:
237,320,91704,2,0,P|258:252|246:185,1,120,8|0,0:0|0:0,0:0:0:0:
227,176,91972,2,0,L|232:83,1,80,8|0,0:0|0:0,0:0:0:0:
365,146,92240,6,0,P|444:162|529:107,1,160,12|0,0:0|0:0,0:0:0:0:
426,4,92641,1,12,0:0:0:0:
426,4,92909,1,0,0:0:0:0:
325,46,93043,2,0,L|182:34,1,120,8|0,0:0|0:0,0:0:0:0:
176,67,93311,2,0,P|117:97|54:87,1,120,8|0,0:0|0:0,0:0:0:0:
37,78,93579,2,0,L|24:-2,1,80,8|0,0:0|0:0,0:0:0:0:
130,141,93847,6,0,L|116:309,1,160,12|0,0:0|0:0,0:0:0:0:
229,202,94249,2,0,L|343:188,1,80,12|0,0:0|0:0,0:0:0:0:
367,367,94516,1,0,0:0:0:0:
219,295,94650,2,0,L|357:278,1,120,8|0,0:0|0:0,0:0:0:0:
366,266,94918,2,0,P|391:216|384:145,1,120,8|0,0:0|0:0,0:0:0:0:
370,124,95186,2,0,P|362:88|367:40,1,80,8|0,0:0|0:0,0:0:0:0:
166,131,95454,6,0,P|246:145|315:201,1,160,12|4,0:0|0:0,0:0:0:0:
482,257,95856,2,0,L|488:177,1,80,8|0,0:0|0:0,0:0:0:0:
366,266,96124,1,4,0:0:0:0:
460,84,96258,1,8,0:0:0:0:
460,84,96525,5,8,0:0:0:0:
358,118,96659,1,4,0:0:0:0:
172,92,96793,1,8,0:0:0:0:
271,53,96927,1,12,0:0:0:0:
358,118,97061,6,0,P|377:179|367:258,1,120.000004577637,6|4,0:0|0:0,0:0:0:0:
280,269,97463,2,0,L|160:260,1,120.000004577637,8|4,0:0|0:0,0:0:0:0:
59,252,97865,1,8,0:0:0:0:
280,269,98133,1,4,0:0:0:0:
59,252,98400,1,8,0:0:0:0:
165,377,98668,6,0,P|174:319|157:253,1,120.000004577637,2|4,0:0|0:0,0:0:0:0:
48,135,99070,2,0,P|41:194|58:251,1,120.000004577637,2|4,0:0|0:0,0:0:0:0:
233,192,99472,1,8,0:0:0:0:
48,135,99740,1,4,0:0:0:0:
233,192,100008,1,8,0:0:0:0:
42,40,100275,6,0,L|171:17,1,120.000004577637,2|4,0:0|0:0,0:0:0:0:
260,75,100677,2,0,P|238:142|232:202,1,120.000004577637,2|4,0:0|0:0,0:0:0:0:
362,128,101079,1,2,0:0:0:0:
260,75,101347,1,8,0:0:0:0:
160,18,101615,1,2,0:0:0:0:
260,75,101883,6,0,L|254:194,1,120.000004577637,8|4,0:0|0:0,0:0:0:0:
329,251,102284,2,0,P|331:310|302:361,1,120.000004577637,8|8,0:0|0:0,0:0:0:0:
253,194,102686,1,2,0:0:0:0:
423,221,102954,1,4,0:0:0:0:
240,286,103222,1,8,0:0:0:0:
396,131,103490,6,0,P|403:55|408:-16,1,120.000004577637,2|4,0:0|0:0,0:0:0:0:
311,78,103891,2,0,P|257:100|180:92,1,120.000004577637,2|4,0:0|0:0,0:0:0:0:
99,71,104293,1,8,0:0:0:0:
311,78,104561,1,4,0:0:0:0:
99,71,104829,2,0,L|89:-7,1,60.0000022888184,8|0,0:0|0:0,0:0:0:0:
20,136,105097,6,0,P|-1:199|17:268,1,120.000004577637,2|4,0:0|0:0,0:0:0:0:
92,293,105499,2,0,L|234:279,1,120.000004577637,2|4,0:0|0:0,0:0:0:0:
315,309,105900,1,8,0:0:0:0:
315,309,106168,2,0,L|325:372,1,60.0000022888184,4|0,0:0|0:0,0:0:0:0:
413,271,106436,2,0,L|418:198,1,60.0000022888184,8|0,0:0|0:0,0:0:0:0:
222,188,106704,6,0,P|281:183|337:151,1,120.000004577637,2|4,0:0|0:0,0:0:0:0:
496,110,107106,2,0,P|424:97|376:50,1,120.000004577637,2|4,0:0|0:0,0:0:0:0:
321,0,107508,1,4,0:0:0:0:
222,188,107775,1,4,0:0:0:0:
496,110,108043,1,2,0:0:0:0:
321,0,108311,5,4,0:0:0:0:
256,192,108378,12,0,111525,0:0:0:0:
