osu file format v14

[General]
AudioFilename: audio.mp3
AudioLeadIn: 0
PreviewTime: 57619
Countdown: 0
SampleSet: Soft
StackLeniency: 0.7
Mode: 0
LetterboxInBreaks: 0
WidescreenStoryboard: 0

[Editor]
Bookmarks: 13546,58546,77783,84262,90636,97064,111525
DistanceSpacing: 2.4
BeatDivisor: 4
GridSize: 4
TimelineZoom: 1.6

[Metadata]
Title:in the Garden
TitleUnicode:in the Garden
Artist:Primary
ArtistUnicode:Primary
Creator:Kyuukai
Version:Endless Sky
Source:
Tags:yuiko yuikonnu album Meis Clauson shogunmoon yaleufeu owens pono ponoyoshi momochikun
BeatmapID:1328177
BeatmapSetID:629217

[Difficulty]
HPDrainRate:6
CircleSize:3.4
OverallDifficulty:9.1
ApproachRate:9.4
SliderMultiplier:1.8
SliderTickRate:1

[Events]
//Background and Video events
0,0,"flowers.jpg",0,0
//Break Periods
//Storyboard Layer 0 (Background)
//Storyboard Layer 1 (Fail)
//Storyboard Layer 2 (Pass)
//Storyboard Layer 3 (Foreground)
//Storyboard Sound Samples

[TimingPoints]
650,267.857142857143,6,2,65,50,1,0
2257,-100,6,2,66,50,0,0
3864,-100,6,2,67,50,0,0
5203,-100,6,2,100,50,0,0
5471,-100,6,2,66,50,0,0
5739,-100,6,2,67,50,0,0
5873,-100,6,2,66,50,0,0
6141,-100,6,2,67,50,0,0
6275,-100,6,2,68,50,0,0
7078,-100,6,2,65,50,0,0
8685,-100,6,2,66,50,0,0
10292,-100,6,2,67,50,0,0
11096,-100,6,2,68,50,0,0
11364,-100,6,2,67,50,0,0
11632,-100,6,2,68,50,0,0
13490,267.857142857143,6,2,3,60,1,0
13490,-100,6,2,3,60,0,0
13624,-100,6,2,1,60,0,0
15097,-100,6,2,3,60,0,0
15231,-100,6,2,1,60,0,0
16704,-100,6,2,3,60,0,0
16838,-100,6,2,1,60,0,0
18311,-100,6,2,3,60,0,0
18445,-100,6,2,1,60,0,0
19919,-100,6,2,3,60,0,0
20052,-100,6,2,1,60,0,0
21526,-100,6,2,3,60,0,0
21660,-100,6,2,1,60,0,0
23133,-100,6,2,3,60,0,0
23267,-100,6,2,1,60,0,0
24740,-100,6,2,3,60,0,0
24874,-100,6,2,1,60,0,0
25811,-100,6,2,1,65,0,0
26079,-100,6,2,1,70,0,0
26347,-166.666666666667,6,2,2,50,0,0
26615,-166.666666666667,6,2,1,50,0,0
39204,-125,6,2,2,60,0,0
39472,-125,6,2,1,60,0,0
45633,-125,6,2,2,60,0,0
45900,-125,6,2,1,60,0,0
52061,-142.857142857143,6,2,2,50,0,0
52329,-142.857142857143,6,2,1,50,0,0
52865,-142.857142857143,6,2,2,50,0,0
53133,-142.857142857143,6,2,1,50,0,0
53669,-142.857142857143,6,2,2,50,0,0
53936,-142.857142857143,6,2,1,50,0,0
54472,-142.857142857143,6,2,2,50,0,0
54740,-142.857142857143,6,2,1,50,0,0
55285,267.857142857143,6,2,2,50,1,0
55285,-142.857142857143,6,2,2,50,0,0
55418,-142.857142857143,6,2,1,50,0,0
56088,-125,6,2,2,55,0,0
56222,-125,6,2,1,55,0,0
56883,267.857142857143,6,2,2,60,1,0
56883,-111.111111111111,6,2,2,60,0,0
57016,-111.111111111111,6,2,1,60,0,0
57150,-111.111111111111,6,2,1,65,0,0
57418,-100,6,2,1,65,0,0
57686,-200,6,2,99,65,0,0
57954,-200,6,2,95,50,0,0
58222,-200,6,2,96,50,0,0
58490,-83.3333333333333,6,2,75,70,0,1
58624,-83.3333333333333,6,2,96,70,0,1
59561,-83.3333333333333,6,2,95,70,0,1
59829,-83.3333333333333,6,2,94,70,0,1
60097,-83.3333333333333,6,2,76,70,0,1
60231,-83.3333333333333,6,2,94,70,0,1
61168,-83.3333333333333,6,2,95,70,0,1
61436,-83.3333333333333,6,2,94,70,0,1
61704,-83.3333333333333,6,2,77,70,0,1
61838,-83.3333333333333,6,2,93,70,0,1
62775,-83.3333333333333,6,2,92,70,0,1
63043,-83.3333333333333,6,2,91,70,0,1
63311,-83.3333333333333,6,2,78,70,0,1
63445,-83.3333333333333,6,2,1,70,0,1
64115,-83.3333333333333,6,2,79,70,0,1
64383,-83.3333333333333,6,2,95,70,0,1
64650,-83.3333333333333,6,2,96,70,0,1
64919,-83.3333333333333,6,2,75,70,0,1
65052,-83.3333333333333,6,2,96,70,0,1
65990,-83.3333333333333,6,2,95,70,0,1
66258,-83.3333333333333,6,2,94,70,0,1
66526,-83.3333333333333,6,2,76,70,0,1
66659,-83.3333333333333,6,2,94,70,0,1
67597,-83.3333333333333,6,2,97,70,0,1
67865,-83.3333333333333,6,2,94,70,0,1
68133,-83.3333333333333,6,2,77,70,0,1
68267,-83.3333333333333,6,2,93,70,0,1
69204,-83.3333333333333,6,2,94,70,0,1
69472,-83.3333333333333,6,2,95,70,0,1
69740,-83.3333333333333,6,2,80,70,0,1
69874,-83.3333333333333,6,2,1,70,0,1
70543,-83.3333333333333,6,2,79,70,0,1
70811,-83.3333333333333,6,2,95,70,0,1
71079,-83.3333333333333,6,2,96,70,0,1
71347,-83.3333333333333,6,2,75,70,0,1
71481,-83.3333333333333,6,2,96,70,0,1
72418,-83.3333333333333,6,2,95,70,0,1
72686,-83.3333333333333,6,2,94,70,0,1
72954,-83.3333333333333,6,2,76,70,0,1
73088,-83.3333333333333,6,2,94,70,0,1
74025,-83.3333333333333,6,2,95,70,0,1
74293,-83.3333333333333,6,2,94,70,0,1
74561,-83.3333333333333,6,2,77,70,0,1
74695,-83.3333333333333,6,2,93,70,0,1
75633,-83.3333333333333,6,2,92,70,0,1
75900,-83.3333333333333,6,2,91,70,0,1
76169,-83.3333333333333,6,2,78,70,0,1
76302,-83.3333333333333,6,2,1,70,0,1
76972,-83.3333333333333,6,2,79,70,0,1
77240,-83.3333333333333,6,2,95,70,0,1
77508,-83.3333333333333,6,2,96,70,0,1
77776,-83.3333333333333,6,2,75,70,0,1
77910,-83.3333333333333,6,2,96,70,0,1
78847,-83.3333333333333,6,2,95,70,0,1
79115,-83.3333333333333,6,2,94,70,0,1
79383,-83.3333333333333,6,2,76,70,0,1
79517,-83.3333333333333,6,2,94,70,0,1
80454,-83.3333333333333,6,2,97,70,0,1
80722,-83.3333333333333,6,2,94,70,0,1
80990,-83.3333333333333,6,2,77,70,0,1
81124,-83.3333333333333,6,2,93,70,0,1
82061,-83.3333333333333,6,2,94,70,0,1
82329,-83.3333333333333,6,2,95,70,0,1
82597,-83.3333333333333,6,2,80,70,0,1
82731,-83.3333333333333,6,2,1,70,0,1
83400,-83.3333333333333,6,2,82,70,0,1
83534,-83.3333333333333,6,2,1,70,0,1
83936,-83.3333333333333,6,2,96,70,0,1
84204,-100,6,2,81,60,0,0
84335,-100,6,2,1,60,0,0
90633,-100,6,2,2,60,0,0
90766,-100,6,2,1,60,0,0
97061,-100,6,2,2,50,0,0
97329,-100,6,2,65,50,0,0
98668,-100,6,2,66,50,0,0
100275,-100,6,2,67,50,0,0
101615,-100,6,2,100,50,0,0
101883,-100,6,2,66,50,0,0
102552,-100,6,2,68,50,0,0
103490,-100,6,2,65,50,0,0
105097,-100,6,2,66,50,0,0
106704,-100,6,2,67,50,0,0
107508,-100,6,2,68,50,0,0
107775,-100,6,2,67,50,0,0
108043,-100,6,2,68,50,0,0
108980,-100,6,2,1,25,0,0
109784,-100,6,2,1,20,0,0
110588,-100,6,2,1,15,0,0
111525,-100,6,2,1,5,0,0

[Colours]
Combo1 : 55,155,255
Combo2 : 69,200,13
Combo3 : 249,240,134
Combo4 : 255,173,91

[HitObjects]
59,164,650,5,2,0:0:0:0:
162,150,917,5,4,0:0:0:0:
60,156,1051,1,2,0:0:0:0:
167,162,1319,5,4,0:0:0:0:
60,148,1453,1,2,0:0:0:0:
173,175,1721,5,4,0:0:0:0:
60,140,1989,5,2,0:0:0:0:
436,133,2257,5,2,0:0:0:0:
339,175,2525,5,4,0:0:0:0:
436,140,2658,1,2,0:0:0:0:
345,162,2926,5,4,0:0:0:0:
436,148,3060,1,8,0:0:0:0:
350,150,3328,5,4,0:0:0:0:
436,156,3596,5,8,0:0:0:0:
164,336,3864,5,2,0:0:0:0:
340,284,4132,5,4,0:0:0:0:
156,324,4266,1,2,0:0:0:0:
344,272,4533,5,4,0:0:0:0:
148,312,4667,1,2,0:0:0:0:
348,264,4935,5,8,0:0:0:0:
140,304,5203,5,2,0:0:0:0:
348,48,5471,5,8,0:0:0:0:
172,100,5739,5,2,0:0:0:0:
356,60,5873,1,8,0:0:0:0:
168,112,6141,5,2,0:0:0:0:
364,72,6275,1,2,0:0:0:0:
164,124,6542,5,4,0:0:0:0:
372,84,6810,5,8,0:0:0:0:
59,220,7078,5,2,0:0:0:0:
162,234,7346,5,4,0:0:0:0:
60,228,7480,1,2,0:0:0:0:
167,222,7748,5,4,0:0:0:0:
60,236,7882,1,2,0:0:0:0:
173,209,8150,5,4,0:0:0:0:
60,244,8417,5,2,0:0:0:0:
436,251,8685,5,2,0:0:0:0:
339,209,8953,5,4,0:0:0:0:
436,244,9087,1,2,0:0:0:0:
345,222,9355,5,4,0:0:0:0:
436,236,9489,1,8,0:0:0:0:
350,234,9757,5,4,0:0:0:0:
436,228,10025,5,8,0:0:0:0:
164,48,10292,5,2,0:0:0:0:
340,100,10560,5,4,0:0:0:0:
156,60,10694,1,2,0:0:0:0:
344,112,10962,5,4,0:0:0:0:
148,72,11096,1,2,0:0:0:0:
348,124,11364,5,4,0:0:0:0:
140,84,11632,5,2,0:0:0:0:
348,336,11900,5,4,0:0:0:0:
348,336,13490,6,0,L|256:324,1,90,12|0,0:0|0:0,0:0:0:0:
125,230,13757,1,0,0:0:0:0:
199,192,13891,2,0,P|207:235|193:277,1,90,8|0,0:0|0:0,0:0:0:0:
125,230,14159,1,0,0:0:0:0:
250,125,14293,6,0,P|274:162|287:209,1,90,8|0,0:0|0:0,0:0:0:0:
340,348,14561,2,0,L|248:336,1,90,8|0,0:0|0:0,0:0:0:0:
304,64,14829,2,0,P|332:100|356:148,1,90,8|0,0:0|0:0,0:0:0:0:
324,372,15097,6,0,L|232:360,1,90,12|0,0:0|0:0,0:0:0:0:
76,340,15365,1,0,0:0:0:0:
36,136,15498,2,0,L|42:225,1,90,8|0,0:0|0:0,0:0:0:0:
199,192,15766,1,0,0:0:0:0:
110,63,15900,2,0,L|116:152,1,90,8|8,0:0|0:3,0:0:0:0:
252,288,16168,5,8,0:3:0:0:
308,140,16302,1,8,0:3:0:0:
140,268,16436,5,8,0:3:0:0:
344,348,16570,1,8,0:3:0:0:
199,192,16704,6,0,L|192:102,1,90,12|0,0:0|0:0,0:0:0:0:
308,24,16972,1,0,0:0:0:0:
456,188,17106,2,0,P|400:196|340:184,1,90,8|0,0:0|0:0,0:0:0:0:
404,76,17373,1,0,0:0:0:0:
444,268,17507,6,0,P|381:269|324:256,1,90,8|0,0:0|0:0,0:0:0:0:
184,184,17775,2,0,L|177:94,1,90,8|0,0:0|0:0,0:0:0:0:
428,344,18043,2,0,P|372:344|316:332,1,90,8|0,0:0|0:0,0:0:0:0:
160,176,18311,6,0,L|153:86,1,90,12|0,0:0|0:0,0:0:0:0:
52,240,18579,1,0,0:0:0:0:
244,288,18713,2,0,P|200:280|157:292,1,90,8|0,0:0|0:0,0:0:0:0:
60,356,18981,1,0,0:0:0:0:
160,176,19115,5,8,0:0:0:0:
244,288,19248,1,8,0:3:0:0:
153,86,19382,5,8,0:0:0:0:
52,240,19516,1,8,0:3:0:0:
157,291,19650,5,8,0:0:0:0:
44,124,19784,1,8,0:0:0:0:
328,252,19918,6,0,P|376:252|448:244,1,90,12|0,0:0|0:0,0:0:0:0:
480,164,20186,1,0,0:0:0:0:
328,80,20320,6,0,P|280:80|208:88,1,90,8|0,0:0|0:0,0:0:0:0:
172,168,20588,1,0,0:0:0:0:
320,264,20722,6,0,P|367:268|440:266,1,90,8|0,0:0|0:0,0:0:0:0:
336,68,20990,2,0,P|291:63|246:63,1,90,8|0,0:0|0:0,0:0:0:0:
312,276,21257,2,0,P|359:284|431:288,1,90,8|0,0:0|0:0,0:0:0:0:
319,42,21525,6,0,P|273:42|228:45,1,90,12|0,0:0|0:0,0:0:0:0:
128,196,21793,1,0,0:0:0:0:
80,116,21927,2,0,P|132:104|192:128,1,90,8|0,0:0|0:0,0:0:0:0:
308,234,22195,1,0,0:0:0:0:
276,348,22329,5,8,0:3:0:0:
242,166,22463,1,8,0:3:0:0:
400,352,22597,5,8,0:3:0:0:
328,148,22731,1,8,0:3:0:0:
456,220,22865,5,8,0:3:0:0:
276,348,22998,1,8,0:3:0:0:
360,60,23132,6,0,P|396:85|418:124,1,90,12|0,0:0|0:0,0:0:0:0:
364,299,23400,1,0,0:0:0:0:
242,166,23534,6,0,P|282:147|327:147,1,90,8|0,0:0|0:0,0:0:0:0:
456,220,23802,1,0,0:0:0:0:
280,316,23936,6,0,P|283:272|307:234,1,90,8|0,0:0|0:0,0:0:0:0:
428,108,24204,2,0,P|402:71|364:49,1,90,8|0,0:0|0:0,0:0:0:0:
228,168,24472,2,0,P|264:142|308:134,1,90,8|0,0:0|0:0,0:0:0:0:
477,230,24740,6,0,P|436:211|392:212,1,90,12|0,0:0|0:0,0:0:0:0:
307,233,25007,1,0,0:0:0:0:
390,384,25141,6,0,P|413:346|417:302,1,90,8|0,0:0|0:0,0:0:0:0:
392,212,25409,1,0,0:0:0:0:
192,348,25543,5,8,0:0:0:0:
396,196,25677,1,8,0:0:0:0:
160,256,25811,5,8,0:0:0:0:
400,180,25945,1,8,0:0:0:0:
132,160,26079,5,8,0:0:0:0:
404,164,26213,1,8,0:0:0:0:
261,83,26347,5,12,0:0:0:0:
301,166,26615,5,0,0:0:0:0:
301,166,26748,2,0,L|427:144,1,107.999996704102
368,64,27150,2,0,L|238:88,1,107.999996704102,2|0,0:0|0:0,0:0:0:0:
116,184,27686,1,0,0:0:0:0:
144,76,27820,1,0,0:0:0:0:
184,267,27954,6,0,P|128:292|64:279,1,107.999996704102,4|0,0:0|0:0,0:0:0:0:
116,184,28356,2,0,P|160:164|188:160,2,53.9999983520508
76,304,28757,2,0,P|129:307|177:283,1,107.999996704102,2|0,0:0|0:0,0:0:0:0:
184,268,29293,1,0,0:0:0:0:
193,86,29561,6,0,P|107:102|76:120,1,107.999996704102,4|0,0:0|0:0,0:0:0:0:
183,161,29963,2,0,P|111:188|88:216,1,107.999996704102
212,248,30365,2,0,P|148:264|152:296,1,107.999996704102,2|0,0:0|0:0,0:0:0:0:
257,345,30766,2,0,P|217:328|241:365,1,107.999996704102
448,324,31168,5,4,0:0:0:0:
369,272,31302,2,0,P|357:308|357:348,2,53.9999983520508
369,272,31838,1,0,0:0:0:0:
445,159,31972,2,0,P|456:125|456:92,1,53.9999983520508,2|0,0:0|0:0,0:0:0:0:
366,108,32240,2,0,P|364:72|356:40,1,53.9999983520508
274,91,32507,2,0,P|261:57|240:32,1,53.9999983520508
177,188,32775,5,4,0:0:0:0:
73,189,33043,1,0,0:0:0:0:
73,189,33177,2,0,P|129:175|189:195,1,107.999996704102
176,332,33579,2,0,P|124:344|72:330,1,107.999996704102,2|0,0:0|0:0,0:0:0:0:
73,189,34115,1,0,0:0:0:0:
128,260,34248,1,0,0:0:0:0:
172,133,34382,2,0,P|177:164|172:209,1,53.9999983520508,4|0,0:0|0:0,0:0:0:0:
84,96,34650,1,0,0:0:0:0:
177,187,34784,2,0,P|213:190|248:184,2,53.9999983520508
282,89,35186,6,0,P|351:72|400:84,1,107.999996704102,2|0,0:0|0:0,0:0:0:0:
386,78,35722,1,0,0:0:0:0:
364,288,35990,6,0,L|347:163,1,107.999996704102,4|0,0:0|0:0,0:0:0:0:
282,89,36391,2,0,L|268:204,1,107.999996704102
176,276,36793,2,0,L|191:152,1,107.999996704102,2|0,0:0|0:0,0:0:0:0:
84,112,37195,2,0,L|105:231,1,107.999996704102
160,284,37597,2,0,P|124:297|104:312,2,53.9999983520508,4|0|0,0:0|0:0|0:0,0:0:0:0:
256,340,37998,2,0,P|232:353|207:361,2,53.9999983520508
414,285,38400,5,2,0:0:0:0:
412,268,38668,5,2,0:0:0:0:
410,253,38936,5,8,0:0:0:0:
408,240,39070,1,8,0:0:0:0:
256,340,39204,5,4,0:0:0:0:
288,144,39472,5,0,0:0:0:0:
287,143,39606,2,0,P|318:218|319:293,1,144
120,272,40007,2,0,P|161:262|213:269,1,72,8|0,0:0|0:0,0:0:0:0:
144,172,40275,2,0,P|197:180|242:197,1,72
320,280,40543,1,8,0:0:0:0:
320,280,40677,1,8,0:0:0:0:
476,265,40811,6,0,P|497:197|474:131,1,144,4|0,0:0|0:0,0:0:0:0:
295,298,41213,2,0,P|330:291|365:297,1,72,4|0,0:0|0:0,0:0:0:0:
448,376,41481,1,0,0:0:0:0:
288,216,41615,2,0,P|249:214|209:222,1,72,8|0,0:0|0:0,0:0:0:0:
120,120,41882,2,0,P|125:159|117:199,1,72
125,262,42150,2,0,P|116:228|122:188,1,72
352,136,42418,6,0,P|275:123|188:136,1,144,4|0,0:0|0:0,0:0:0:0:
328,276,42820,2,0,P|372:280|424:268,1,72,4|0,0:0|0:0,0:0:0:0:
480,176,43088,1,0,0:0:0:0:
448,84,43222,1,8,0:0:0:0:
209,129,43490,1,0,0:0:0:0:
241,37,43623,1,0,0:0:0:0:
35,52,43891,1,0,0:0:0:0:
35,52,44025,6,0,L|44:224,1,144,4|0,0:0|0:0,0:0:0:0:
120,136,44427,2,0,L|116:53,2,72,4|0|0,0:0|0:0|0:0,0:0:0:0:
254,216,44829,2,0,P|215:219|175:226,1,72,8|0,0:0|0:0,0:0:0:0:
136,315,45097,2,0,P|98:321|57:325,1,72,8|0,0:0|0:0,0:0:0:0:
182,224,45365,1,8,0:0:0:0:
120,136,45498,1,8,0:0:0:0:
351,271,45632,5,4,0:0:0:0:
351,271,45900,1,0,0:0:0:0:
351,271,46034,2,0,P|372:180|356:109,1,144
146,182,46436,2,0,P|214:153|284:170,1,144,8|0,0:0|0:0,0:0:0:0:
279,167,46972,1,0,0:0:0:0:
279,167,47106,1,0,0:0:0:0:
194,291,47240,6,0,P|106:295|51:257,1,144,4|0,0:0|0:0,0:0:0:0:
142,110,47641,2,0,L|146:186,2,72,4|0|0,0:0|0:0|0:0,0:0:0:0:
279,167,48043,2,0,L|283:243,1,72,8|0,0:0|0:0,0:0:0:0:
415,305,48311,2,0,P|380:300|346:311,1,72
183,335,48579,2,0,P|218:340|253:330,1,72
400,188,48847,6,0,L|391:23,1,144,4|0,0:0|0:0,0:0:0:0:
200,91,49248,2,0,P|247:94|297:91,2,72,4|0|0,0:0|0:0|0:0,0:0:0:0:
101,200,49650,2,0,P|135:189|175:183,1,72,8|0,0:0|0:0,0:0:0:0:
308,264,49918,1,0,0:0:0:0:
291,188,50052,2,0,P|234:240|248:314,1,144
451,255,50454,6,0,L|299:264,1,144,4|0,0:0|0:0,0:0:0:0:
345,359,50856,1,4,0:0:0:0:
307,263,50990,1,0,0:0:0:0:
244,344,51123,1,0,0:0:0:0:
136,276,51257,5,8,0:0:0:0:
224,160,51391,1,8,0:0:0:0:
244,344,51525,5,8,0:0:0:0:
228,144,51659,1,8,0:0:0:0:
308,264,51793,5,8,0:3:0:0:
232,132,51927,1,8,0:3:0:0:
164,352,52061,5,12,0:0:0:0:
308,264,52329,5,8,0:0:0:0:
164,352,52597,5,8,0:0:0:0:
148,140,52865,5,12,0:0:0:0:
148,140,53400,5,8,0:0:0:0:
164,352,53668,5,12,0:0:0:0:
164,352,54204,5,8,0:0:0:0:
300,308,54472,5,12,0:0:0:0:
136,272,54740,5,8,0:0:0:0:
128,164,55007,5,8,0:0:0:0:
128,164,55141,1,8,0:0:0:0:
128,164,55285,5,12,0:0:0:0:
168,96,55418,1,8,0:0:0:0:
212,168,55552,5,8,0:0:0:0:
168,88,55686,1,8,0:0:0:0:
124,172,55820,5,8,0:0:0:0:
168,80,55954,1,8,0:0:0:0:
296,168,56088,5,12,0:0:0:0:
168,72,56222,1,8,0:0:0:0:
96,240,56356,5,8,0:0:0:0:
168,64,56490,1,8,0:0:0:0:
304,176,56624,5,8,0:0:0:0:
168,56,56758,1,8,0:0:0:0:
71,309,56883,5,12,0:0:0:0:
312,184,57016,1,8,0:0:0:0:
124,172,57150,5,8,0:0:0:0:
404,264,57284,1,8,0:0:0:0:
60,316,57418,5,8,0:0:0:0:
428,144,57552,1,8,0:0:0:0:
168,48,57686,5,14,0:0:0:0:
168,40,57954,6,0,L|168:144,1,90,2|2,0:0|0:0,0:0:0:0:
176,32,58490,6,0,L|176:152,1,107.999996704102,14|0,0:0|0:0,0:0:0:0:
314,248,58758,1,0,0:0:0:0:
310,152,58891,2,0,P|242:184|218:244,1,107.999996704102,10|0,0:0|0:0,0:0:0:0:
321,345,59159,1,0,0:0:0:0:
131,307,59293,6,0,P|183:293|236:305,1,107.999996704102,10|0,0:0|0:0,0:0:0:0:
418,251,59561,2,0,P|366:237|313:248,1,107.999996704102,10|0,0:0|0:0,0:0:0:0:
121,208,59829,2,0,P|173:196|225:210,1,107.999996704102,10|0,0:0|0:0,0:0:0:0:
41,44,60097,6,0,L|35:166,1,107.999996704102,14|0,0:0|0:0,0:0:0:0:
131,307,60365,1,0,0:0:0:0:
126,100,60499,2,0,L|120:222,1,107.999996704102,8|0,0:0|0:0,0:0:0:0:
186,375,60766,1,0,0:0:0:0:
332,180,60900,5,10,0:0:0:0:
120,207,61034,1,8,0:3:0:0:
336,284,61168,5,10,0:0:0:0:
216,112,61302,1,8,0:3:0:0:
131,307,61436,5,10,0:0:0:0:
332,180,61570,1,8,0:3:0:0:
28,161,61704,6,0,P|18:213|36:264,1,107.999996704102,14|0,0:0|0:0,0:0:0:0:
131,307,61972,1,0,0:0:0:0:
205,150,62106,2,0,P|154:166|119:207,1,107.999996704102,10|0,0:0|0:0,0:0:0:0:
128,316,62374,1,0,0:0:0:0:
299,289,62508,6,0,P|259:253|207:244,1,107.999996704102,10|0,0:0|0:0,0:0:0:0:
289,92,62775,2,0,P|255:133|204:150,1,107.999996704102,10|0,0:0|0:0,0:0:0:0:
375,242,63043,2,0,P|356:192|368:140,1,107.999996704102,10|0,0:0|0:0,0:0:0:0:
344,43,63311,6,0,L|208:40,1,107.999996704102,14|0,0:0|0:0,0:0:0:0:
24,184,63579,1,0,0:0:0:0:
91,97,63713,2,0,P|129:156|128:223,1,107.999996704102,8|0,0:0|0:0,0:0:0:0:
68,312,63981,1,0,0:0:0:0:
16,180,64115,5,14,0:0:0:0:
140,340,64249,1,8,0:3:0:0:
236,160,64383,5,10,0:0:0:0:
60,316,64516,1,8,0:3:0:0:
120,92,64650,5,10,0:0:0:0:
216,364,64784,1,8,0:3:0:0:
372,180,64918,6,0,P|428:176|479:182,1,107.999996704102,14|0,0:0|0:0,0:0:0:0:
260,204,65186,1,0,0:0:0:0:
320,120,65320,2,0,P|371:97|422:85,1,107.999996704102,10|0,0:0|0:0,0:0:0:0:
256,212,65588,1,0,0:0:0:0:
256,76,65722,6,0,P|296:36|340:8,1,107.999996704102,10|0,0:0|0:0,0:0:0:0:
152,144,65990,2,0,P|97:158|51:182,1,107.999996704102,10|0,0:0|0:0,0:0:0:0:
252,220,66258,2,0,P|306:234|352:258,1,107.999996704102,10|0,0:0|0:0,0:0:0:0:
56,168,66525,6,0,P|97:135|147:113,1,107.999996704102,14|0,0:0|0:0,0:0:0:0:
260,224,66793,1,0,0:0:0:0:
148,20,66927,2,0,P|197:39|241:72,1,107.999996704102,8|0,0:0|0:0,0:0:0:0:
264,236,67195,1,0,0:0:0:0:
64,288,67329,5,10,0:0:0:0:
147,113,67463,1,8,0:3:0:0:
268,248,67597,5,10,0:0:0:0:
36,180,67731,1,8,0:3:0:0:
188,376,67865,5,10,0:0:0:0:
272,136,67999,1,8,0:3:0:0:
454,307,68133,6,0,P|401:320|348:320,1,107.999996704102,14|0,0:0|0:0,0:0:0:0:
171,187,68400,1,0,0:0:0:0:
372,84,68534,2,0,P|385:137|385:190,1,107.999996704102,10|0,0:0|0:0,0:0:0:0:
347,319,68802,1,0,0:0:0:0:
171,187,68936,6,0,P|223:202|269:228,1,107.999996704102,10|0,0:0|0:0,0:0:0:0:
252,22,69204,2,0,P|214:60|168:88,1,107.999996704102,10|0,0:0|0:0,0:0:0:0:
356,176,69472,2,0,P|342:123|343:69,1,107.999996704102,10|0,0:0|0:0,0:0:0:0:
159,294,69740,6,0,P|172:241|171:187,1,107.999996704102,14|0,0:0|0:0,0:0:0:0:
80,24,70008,1,0,0:0:0:0:
20,200,70141,1,8,0:0:0:0:
168,88,70275,1,0,0:0:0:0:
0,100,70409,1,0,0:0:0:0:
171,187,70543,5,14,0:0:0:0:
240,12,70677,1,8,0:3:0:0:
112,28,70811,5,10,0:0:0:0:
328,108,70945,1,8,0:3:0:0:
20,80,71079,5,10,0:0:0:0:
360,208,71213,1,8,0:3:0:0:
133,284,71347,6,0,P|142:229|173:184,1,107.999996704102,14|0,0:0|0:0,0:0:0:0:
328,108,71615,1,0,0:0:0:0:
88,152,71749,2,0,P|148:100|212:108,1,107.999996704102,10|0,0:0|0:0,0:0:0:0:
360,208,72016,1,0,0:0:0:0:
418,62,72150,6,0,P|342:87|317:147,1,107.999996704102,10|0,0:0|0:0,0:0:0:0:
431,238,72418,2,0,P|434:185|403:143,1,107.999996704102,10|0,0:0|0:0,0:0:0:0:
292,280,72686,2,0,P|339:256|360:207,1,107.999996704102,10|0,0:0|0:0,0:0:0:0:
88,152,72954,6,0,L|108:284,1,107.999996704102,14|0,0:0|0:0,0:0:0:0:
184,368,73222,1,0,0:0:0:0:
212,176,73356,2,0,L|195:282,1,107.999996704102,8|0,0:0|0:0,0:0:0:0:
184,368,73624,1,0,0:0:0:0:
372,356,73758,5,10,0:0:0:0:
287,189,73891,1,8,0:3:0:0:
195,282,74025,5,10,0:0:0:0:
295,109,74159,1,8,0:3:0:0:
388,208,74293,5,10,0:0:0:0:
303,29,74427,1,8,0:3:0:0:
72,146,74561,6,0,L|180:136,1,107.999996704102,14|0,0:0|0:0,0:0:0:0:
296,40,74829,1,0,0:0:0:0:
388,208,74963,2,0,L|398:315,1,107.999996704102,10|0,0:0|0:0,0:0:0:0:
216,352,75231,1,0,0:0:0:0:
260,268,75365,6,0,P|304:312|308:368,1,107.999996704102,10|0,0:0|0:0,0:0:0:0:
449,228,75633,2,0,P|405:272|401:328,1,107.999996704102,10|0,0:0|0:0,0:0:0:0:
324,128,75900,2,0,L|341:234,1,107.999996704102,10|0,0:0|0:0,0:0:0:0:
100,114,76168,6,0,P|142:121|213:74,1,107.999996704102,14|0,0:0|0:0,0:0:0:0:
136,38,76436,1,0,0:0:0:0:
59,207,76570,2,0,P|108:229|135:275,1,107.999996704102,8|0,0:0|0:0,0:0:0:0:
53,291,76838,1,0,0:0:0:0:
266,221,76972,5,14,0:0:0:0:
199,93,77106,1,8,0:3:0:0:
135,275,77240,5,10,0:0:0:0:
305,118,77374,1,8,0:3:0:0:
332,340,77508,5,10,0:0:0:0:
103,146,77641,1,8,0:3:0:0:
376,52,77775,6,0,P|400:104|392:160,1,107.999996704102,14|0,0:0|0:0,0:0:0:0:
256,292,78043,1,0,0:0:0:0:
208,83,78177,2,0,P|265:88|309:123,1,107.999996704102,10|0,0:0|0:0,0:0:0:0:
252,304,78445,1,0,0:0:0:0:
103,146,78579,6,0,P|45:151|1:186,1,107.999996704102,10|0,0:0|0:0,0:0:0:0:
146,318,78847,2,0,P|124:269|80:240,1,107.999996704102,10|0,0:0|0:0,0:0:0:0:
256,292,79115,2,0,P|278:243|322:213,1,107.999996704102,10|0,0:0|0:0,0:0:0:0:
213,74,79383,6,0,P|218:127|196:176,1,107.999996704102,14|0,0:0|0:0,0:0:0:0:
79,239,79650,1,0,0:0:0:0:
22,94,79784,2,0,P|75:89|124:112,1,107.999996704102,8|0,0:0|0:0,0:0:0:0:
264,264,80052,1,0,0:0:0:0:
316,116,80186,5,10,0:0:0:0:
172,252,80320,1,8,0:3:0:0:
356,276,80454,5,10,0:0:0:0:
220,116,80588,1,8,0:3:0:0:
300,348,80722,5,10,0:0:0:0:
412,120,80856,1,8,0:3:0:0:
172,252,80990,6,0,P|184:312|220:360,1,107.999996704102,14|0,0:0|0:0,0:0:0:0:
288,192,81258,1,0,0:0:0:0:
108,136,81391,2,0,P|76:176|63:234,1,107.999996704102,10|0,0:0|0:0,0:0:0:0:
209,350,81659,1,0,0:0:0:0:
364,252,81793,6,0,P|384:192|360:128,1,107.999996704102,10|0,0:0|0:0,0:0:0:0:
204,132,82061,2,0,P|245:179|313:190,1,107.999996704102,10|0,0:0|0:0,0:0:0:0:
385,53,82329,2,0,P|332:61|292:96,1,107.999996704102,10|0,0:0|0:0,0:0:0:0:
447,311,82597,6,0,P|414:269|364:252,1,107.999996704102,14|0,0:0|0:0,0:0:0:0:
196,232,82865,1,0,0:0:0:0:
292,95,82999,2,0,P|325:136|375:154,1,107.999996704102,8|0,0:0|0:0,0:0:0:0:
385,53,83266,1,0,0:0:0:0:
156,32,83400,5,14,0:0:0:0:
244,164,83534,1,8,0:3:0:0:
385,53,83668,5,8,0:3:0:0:
120,152,83802,1,8,0:3:0:0:
296,312,83936,5,10,0:0:0:0:
152,24,84070,1,8,0:3:0:0:
36,288,84204,6,0,P|80:296|140:280,1,90,14|0,0:0|0:0,0:0:0:0:
244,164,84472,1,0,0:0:0:0:
324,178,84606,2,0,P|266:241|184:220,1,180,12|0,0:0|0:0,0:0:0:0:
239,77,85008,2,0,P|231:121|247:169,1,90,8|0,0:0|0:0,0:0:0:0:
411,173,85275,2,0,P|367:165|319:181,1,90,8|0,0:0|0:0,0:0:0:0:
376,346,85543,2,0,P|384:302|372:260,1,90,8|0,0:0|0:0,0:0:0:0:
172,316,85811,6,0,L|280:308,1,90,12|0,0:0|0:0,0:0:0:0:
371,259,86079,1,0,0:0:0:0:
294,219,86213,2,0,P|299:305|375:345,1,180,12|0,0:0|0:0,0:0:0:0:
464,144,86615,6,0,L|450:233,1,90,8|0,0:0|0:0,0:0:0:0:
352,88,86883,2,0,L|365:177,1,90,8|0,0:0|0:0,0:0:0:0:
224,72,87150,2,0,L|266:151,1,90,8|0,0:0|0:0,0:0:0:0:
92,272,87418,6,0,L|108:168,1,90,12|0,0:0|0:0,0:0:0:0:
120,92,87686,1,0,0:0:0:0:
344,177,87820,2,0,P|279:232|199:199,1,180,12|0,0:0|0:0,0:0:0:0:
200,296,88222,6,0,P|236:308|296:308,1,90,8|0,0:0|0:0,0:0:0:0:
451,277,88490,2,0,P|408:264|364:264,1,90,8|0,0:0|0:0,0:0:0:0:
216,156,88758,2,0,P|238:194|271:225,1,90,8|0,0:0|0:0,0:0:0:0:
400,108,89025,6,0,P|377:146|344:177,1,90,12|0,0:0|0:0,0:0:0:0:
271,225,89293,1,0,0:0:0:0:
330,24,89427,2,0,P|299:89|211:157,1,180,12|0,0:0|0:0,0:0:0:0:
128,128,89829,5,8,0:0:0:0:
72,296,90097,1,8,0:0:0:0:
128,128,90365,5,8,0:0:0:0:
72,296,90499,1,8,0:0:0:0:
294,324,90633,6,0,L|280:236,1,90,12|0,0:0|0:0,0:0:0:0:
215,155,90900,1,0,0:0:0:0:
396,112,91034,2,0,L|372:290,1,180,12|0,0:0|0:0,0:0:0:0:
215,155,91436,6,0,P|263:131|323:139,1,90,8|0,0:0|0:0,0:0:0:0:
198,250,91704,2,0,P|157:233|128:200,1,90,8|0,0:0|0:0,0:0:0:0:
222,67,91972,2,0,P|228:112|214:154,1,90,8|0,0:0|0:0,0:0:0:0:
100,292,92240,6,0,P|69:261|44:216,1,90,12|0,0:0|0:0,0:0:0:0:
132,104,92508,1,0,0:0:0:0:
283,222,92641,2,0,P|180:242|117:176,1,180,12|0,0:0|0:0,0:0:0:0:
222,67,93043,6,0,P|228:112|214:154,1,90,8|0,0:0|0:0,0:0:0:0:
298,36,93311,2,0,P|309:80|306:139,1,90,8|0,0:0|0:0,0:0:0:0:
374,8,93579,2,0,P|388:60|388:120,1,90,8|0,0:0|0:0,0:0:0:0:
282,216,93847,6,0,P|326:206|373:210,1,90,12|0,0:0|0:0,0:0:0:0:
472,301,94115,1,0,0:0:0:0:
483,206,94249,2,0,P|403:234|384:338,1,180,12|0,0:0|0:0,0:0:0:0:
218,285,94650,6,0,P|248:318|268:360,1,90,8|0,0:0|0:0,0:0:0:0:
282,216,94918,2,0,P|326:206|373:210,1,90,8|0,0:0|0:0,0:0:0:0:
191,194,95186,2,0,P|204:150|231:112,1,90,8|0,0:0|0:0,0:0:0:0:
380,48,95454,5,12,0:0:0:0:
158,65,95588,1,4,0:0:0:0:
282,216,95722,1,4,0:0:0:0:
267,20,95856,1,8,0:0:0:0:
266,11,96124,5,4,0:0:0:0:
283,224,96258,1,8,0:0:0:0:
149,66,96391,5,4,0:0:0:0:
389,48,96525,1,8,0:0:0:0:
144,180,96659,5,4,0:0:0:0:
412,160,96793,1,8,0:0:0:0:
265,2,96927,5,12,0:0:0:0:
284,233,97061,1,6,0:0:0:0:
292,241,97329,5,4,0:0:0:0:
133,176,97463,1,8,0:0:0:0:
300,249,97731,5,4,0:0:0:0:
131,166,97865,1,8,0:0:0:0:
308,257,98133,5,4,0:0:0:0:
129,157,98400,5,8,0:0:0:0:
336,98,98668,5,2,0:0:0:0:
198,244,98936,5,4,0:0:0:0:
334,107,99070,1,2,0:0:0:0:
202,251,99338,5,4,0:0:0:0:
331,116,99472,1,8,0:0:0:0:
206,258,99740,5,4,0:0:0:0:
328,125,100008,5,8,0:0:0:0:
424,264,100275,5,2,0:0:0:0:
256,196,100543,5,4,0:0:0:0:
436,260,100677,1,2,0:0:0:0:
244,196,100945,5,4,0:0:0:0:
448,256,101079,1,2,0:0:0:0:
232,196,101347,5,8,0:0:0:0:
460,252,101615,5,2,0:0:0:0:
416,44,101883,5,8,0:0:0:0:
224,80,102150,5,4,0:0:0:0:
428,52,102284,1,8,0:0:0:0:
220,92,102552,5,8,0:0:0:0:
440,60,102686,1,2,0:0:0:0:
216,104,102954,5,4,0:0:0:0:
452,68,103222,5,8,0:0:0:0:
228,233,103490,5,2,0:0:0:0:
220,241,103758,5,4,0:0:0:0:
379,176,103892,1,8,0:0:0:0:
212,249,104160,5,4,0:0:0:0:
381,166,104294,1,8,0:0:0:0:
204,257,104562,5,4,0:0:0:0:
383,157,104829,5,8,0:0:0:0:
176,98,105097,5,2,0:0:0:0:
314,244,105365,5,4,0:0:0:0:
178,107,105499,1,2,0:0:0:0:
310,251,105767,5,4,0:0:0:0:
181,116,105901,1,8,0:0:0:0:
306,258,106169,5,4,0:0:0:0:
184,125,106437,5,8,0:0:0:0:
88,264,106704,5,2,0:0:0:0:
256,196,106972,5,4,0:0:0:0:
76,260,107106,1,2,0:0:0:0:
268,196,107374,5,4,0:0:0:0:
64,256,107508,1,4,0:0:0:0:
280,196,107775,5,4,0:0:0:0:
52,252,108043,5,2,0:0:0:0:
292,196,108311,5,4,0:0:0:0:
256,192,108378,12,0,111525,0:0:0:0:
