osu file format v14

[General]
AudioFilename: audio.mp3
AudioLeadIn: 0
PreviewTime: 57619
Countdown: 0
SampleSet: Soft
StackLeniency: 0.7
Mode: 0
LetterboxInBreaks: 0
WidescreenStoryboard: 0

[Editor]
Bookmarks: 13546,26350,58546,71350,77783,84262,90636,97064,111525
DistanceSpacing: 1
BeatDivisor: 4
GridSize: 4
TimelineZoom: 1.1

[Metadata]
Title:in the Garden
TitleUnicode:in the Garden
Artist:Primary
ArtistUnicode:Primary
Creator:Kyuukai
Version:Normal
Source:
Tags:yuiko yuikonnu album Meis Clauson shogunmoon yaleufeu owens pono ponoyoshi momochikun
BeatmapID:1328734
BeatmapSetID:629217

[Difficulty]
HPDrainRate:3.5
CircleSize:3
OverallDifficulty:4
ApproachRate:5
SliderMultiplier:0.799999999999999
SliderTickRate:1

[Events]
//Background and Video events
0,0,"flowers.jpg",0,0
//Break Periods
//Storyboard Layer 0 (Background)
//Storyboard Layer 1 (Fail)
//Storyboard Layer 2 (Pass)
//Storyboard Layer 3 (Foreground)
//Storyboard Sound Samples

[TimingPoints]
650,267.857142857143,6,2,65,50,1,0
2257,-100,6,2,66,50,0,0
3864,-100,6,2,67,50,0,0
5203,-100,6,2,100,50,0,0
5471,-100,6,2,66,50,0,0
5739,-100,6,2,67,50,0,0
5873,-100,6,2,66,50,0,0
6141,-100,6,2,67,50,0,0
6275,-100,6,2,68,50,0,0
7078,-100,6,2,65,50,0,0
8685,-100,6,2,66,50,0,0
10292,-100,6,2,67,50,0,0
11096,-100,6,2,68,50,0,0
11364,-100,6,2,67,50,0,0
11632,-100,6,2,68,50,0,0
13490,267.857142857143,6,2,3,60,1,0
13490,-100,6,2,3,60,0,0
13624,-100,6,2,1,60,0,0
15097,-100,6,2,3,60,0,0
15231,-100,6,2,1,60,0,0
16704,-100,6,2,3,60,0,0
16838,-100,6,2,1,60,0,0
18311,-100,6,2,3,60,0,0
18445,-100,6,2,1,60,0,0
19919,-100,6,2,3,60,0,0
20052,-100,6,2,1,60,0,0
21526,-100,6,2,3,60,0,0
21660,-100,6,2,1,60,0,0
23133,-100,6,2,3,60,0,0
23267,-100,6,2,1,60,0,0
24740,-100,6,2,3,60,0,0
24874,-100,6,2,1,60,0,0
25811,-100,6,2,1,65,0,0
26079,-100,6,2,1,70,0,0
26347,-100,6,2,2,50,0,0
26615,-100,6,2,1,50,0,0
39204,-100,6,2,2,60,0,0
39472,-100,6,2,1,60,0,0
45633,-100,6,2,2,60,0,0
45900,-100,6,2,1,60,0,0
52061,-100,6,2,2,50,0,0
52329,-100,6,2,1,50,0,0
52865,-100,6,2,2,50,0,0
53133,-100,6,2,1,50,0,0
53669,-100,6,2,2,50,0,0
53936,-100,6,2,1,50,0,0
54472,-100,6,2,2,50,0,0
54740,-100,6,2,1,50,0,0
55285,267.857142857143,6,2,2,50,1,0
55285,-100,6,2,2,50,0,0
55418,-100,6,2,1,50,0,0
56088,-100,6,2,2,55,0,0
56222,-100,6,2,1,55,0,0
56883,267.857142857143,6,2,2,60,1,0
56883,-100,6,2,2,60,0,0
57016,-100,6,2,1,60,0,0
57150,-100,6,2,1,65,0,0
57418,-100,6,2,1,65,0,0
57686,-100,6,2,99,65,0,0
57954,-100,6,2,95,50,0,0
58222,-100,6,2,96,50,0,0
58490,-100,6,2,75,70,0,1
58624,-100,6,2,96,70,0,1
59561,-100,6,2,95,70,0,1
59829,-100,6,2,94,70,0,1
60097,-100,6,2,76,70,0,1
60231,-100,6,2,94,70,0,1
61168,-100,6,2,95,70,0,1
61436,-100,6,2,94,70,0,1
61704,-100,6,2,77,70,0,1
61838,-100,6,2,93,70,0,1
62775,-100,6,2,92,70,0,1
63043,-100,6,2,91,70,0,1
63311,-100,6,2,78,70,0,1
63445,-100,6,2,1,70,0,1
64115,-100,6,2,79,70,0,1
64383,-100,6,2,95,70,0,1
64650,-100,6,2,96,70,0,1
64919,-100,6,2,75,70,0,1
65052,-100,6,2,96,70,0,1
65990,-100,6,2,95,70,0,1
66258,-100,6,2,94,70,0,1
66526,-100,6,2,76,70,0,1
66659,-100,6,2,94,70,0,1
67597,-100,6,2,97,70,0,1
67865,-100,6,2,94,70,0,1
68133,-100,6,2,77,70,0,1
68267,-100,6,2,93,70,0,1
69204,-100,6,2,94,70,0,1
69472,-100,6,2,95,70,0,1
69740,-100,6,2,80,70,0,1
69874,-100,6,2,1,70,0,1
70543,-100,6,2,79,70,0,1
70811,-100,6,2,95,70,0,1
71079,-100,6,2,96,70,0,1
71347,-100,6,2,75,70,0,1
71481,-100,6,2,96,70,0,1
72418,-100,6,2,95,70,0,1
72686,-100,6,2,94,70,0,1
72954,-100,6,2,76,70,0,1
73088,-100,6,2,94,70,0,1
74025,-100,6,2,95,70,0,1
74293,-100,6,2,94,70,0,1
74561,-100,6,2,77,70,0,1
74695,-100,6,2,93,70,0,1
75633,-100,6,2,92,70,0,1
75900,-100,6,2,91,70,0,1
76169,-100,6,2,78,70,0,1
76302,-100,6,2,1,70,0,1
76972,-100,6,2,79,70,0,1
77240,-100,6,2,95,70,0,1
77508,-100,6,2,96,70,0,1
77776,-100,6,2,75,70,0,1
77910,-100,6,2,96,70,0,1
78847,-100,6,2,95,70,0,1
79115,-100,6,2,94,70,0,1
79383,-100,6,2,76,70,0,1
79517,-100,6,2,94,70,0,1
80454,-100,6,2,97,70,0,1
80722,-100,6,2,94,70,0,1
80990,-100,6,2,77,70,0,1
81124,-100,6,2,93,70,0,1
82061,-100,6,2,94,70,0,1
82329,-100,6,2,95,70,0,1
82597,-100,6,2,80,70,0,1
82731,-100,6,2,1,70,0,1
83400,-100,6,2,82,70,0,1
83534,-100,6,2,1,70,0,1
83936,-100,6,2,96,70,0,1
84204,-100,6,2,81,60,0,0
84335,-100,6,2,1,60,0,0
90633,-100,6,2,2,60,0,0
90766,-100,6,2,1,60,0,0
97061,-100,6,2,2,50,0,0
97329,-100,6,2,65,50,0,0
98668,-100,6,2,66,50,0,0
100275,-100,6,2,67,50,0,0
101615,-100,6,2,100,50,0,0
101883,-100,6,2,66,50,0,0
102552,-100,6,2,68,50,0,0
103490,-100,6,2,65,50,0,0
105097,-100,6,2,66,50,0,0
106704,-100,6,2,67,50,0,0
107508,-100,6,2,68,50,0,0
107775,-100,6,2,67,50,0,0
108043,-100,6,2,68,50,0,0
108980,-100,6,2,1,25,0,0
109784,-100,6,2,1,20,0,0
110588,-100,6,2,1,15,0,0
111525,-100,6,2,1,5,0,0

[Colours]
Combo1 : 55,155,255
Combo2 : 69,200,13
Combo3 : 249,240,134
Combo4 : 255,173,91

[HitObjects]
144,232,650,6,0,P|168:188|148:112,2,120,2|2|2,0:0|0:0|0:0,0:0:0:0:
89,290,1721,2,0,P|121:310|173:306,1,79.9999999999999,4|2,0:0|0:0,0:0:0:0:
222,257,2257,2,0,L|350:273,2,120,2|2|8,0:0|0:0|0:0,0:0:0:0:
205,178,3328,2,0,L|225:98,1,79.9999999999999,4|8,0:0|0:0,0:0:0:0:
304,88,3864,6,0,B|384:88|384:88|420:120,2,120,2|2|2,0:0|0:0|0:0,0:0:0:0:
319,166,4935,2,0,L|338:243,1,79.9999999999999,8|2,0:0|0:0,0:0:0:0:
364,320,5471,2,0,B|444:320|444:320|480:288,2,120,8|8|2,0:0|0:0|0:0,0:0:0:0:
285,306,6542,2,0,L|193:306,1,79.9999999999999,4|8,0:0|0:0,0:0:0:0:
140,257,7078,6,0,P|125:313|150:367,2,120,2|2|2,0:0|0:0|0:0,0:0:0:0:
214,226,8150,2,0,P|218:174|210:142,1,79.9999999999999,4|2,0:0|0:0,0:0:0:0:
225,68,8685,2,0,P|168:79|133:127,2,120,2|2|8,0:0|0:0|0:0,0:0:0:0:
288,120,9757,2,0,P|328:128|380:116,1,79.9999999999999,4|8,0:0|0:0,0:0:0:0:
432,168,10292,6,0,P|436:84|388:44,2,120,2|2|2,0:0|0:0|0:0,0:0:0:0:
390,237,11364,1,4,0:0:0:0:
336,296,11632,1,2,0:0:0:0:
310,220,11900,1,4,0:0:0:0:
336,296,13490,6,0,B|416:284|416:284|464:296,2,120,12|8|8,0:0|0:0|0:0,0:0:0:0:
272,344,14561,2,0,P|232:348|180:340,1,79.9999999999999,8|8,0:0|0:0,0:0:0:0:
118,312,15097,2,0,L|110:184,1,120,12|8,0:0|0:0,0:0:0:0:
186,99,15900,2,0,P|226:95|278:103,1,79.9999999999999,8|8,0:0|0:3,0:0:0:0:
332,144,16436,2,0,L|391:143,1,40,8|8,0:3|0:3,0:0:0:0:
412,140,16704,6,0,L|432:16,2,120,12|8|8,0:0|0:0|0:0,0:0:0:0:
395,218,17775,1,8,0:0:0:0:
380,296,18043,1,8,0:0:0:0:
329,358,18311,2,0,P|265:350|209:358,1,120,12|8,0:0|0:0,0:0:0:0:
112,292,19115,2,0,L|108:192,1,79.9999999999999,8|8,0:0|0:0,0:0:0:0:
144,140,19650,1,8,0:0:0:0:
176,64,19918,6,0,B|100:40|100:40|60:44,2,120,12|8|8,0:0|0:0|0:0,0:0:0:0:
252,84,20990,2,0,L|360:84,1,79.9999999999999,8|8,0:0|0:0,0:0:0:0:
387,25,21525,2,0,P|412:85|379:151,1,120,12|8,0:0|0:0,0:0:0:0:
332,236,22329,2,0,P|276:240|228:224,1,79.9999999999999,8|8,0:0|0:3,0:0:0:0:
184,196,22865,2,0,P|152:192|116:196,1,40,8|8,0:3|0:3,0:0:0:0:
104,199,23132,6,0,P|116:127|112:75,2,120,12|8|8,0:0|0:0|0:0,0:0:0:0:
80,276,24204,1,8,0:0:0:0:
52,352,24472,1,8,0:0:0:0:
132,340,24740,2,0,P|192:328|276:348,1,120,12|8,0:0|0:0,0:0:0:0:
368,364,25543,2,0,P|411:369|456:360,1,79.9999999999999,8|8,0:0|0:0,0:0:0:0:
492,296,26079,2,0,L|484:220,1,40,8|8,0:0|0:0,0:0:0:0:
463,224,26347,6,0,L|470:95,2,120,12|0|2,0:0|0:0|0:0,0:0:0:0:
395,266,27418,1,0,0:0:0:0:
235,247,27954,2,0,B|155:247|155:247|115:279,2,120,4|0|2,0:0|0:0|0:0,0:0:0:0:
306,283,29025,1,0,0:0:0:0:
332,124,29561,6,0,P|392:116|464:132,2,120,4|0|2,0:0|0:0|0:0,0:0:0:0:
288,192,30632,1,0,0:0:0:0:
184,312,31168,2,0,P|124:320|52:304,2,120,4|0|2,0:0|0:0|0:0,0:0:0:0:
244,259,32240,2,0,L|296:179,1,79.9999999999999
332,124,32775,6,0,P|392:116|464:132,2,120,4|0|2,0:0|0:0|0:0,0:0:0:0:
252,120,33847,1,0,0:0:0:0:
100,168,34382,2,0,P|116:232|112:320,2,120,4|0|2,0:0|0:0|0:0,0:0:0:0:
64,96,35454,1,0,0:0:0:0:
212,36,35990,6,0,L|364:40,2,120,4|0|2,0:0|0:0|0:0,0:0:0:0:
160,96,37061,1,0,0:0:0:0:
264,216,37597,2,0,L|416:220,2,120,4|0|2,0:0|0:0|0:0,0:0:0:0:
212,276,38668,1,2,0:0:0:0:
160,336,38936,2,0,L|84:332,1,40,8|8,0:0|0:0,0:0:0:0:
79,330,39204,6,0,P|56:288|48:248,1,79.9999999999999,4|0,0:0|0:0,0:0:0:0:
38,177,39740,1,0,0:0:0:0:
82,109,40007,2,0,P|35:96|-1:106,2,79.9999999999999,8|0|8,0:0|0:0|0:0,0:0:0:0:
140,164,40811,2,0,P|200:144|280:172,2,120,4|4|8,0:0|0:0|0:0,0:0:0:0:
120,240,41882,2,0,L|127:319,1,79.9999999999999
200,356,42418,6,0,P|248:356|296:336,1,79.9999999999999,4|0,0:0|0:0,0:0:0:0:
332,288,42954,1,0,0:0:0:0:
332,288,43222,2,0,P|380:288|428:308,2,79.9999999999999,8|0|0,0:0|0:0|0:0,0:0:0:0:
304,212,44025,2,0,L|320:68,2,120,4|4|8,0:0|0:0|0:0,0:0:0:0:
332,288,45097,1,8,0:0:0:0:
376,356,45365,2,0,L|440:348,1,40,8|8,0:0|0:0,0:0:0:0:
456,344,45632,5,4,0:0:0:0:
488,272,45900,2,0,L|480:164,1,79.9999999999999
472,112,46436,2,0,P|428:104|384:120,1,79.9999999999999,8|0,0:0|0:0,0:0:0:0:
336,168,46972,1,0,0:0:0:0:
272,120,47240,2,0,P|204:128|132:104,2,120,4|4|8,0:0|0:0|0:0,0:0:0:0:
328,64,48311,1,0,0:0:0:0:
392,111,48579,1,0,0:0:0:0:
336,168,48847,6,0,P|340:212|324:272,1,79.9999999999999,4|0,0:0|0:0,0:0:0:0:
276,304,49382,1,0,0:0:0:0:
276,304,49650,2,0,P|308:324|364:324,2,79.9999999999999,8|0|0,0:0|0:0|0:0,0:0:0:0:
204,268,50454,2,0,L|48:280,2,120,4|4|8,0:0|0:0|0:0,0:0:0:0:
256,208,51525,1,8,0:0:0:0:
244,128,51793,2,0,L|236:64,1,40,8|8,0:3|0:3,0:0:0:0:
232,48,52061,5,12,0:0:0:0:
156,76,52329,2,0,L|72:108,2,79.9999999999999,8|8|12,0:0|0:0|0:0,0:0:0:0:
184,240,53400,1,8,0:0:0:0:
184,240,53668,1,12,0:0:0:0:
336,292,54204,1,8,0:0:0:0:
336,292,54472,2,0,L|452:300,1,79.9999999999999,12|8,0:0|0:0,0:0:0:0:
441,136,55285,6,0,L|445:36,1,79.9999999999999,12|8,0:0|0:0,0:0:0:0:
366,37,55820,1,8,0:0:0:0:
366,37,56088,2,0,P|318:29|266:33,1,79.9999999999999,12|8,0:0|0:0,0:0:0:0:
240,96,56624,1,8,0:0:0:0:
240,96,56883,2,0,P|192:104|140:100,2,79.9999999999999,12|8|8,0:0|0:0|0:0,0:0:0:0:
317,116,57686,1,14,0:0:0:0:
228,340,58490,6,0,P|184:336|116:348,1,79.9999999999999,14|0,0:0|0:0,0:0:0:0:
109,348,58891,2,0,P|121:300|89:208,1,120,10|10,0:0|0:0,0:0:0:0:
44,180,59561,2,0,L|40:88,1,79.9999999999999,10|10,0:0|0:0,0:0:0:0:
99,45,60097,2,0,P|143:41|211:53,1,79.9999999999999,14|0,0:0|0:0,0:0:0:0:
213,65,60499,2,0,P|271:77|328:61,1,120,8|10,0:0|0:0,0:0:0:0:
397,20,61168,1,10,0:0:0:0:
466,60,61436,1,10,0:0:0:0:
487,137,61704,6,0,L|482:238,1,79.9999999999999,14|0,0:0|0:0,0:0:0:0:
480,257,62106,2,0,P|419:268|349:248,1,120,10|10,0:0|0:0,0:0:0:0:
296,211,62775,2,0,P|255:205|210:213,1,79.9999999999999,10|10,0:0|0:0,0:0:0:0:
153,259,63311,2,0,L|164:366,1,79.9999999999999,14|0,0:0|0:0,0:0:0:0:
196,357,63713,2,0,P|248:369|324:351,1,120,8|14,0:0|0:0,0:0:0:0:
376,308,64383,1,10,0:0:0:0:
400,232,64650,1,10,0:0:0:0:
420,154,64918,6,0,P|417:112|403:57,1,79.9999999999999,14|0,0:0|0:0,0:0:0:0:
383,43,65320,2,0,L|252:46,1,120,10|10,0:0|0:0,0:0:0:0:
222,115,65990,2,0,L|116:115,1,79.9999999999999,10|10,0:0|0:0,0:0:0:0:
73,74,66525,2,0,P|63:113|78:163,1,79.9999999999999,14|0,0:0|0:0,0:0:0:0:
96,184,66927,2,0,P|107:237|92:307,1,120,8|10,0:0|0:0,0:0:0:0:
136,368,67597,1,10,0:0:0:0:
182,304,67865,1,10,0:0:0:0:
259,282,68133,6,0,P|307:276|369:285,1,79.9999999999999,14|0,0:0|0:0,0:0:0:0:
363,309,68534,2,0,P|414:321|495:303,1,120,10|10,0:0|0:0,0:0:0:0:
499,232,69204,2,0,L|491:141,1,79.9999999999999,10|10,0:0|0:0,0:0:0:0:
455,80,69740,2,0,P|407:74|345:83,1,79.9999999999999,14|0,0:0|0:0,0:0:0:0:
351,107,70141,2,0,P|300:119|219:101,1,120,8|14,0:0|0:0,0:0:0:0:
162,71,70811,1,10,0:0:0:0:
92,110,71079,1,10,0:0:0:0:
48,177,71347,6,0,L|52:285,1,79.9999999999999,14|0,0:0|0:0,0:0:0:0:
72,292,71749,2,0,P|132:280|212:300,1,120,10|10,0:0|0:0,0:0:0:0:
254,335,72418,2,0,P|298:339|354:327,1,79.9999999999999,10|10,0:0|0:0,0:0:0:0:
396,284,72954,2,0,L|392:204,1,79.9999999999999,14|0,0:0|0:0,0:0:0:0:
368,172,73356,2,0,P|308:184|228:164,1,120,8|10,0:0|0:0,0:0:0:0:
175,147,74025,1,10,0:0:0:0:
116,92,74293,1,10,0:0:0:0:
165,29,74561,6,0,P|205:25|253:29,1,79.9999999999999,14|0,0:0|0:0,0:0:0:0:
280,48,74963,2,0,P|344:52|412:48,1,120,10|10,0:0|0:0,0:0:0:0:
474,78,75633,2,0,P|478:122|478:166,1,79.9999999999999,10|10,0:0|0:0,0:0:0:0:
440,228,76168,2,0,P|400:224|352:228,1,79.9999999999999,14|0,0:0|0:0,0:0:0:0:
326,247,76570,2,0,P|262:251|194:247,1,120,8|14,0:0|0:0,0:0:0:0:
132,220,77240,1,10,0:0:0:0:
82,157,77508,1,10,0:0:0:0:
17,203,77775,6,0,P|13:251|17:295,1,79.9999999999999,14|0,0:0|0:0,0:0:0:0:
39,315,78177,2,0,P|103:319|171:311,1,120,10|10,0:0|0:0,0:0:0:0:
208,249,78847,2,0,L|210:164,1,79.9999999999999,10|10,0:0|0:0,0:0:0:0:
270,116,79383,2,0,P|318:112|362:116,1,79.9999999999999,14|0,0:0|0:0,0:0:0:0:
381,139,79784,2,0,P|385:203|377:271,1,120,8|10,0:0|0:0,0:0:0:0:
329,320,80454,1,10,0:0:0:0:
258,357,80722,1,10,0:0:0:0:
188,316,80990,6,0,L|89:312,1,79.9999999999999,14|0,0:0|0:0,0:0:0:0:
68,308,81391,2,0,P|76:239|60:176,1,120,10|10,0:0|0:0,0:0:0:0:
24,120,82061,2,0,P|21:79|30:26,1,79.9999999999999,10|10,0:0|0:0,0:0:0:0:
104,56,82597,2,0,P|145:61|207:51,1,79.9999999999999,14|0,0:0|0:0,0:0:0:0:
218,37,82999,2,0,P|274:33|348:41,1,120,8|14,0:0|0:0,0:0:0:0:
404,83,83668,1,8,0:3:0:0:
481,62,83936,1,10,0:0:0:0:
462,139,84204,6,0,P|461:202|496:281,2,120,14|12|8,0:0|0:0|0:0,0:0:0:0:
404,83,85275,2,0,L|292:81,1,79.9999999999999,8|8,0:0|0:0,0:0:0:0:
275,145,85811,2,0,P|243:85|280:16,2,120,12|12|8,0:0|0:0|0:0,0:0:0:0:
343,186,86883,1,8,0:0:0:0:
333,265,87150,2,0,L|326:335,1,40,8|0,0:0|0:0,0:0:0:0:
317,343,87418,6,0,P|370:354|440:342,2,120,12|12|8,0:0|0:0|0:0,0:0:0:0:
249,298,88490,2,0,P|200:294|155:304,1,79.9999999999999,8|8,0:0|0:0,0:0:0:0:
103,256,89025,2,0,P|89:296|131:368,2,120,12|12|8,0:0|0:0|0:0,0:0:0:0:
156,195,90097,1,8,0:0:0:0:
206,132,90365,2,0,P|208:103|208:68,1,40,8|8,0:0|0:0,0:0:0:0:
205,51,90633,6,0,P|262:41|340:52,2,120,12|12|8,0:0|0:0|0:0,0:0:0:0:
130,80,91704,2,0,P|83:69|46:82,1,79.9999999999999,8|8,0:0|0:0,0:0:0:0:
90,150,92240,2,0,L|84:277,2,120,12|12|8,0:0|0:0|0:0,0:0:0:0:
130,80,93311,1,8,0:0:0:0:
200,44,93579,1,8,0:0:0:0:
276,72,93847,6,0,P|331:61|409:66,2,120,12|12|8,0:0|0:0|0:0,0:0:0:0:
223,131,94918,2,0,L|219:227,1,79.9999999999999,8|8,0:0|0:0,0:0:0:0:
275,268,95454,2,0,P|190:285|151:254,2,120,12|8|8,0:0|0:0|0:0,0:0:0:0:
333,213,96525,1,8,0:0:0:0:
385,152,96793,2,0,P|414:150|447:154,1,40,8|12,0:0|0:0,0:0:0:0:
465,153,97061,6,0,L|477:22,2,120,6|8|8,0:0|0:0|0:0,0:0:0:0:
457,234,98133,2,0,L|449:313,1,79.9999999999999,4|8,0:0|0:0,0:0:0:0:
372,336,98668,2,0,P|301:323|230:346,2,120,2|2|8,0:0|0:0|0:0,0:0:0:0:
449,313,99740,2,0,L|457:234,1,79.9999999999999,4|8,0:0|0:0,0:0:0:0:
398,178,100275,6,0,P|451:154|518:178,2,120,2|2|2,0:0|0:0|0:0,0:0:0:0:
338,231,101347,2,0,P|290:234|251:227,1,79.9999999999999,8|2,0:0|0:0,0:0:0:0:
197,177,101883,2,0,P|181:208|208:292,2,120,8|8|2,0:0|0:0|0:0,0:0:0:0:
270,143,102954,2,0,P|276:94|268:55,1,79.9999999999999,4|8,0:0|0:0,0:0:0:0:
195,36,103490,6,0,P|134:28|67:43,2,120,2|2|8,0:0|0:0|0:0,0:0:0:0:
270,64,104561,2,0,P|311:72|364:61,1,79.9999999999999,4|8,0:0|0:0,0:0:0:0:
407,120,105097,2,0,P|423:39|399:6,2,120,2|2|8,0:0|0:0|0:0,0:0:0:0:
344,170,106168,2,0,P|335:210|345:256,1,79.9999999999999,4|8,0:0|0:0,0:0:0:0:
307,320,106704,6,0,P|378:319|419:271,2,120,2|2|4,0:0|0:0|0:0,0:0:0:0:
241,273,107775,2,0,P|198:271|143:282,1,79.9999999999999,4|2,0:0|0:0,0:0:0:0:
89,310,108311,1,4,0:0:0:0:
256,192,108445,12,0,111525,0:0:0:0:
