osu file format v14

[General]
AudioFilename: audio.mp3
AudioLeadIn: 0
PreviewTime: -1
Countdown: 0
SampleSet: Normal
StackLeniency: 0.7
Mode: 3
LetterboxInBreaks: 0
SpecialStyle: 0
WidescreenStoryboard: 0

[Editor]
Bookmarks: 13599,26456,39313,52170,58599,71456,84313,97170,110027,122884,129313,142170,155027,167884,180742,193599,206456,217706
DistanceSpacing: 1
BeatDivisor: 2
GridSize: 32
TimelineZoom: 1.4

[Metadata]
Title:in the Garden
TitleUnicode:in the Garden
Artist:Primary
ArtistUnicode:Primary
Creator:[-Chihuahua-]
Version:wow
Source:
Tags:
BeatmapID:1938692
BeatmapSetID:928147

[Difficulty]
HPDrainRate:8
CircleSize:7
OverallDifficulty:8
ApproachRate:5
SliderMultiplier:1.4
SliderTickRate:1

[Events]
//Background and Video events
0,0,"IMG_20181215_181351.jpg",0,0
//Break Periods
2,98943,127275
2,157604,166650
2,180908,205222
//Storyboard Layer 0 (Background)
//Storyboard Layer 1 (Fail)
//Storyboard Layer 2 (Pass)
//Storyboard Layer 3 (Foreground)
//Storyboard Sound Samples

[TimingPoints]
708,267.857142857143,6,1,0,100,1,0
58565,-100,6,1,0,100,0,1
84279,-100,6,1,0,100,0,0
129279,-100,6,1,0,100,0,1
154993,-100,6,1,0,100,0,0

[HitObjects]
109,192,708,128,0,2315:0:0:0:0:
475,192,708,1,0,0:0:0:0:
256,192,975,1,0,0:0:0:0:
475,192,1109,1,0,0:0:0:0:
256,192,1377,1,0,0:0:0:0:
402,192,1511,1,0,0:0:0:0:
256,192,1779,1,0,0:0:0:0:
402,192,2047,1,0,0:0:0:0:
36,192,2315,128,0,3922:0:0:0:0:
256,192,2315,1,0,0:0:0:0:
109,192,2583,1,0,0:0:0:0:
256,192,2716,1,0,0:0:0:0:
109,192,2984,1,0,0:0:0:0:
182,192,3118,1,0,0:0:0:0:
475,192,3386,1,0,0:0:0:0:
182,192,3654,1,0,0:0:0:0:
182,192,3922,128,0,5529:0:0:0:0:
329,192,3922,1,0,0:0:0:0:
109,192,4190,1,0,0:0:0:0:
329,192,4324,1,0,0:0:0:0:
109,192,4591,1,0,0:0:0:0:
329,192,4725,1,0,0:0:0:0:
402,192,4993,1,0,0:0:0:0:
475,192,5261,1,0,0:0:0:0:
256,192,5529,128,0,6333:0:0:0:0:
402,192,5529,1,0,0:0:0:0:
109,192,5797,1,0,0:0:0:0:
402,192,5931,1,0,0:0:0:0:
109,192,6199,1,0,0:0:0:0:
182,192,6333,128,0,7136:0:0:0:0:
329,192,6333,1,0,0:0:0:0:
256,192,6600,1,0,0:0:0:0:
36,192,6868,1,0,0:0:0:0:
109,192,7136,128,0,8743:0:0:0:0:
475,192,7136,1,0,0:0:0:0:
256,192,7404,1,0,0:0:0:0:
475,192,7538,1,0,0:0:0:0:
256,192,7806,1,0,0:0:0:0:
402,192,7940,1,0,0:0:0:0:
256,192,8208,1,0,0:0:0:0:
402,192,8475,1,0,0:0:0:0:
475,192,8743,128,0,10350:0:0:0:0:
256,192,8743,1,0,0:0:0:0:
36,192,9011,1,0,0:0:0:0:
256,192,9145,1,0,0:0:0:0:
36,192,9413,1,0,0:0:0:0:
109,192,9547,1,0,0:0:0:0:
402,192,9815,1,0,0:0:0:0:
182,192,10083,1,0,0:0:0:0:
182,192,10350,128,0,11958:0:0:0:0:
329,192,10350,1,0,0:0:0:0:
36,192,10618,1,0,0:0:0:0:
329,192,10752,1,0,0:0:0:0:
36,192,11020,1,0,0:0:0:0:
256,192,11154,1,0,0:0:0:0:
36,192,11422,1,0,0:0:0:0:
109,192,11690,1,0,0:0:0:0:
475,192,11891,1,0,0:0:0:0:
402,192,11924,1,0,0:0:0:0:
256,192,11958,1,0,0:0:0:0:
329,192,11958,1,0,0:0:0:0:
36,192,13565,1,0,0:0:0:0:
109,192,13565,1,0,0:0:0:0:
256,192,13565,1,0,0:0:0:0:
475,192,13565,128,0,13699:0:0:0:0:
402,192,13699,128,0,13833:0:0:0:0:
329,192,13833,128,0,13966:0:0:0:0:
182,192,13833,1,0,0:0:0:0:
475,192,13966,128,0,14100:0:0:0:0:
109,192,13966,1,0,0:0:0:0:
36,192,13966,1,0,0:0:0:0:
402,192,14100,128,0,14234:0:0:0:0:
329,192,14234,128,0,14368:0:0:0:0:
182,192,14234,1,0,0:0:0:0:
109,192,14368,1,0,0:0:0:0:
36,192,14368,128,0,14502:0:0:0:0:
475,192,14368,1,0,0:0:0:0:
256,192,14502,128,0,14636:0:0:0:0:
36,192,14636,128,0,14770:0:0:0:0:
402,192,14636,1,0,0:0:0:0:
256,192,14770,128,0,14904:0:0:0:0:
36,192,14904,128,0,15038:0:0:0:0:
329,192,14904,1,0,0:0:0:0:
256,192,15038,128,0,15172:0:0:0:0:
109,192,15172,128,0,15306:0:0:0:0:
475,192,15172,1,0,0:0:0:0:
36,192,15172,1,0,0:0:0:0:
182,192,15306,128,0,15440:0:0:0:0:
402,192,15440,128,0,15574:0:0:0:0:
329,192,15440,1,0,0:0:0:0:
109,192,15574,128,0,15708:0:0:0:0:
36,192,15574,1,0,0:0:0:0:
475,192,15574,1,0,0:0:0:0:
182,192,15708,128,0,15841:0:0:0:0:
402,192,15841,128,0,15975:0:0:0:0:
36,192,15975,1,0,0:0:0:0:
475,192,15975,128,0,16109:0:0:0:0:
256,192,16109,128,0,16243:0:0:0:0:
109,192,16109,1,0,0:0:0:0:
475,192,16243,128,0,16377:0:0:0:0:
329,192,16243,1,0,0:0:0:0:
256,192,16377,128,0,16511:0:0:0:0:
182,192,16377,1,0,0:0:0:0:
475,192,16511,128,0,16645:0:0:0:0:
36,192,16511,1,0,0:0:0:0:
256,192,16645,128,0,16779:0:0:0:0:
109,192,16645,1,0,0:0:0:0:
36,192,16779,128,0,16913:0:0:0:0:
329,192,16779,1,0,0:0:0:0:
402,192,16779,1,0,0:0:0:0:
182,192,16913,128,0,17047:0:0:0:0:
402,192,17047,128,0,17181:0:0:0:0:
109,192,17047,1,0,0:0:0:0:
36,192,17181,128,0,17315:0:0:0:0:
256,192,17181,1,0,0:0:0:0:
475,192,17181,1,0,0:0:0:0:
182,192,17315,128,0,17449:0:0:0:0:
402,192,17449,128,0,17583:0:0:0:0:
109,192,17449,1,0,0:0:0:0:
329,192,17583,128,0,17716:0:0:0:0:
256,192,17583,1,0,0:0:0:0:
475,192,17583,1,0,0:0:0:0:
36,192,17716,128,0,17850:0:0:0:0:
329,192,17850,128,0,17984:0:0:0:0:
182,192,17850,1,0,0:0:0:0:
36,192,17984,128,0,18118:0:0:0:0:
329,192,18118,128,0,18252:0:0:0:0:
109,192,18118,1,0,0:0:0:0:
36,192,18252,128,0,18386:0:0:0:0:
256,192,18386,128,0,18520:0:0:0:0:
182,192,18386,1,0,0:0:0:0:
475,192,18386,1,0,0:0:0:0:
402,192,18520,128,0,18654:0:0:0:0:
475,192,18654,128,0,18788:0:0:0:0:
109,192,18654,1,0,0:0:0:0:
256,192,18788,128,0,18922:0:0:0:0:
36,192,18788,1,0,0:0:0:0:
182,192,18788,1,0,0:0:0:0:
402,192,18922,128,0,19056:0:0:0:0:
475,192,19056,128,0,19190:0:0:0:0:
109,192,19056,1,0,0:0:0:0:
182,192,19190,128,0,19324:0:0:0:0:
36,192,19190,1,0,0:0:0:0:
329,192,19190,1,0,0:0:0:0:
109,192,19324,128,0,19458:0:0:0:0:
256,192,19324,1,0,0:0:0:0:
182,192,19458,128,0,19591:0:0:0:0:
402,192,19458,1,0,0:0:0:0:
109,192,19591,128,0,19725:0:0:0:0:
329,192,19591,1,0,0:0:0:0:
402,192,19725,1,0,0:0:0:0:
256,192,19725,1,0,0:0:0:0:
182,192,19725,128,0,19859:0:0:0:0:
109,192,19859,128,0,19993:0:0:0:0:
475,192,19859,1,0,0:0:0:0:
36,192,19993,128,0,20127:0:0:0:0:
329,192,19993,1,0,0:0:0:0:
256,192,19993,1,0,0:0:0:0:
402,192,19993,1,0,0:0:0:0:
182,192,20127,128,0,20261:0:0:0:0:
329,192,20261,128,0,20395:0:0:0:0:
402,192,20261,1,0,0:0:0:0:
36,192,20395,128,0,20529:0:0:0:0:
256,192,20395,1,0,0:0:0:0:
109,192,20395,1,0,0:0:0:0:
182,192,20529,128,0,20663:0:0:0:0:
329,192,20663,128,0,20797:0:0:0:0:
402,192,20663,1,0,0:0:0:0:
475,192,20797,128,0,20931:0:0:0:0:
256,192,20797,1,0,0:0:0:0:
109,192,20797,1,0,0:0:0:0:
182,192,20931,128,0,21065:0:0:0:0:
475,192,21065,128,0,21199:0:0:0:0:
402,192,21065,1,0,0:0:0:0:
182,192,21199,128,0,21333:0:0:0:0:
475,192,21333,128,0,21466:0:0:0:0:
36,192,21333,1,0,0:0:0:0:
182,192,21466,128,0,21600:0:0:0:0:
402,192,21600,128,0,21734:0:0:0:0:
329,192,21600,1,0,0:0:0:0:
109,192,21600,1,0,0:0:0:0:
256,192,21734,128,0,21868:0:0:0:0:
109,192,21868,128,0,22002:0:0:0:0:
36,192,21868,1,0,0:0:0:0:
402,192,22002,128,0,22136:0:0:0:0:
329,192,22002,1,0,0:0:0:0:
475,192,22002,1,0,0:0:0:0:
256,192,22136,128,0,22270:0:0:0:0:
109,192,22270,128,0,22404:0:0:0:0:
36,192,22270,1,0,0:0:0:0:
329,192,22404,128,0,22538:0:0:0:0:
475,192,22404,1,0,0:0:0:0:
36,192,22538,128,0,22672:0:0:0:0:
402,192,22538,1,0,0:0:0:0:
329,192,22672,128,0,22806:0:0:0:0:
109,192,22672,1,0,0:0:0:0:
36,192,22806,128,0,22940:0:0:0:0:
182,192,22806,1,0,0:0:0:0:
329,192,22940,128,0,23074:0:0:0:0:
256,192,22940,1,0,0:0:0:0:
36,192,23074,128,0,23208:0:0:0:0:
475,192,23074,1,0,0:0:0:0:
256,192,23208,128,0,23341:0:0:0:0:
402,192,23208,1,0,0:0:0:0:
109,192,23208,1,0,0:0:0:0:
182,192,23341,128,0,23475:0:0:0:0:
109,192,23475,128,0,23609:0:0:0:0:
475,192,23475,1,0,0:0:0:0:
256,192,23609,128,0,23743:0:0:0:0:
36,192,23609,1,0,0:0:0:0:
402,192,23609,1,0,0:0:0:0:
182,192,23743,128,0,23877:0:0:0:0:
109,192,23877,128,0,24011:0:0:0:0:
475,192,23877,1,0,0:0:0:0:
329,192,24011,128,0,24145:0:0:0:0:
36,192,24011,1,0,0:0:0:0:
475,192,24145,128,0,24279:0:0:0:0:
329,192,24279,128,0,24413:0:0:0:0:
182,192,24279,1,0,0:0:0:0:
475,192,24413,128,0,24547:0:0:0:0:
329,192,24547,128,0,24681:0:0:0:0:
256,192,24547,1,0,0:0:0:0:
475,192,24681,128,0,24815:0:0:0:0:
402,192,24815,128,0,24949:0:0:0:0:
109,192,24815,1,0,0:0:0:0:
256,192,24815,1,0,0:0:0:0:
182,192,24949,128,0,25083:0:0:0:0:
36,192,25083,128,0,25216:0:0:0:0:
329,192,25083,1,0,0:0:0:0:
402,192,25216,128,0,25350:0:0:0:0:
256,192,25216,1,0,0:0:0:0:
475,192,25216,1,0,0:0:0:0:
182,192,25350,128,0,25484:0:0:0:0:
36,192,25484,128,0,25618:0:0:0:0:
329,192,25484,1,0,0:0:0:0:
329,192,25618,128,0,25752:0:0:0:0:
256,192,25618,1,0,0:0:0:0:
475,192,25752,128,0,25886:0:0:0:0:
182,192,25752,1,0,0:0:0:0:
329,192,25886,128,0,26020:0:0:0:0:
36,192,25886,1,0,0:0:0:0:
475,192,26020,128,0,26154:0:0:0:0:
109,192,26020,1,0,0:0:0:0:
329,192,26154,128,0,26288:0:0:0:0:
256,192,26154,1,0,0:0:0:0:
475,192,26288,128,0,26422:0:0:0:0:
182,192,26288,1,0,0:0:0:0:
256,192,26422,128,0,28029:0:0:0:0:
36,192,27225,1,0,0:0:0:0:
329,192,27493,1,0,0:0:0:0:
109,192,28029,5,0,0:0:0:0:
182,192,28029,1,0,0:0:0:0:
36,192,28833,1,0,0:0:0:0:
109,192,29100,1,0,0:0:0:0:
329,192,29368,1,0,0:0:0:0:
256,192,29636,1,0,0:0:0:0:
475,192,29636,1,0,0:0:0:0:
109,192,30440,1,0,0:0:0:0:
256,192,30708,1,0,0:0:0:0:
402,192,31243,1,0,0:0:0:0:
36,192,31243,1,0,0:0:0:0:
475,192,32047,1,0,0:0:0:0:
329,192,32315,1,0,0:0:0:0:
109,192,32583,1,0,0:0:0:0:
256,192,32850,1,0,0:0:0:0:
36,192,32850,1,0,0:0:0:0:
402,192,33252,1,0,0:0:0:0:
475,192,33654,1,0,0:0:0:0:
402,192,33922,1,0,0:0:0:0:
36,192,34190,1,0,0:0:0:0:
182,192,34458,1,0,0:0:0:0:
329,192,35261,1,0,0:0:0:0:
256,192,35797,1,0,0:0:0:0:
36,192,36065,1,0,0:0:0:0:
109,192,36065,1,0,0:0:0:0:
402,192,36868,1,0,0:0:0:0:
182,192,37136,1,0,0:0:0:0:
475,192,37672,1,0,0:0:0:0:
109,192,38475,1,0,0:0:0:0:
36,192,38743,1,0,0:0:0:0:
256,192,39011,1,0,0:0:0:0:
182,192,39279,1,0,0:0:0:0:
402,192,39279,1,0,0:0:0:0:
475,192,39279,1,0,0:0:0:0:
329,192,39681,1,0,0:0:0:0:
475,192,39949,1,0,0:0:0:0:
109,192,40083,1,0,0:0:0:0:
402,192,40083,1,0,0:0:0:0:
256,192,40350,1,0,0:0:0:0:
182,192,40618,1,0,0:0:0:0:
329,192,40886,1,0,0:0:0:0:
36,192,40886,1,0,0:0:0:0:
256,192,41288,1,0,0:0:0:0:
109,192,41690,1,0,0:0:0:0:
475,192,41690,1,0,0:0:0:0:
329,192,41958,1,0,0:0:0:0:
402,192,42225,1,0,0:0:0:0:
182,192,42493,1,0,0:0:0:0:
36,192,42493,1,0,0:0:0:0:
329,192,42895,1,0,0:0:0:0:
256,192,43297,1,0,0:0:0:0:
109,192,43297,1,0,0:0:0:0:
475,192,43565,1,0,0:0:0:0:
402,192,43833,1,0,0:0:0:0:
109,192,44100,1,0,0:0:0:0:
182,192,44100,1,0,0:0:0:0:
256,192,44502,1,0,0:0:0:0:
36,192,44904,1,0,0:0:0:0:
475,192,44904,1,0,0:0:0:0:
182,192,45172,1,0,0:0:0:0:
402,192,45306,1,0,0:0:0:0:
329,192,45440,1,0,0:0:0:0:
36,192,45440,1,0,0:0:0:0:
475,192,45574,1,0,0:0:0:0:
182,192,45574,1,0,0:0:0:0:
256,192,45708,1,0,0:0:0:0:
109,192,45708,1,0,0:0:0:0:
402,192,45708,1,0,0:0:0:0:
475,192,46109,1,0,0:0:0:0:
329,192,46511,1,0,0:0:0:0:
36,192,46511,1,0,0:0:0:0:
182,192,46779,1,0,0:0:0:0:
109,192,47047,1,0,0:0:0:0:
402,192,47315,1,0,0:0:0:0:
475,192,47315,1,0,0:0:0:0:
256,192,47716,1,0,0:0:0:0:
182,192,48118,1,0,0:0:0:0:
329,192,48118,1,0,0:0:0:0:
36,192,48386,1,0,0:0:0:0:
109,192,48654,1,0,0:0:0:0:
475,192,48922,1,0,0:0:0:0:
256,192,48922,1,0,0:0:0:0:
182,192,49324,1,0,0:0:0:0:
402,192,49725,1,0,0:0:0:0:
329,192,49725,1,0,0:0:0:0:
109,192,49993,1,0,0:0:0:0:
256,192,50261,1,0,0:0:0:0:
36,192,50529,1,0,0:0:0:0:
402,192,50529,1,0,0:0:0:0:
256,192,50797,1,0,0:0:0:0:
475,192,50931,1,0,0:0:0:0:
182,192,51333,1,0,0:0:0:0:
109,192,51333,1,0,0:0:0:0:
475,192,51466,1,0,0:0:0:0:
402,192,51466,1,0,0:0:0:0:
329,192,51600,1,0,0:0:0:0:
36,192,51734,1,0,0:0:0:0:
109,192,51868,1,0,0:0:0:0:
256,192,52002,1,0,0:0:0:0:
182,192,52136,128,0,52940:0:0:0:0:
475,192,52136,1,0,0:0:0:0:
402,192,52940,128,0,53743:0:0:0:0:
36,192,52940,1,0,0:0:0:0:
256,192,53743,128,0,54547:0:0:0:0:
109,192,53743,1,0,0:0:0:0:
475,192,54547,128,0,55350:0:0:0:0:
182,192,54547,1,0,0:0:0:0:
36,192,55083,1,0,0:0:0:0:
109,192,55216,1,0,0:0:0:0:
182,192,55350,128,0,56154:0:0:0:0:
402,192,55886,1,0,0:0:0:0:
329,192,56154,128,0,56958:0:0:0:0:
109,192,56154,1,0,0:0:0:0:
475,192,56556,1,0,0:0:0:0:
402,192,56690,5,0,0:0:0:0:
256,192,56824,1,0,0:0:0:0:
36,192,56958,128,0,57761:0:0:0:0:
109,192,56958,1,0,0:0:0:0:
475,192,56958,1,0,0:0:0:0:
182,192,57493,1,0,0:0:0:0:
402,192,57627,1,0,0:0:0:0:
256,192,57761,128,0,58029:0:0:0:0:
109,192,57761,1,0,0:0:0:0:
329,192,58029,128,0,58297:0:0:0:0:
402,192,58297,128,0,58565:0:0:0:0:
475,192,58565,128,0,58833:0:0:0:0:
36,192,58565,1,0,0:0:0:0:
182,192,58565,1,0,0:0:0:0:
109,192,58699,1,0,0:0:0:0:
256,192,58833,1,0,0:0:0:0:
329,192,58833,1,0,0:0:0:0:
475,192,58966,128,0,59234:0:0:0:0:
36,192,58966,1,0,0:0:0:0:
109,192,59100,1,0,0:0:0:0:
256,192,59234,1,0,0:0:0:0:
329,192,59234,1,0,0:0:0:0:
475,192,59368,128,0,59636:0:0:0:0:
182,192,59368,1,0,0:0:0:0:
36,192,59502,1,0,0:0:0:0:
402,192,59636,128,0,59904:0:0:0:0:
182,192,59636,1,0,0:0:0:0:
36,192,59770,1,0,0:0:0:0:
329,192,59904,128,0,60172:0:0:0:0:
109,192,59904,1,0,0:0:0:0:
36,192,60038,1,0,0:0:0:0:
182,192,60172,128,0,60440:0:0:0:0:
256,192,60172,1,0,0:0:0:0:
402,192,60306,1,0,0:0:0:0:
329,192,60440,1,0,0:0:0:0:
109,192,60440,1,0,0:0:0:0:
475,192,60574,1,0,0:0:0:0:
402,192,60708,1,0,0:0:0:0:
329,192,60841,1,0,0:0:0:0:
109,192,60841,1,0,0:0:0:0:
256,192,60975,128,0,61243:0:0:0:0:
36,192,60975,1,0,0:0:0:0:
109,192,61109,1,0,0:0:0:0:
329,192,61243,128,0,61511:0:0:0:0:
182,192,61243,1,0,0:0:0:0:
402,192,61377,1,0,0:0:0:0:
256,192,61511,128,0,61779:0:0:0:0:
475,192,61511,1,0,0:0:0:0:
402,192,61645,1,0,0:0:0:0:
36,192,61779,128,0,62047:0:0:0:0:
109,192,61779,1,0,0:0:0:0:
475,192,61779,1,0,0:0:0:0:
182,192,61913,1,0,0:0:0:0:
329,192,62047,1,0,0:0:0:0:
402,192,62047,1,0,0:0:0:0:
36,192,62181,128,0,62449:0:0:0:0:
109,192,62181,1,0,0:0:0:0:
182,192,62315,1,0,0:0:0:0:
329,192,62449,1,0,0:0:0:0:
402,192,62449,1,0,0:0:0:0:
36,192,62583,128,0,62850:0:0:0:0:
475,192,62583,1,0,0:0:0:0:
256,192,62716,1,0,0:0:0:0:
109,192,62850,128,0,63118:0:0:0:0:
475,192,62850,1,0,0:0:0:0:
256,192,62984,1,0,0:0:0:0:
402,192,63118,128,0,63386:0:0:0:0:
475,192,63118,1,0,0:0:0:0:
256,192,63252,1,0,0:0:0:0:
182,192,63386,128,0,63654:0:0:0:0:
36,192,63386,1,0,0:0:0:0:
329,192,63520,1,0,0:0:0:0:
402,192,63654,1,0,0:0:0:0:
475,192,63654,1,0,0:0:0:0:
36,192,63788,1,0,0:0:0:0:
329,192,63922,1,0,0:0:0:0:
475,192,64056,1,0,0:0:0:0:
402,192,64056,1,0,0:0:0:0:
109,192,64190,128,0,64458:0:0:0:0:
256,192,64190,1,0,0:0:0:0:
329,192,64324,1,0,0:0:0:0:
182,192,64458,128,0,64725:0:0:0:0:
475,192,64458,1,0,0:0:0:0:
402,192,64591,1,0,0:0:0:0:
329,192,64725,128,0,64993:0:0:0:0:
36,192,64725,1,0,0:0:0:0:
256,192,64725,1,0,0:0:0:0:
402,192,64993,128,0,65261:0:0:0:0:
36,192,64993,1,0,0:0:0:0:
475,192,64993,1,0,0:0:0:0:
109,192,65127,1,0,0:0:0:0:
256,192,65261,1,0,0:0:0:0:
182,192,65261,1,0,0:0:0:0:
402,192,65395,128,0,65663:0:0:0:0:
36,192,65395,1,0,0:0:0:0:
109,192,65529,1,0,0:0:0:0:
256,192,65663,1,0,0:0:0:0:
182,192,65663,1,0,0:0:0:0:
402,192,65797,128,0,66065:0:0:0:0:
475,192,65797,1,0,0:0:0:0:
36,192,65931,1,0,0:0:0:0:
329,192,66065,128,0,66333:0:0:0:0:
475,192,66065,1,0,0:0:0:0:
36,192,66199,1,0,0:0:0:0:
109,192,66333,128,0,66600:0:0:0:0:
182,192,66333,1,0,0:0:0:0:
256,192,66466,1,0,0:0:0:0:
36,192,66600,128,0,66868:0:0:0:0:
475,192,66600,1,0,0:0:0:0:
402,192,66734,1,0,0:0:0:0:
109,192,66868,1,0,0:0:0:0:
256,192,66868,1,0,0:0:0:0:
475,192,67002,1,0,0:0:0:0:
402,192,67136,1,0,0:0:0:0:
256,192,67270,1,0,0:0:0:0:
109,192,67270,1,0,0:0:0:0:
329,192,67404,1,0,0:0:0:0:
182,192,67404,128,0,67672:0:0:0:0:
36,192,67538,1,0,0:0:0:0:
256,192,67672,1,0,0:0:0:0:
329,192,67672,128,0,67940:0:0:0:0:
475,192,67806,1,0,0:0:0:0:
402,192,67940,1,0,0:0:0:0:
256,192,67940,128,0,68208:0:0:0:0:
109,192,68074,1,0,0:0:0:0:
182,192,68208,128,0,68475:0:0:0:0:
36,192,68208,1,0,0:0:0:0:
475,192,68208,1,0,0:0:0:0:
329,192,68341,1,0,0:0:0:0:
402,192,68475,1,0,0:0:0:0:
475,192,68475,1,0,0:0:0:0:
182,192,68609,128,0,68877:0:0:0:0:
36,192,68609,1,0,0:0:0:0:
329,192,68743,1,0,0:0:0:0:
402,192,68877,1,0,0:0:0:0:
475,192,68877,1,0,0:0:0:0:
182,192,69011,128,0,69279:0:0:0:0:
36,192,69011,1,0,0:0:0:0:
402,192,69145,1,0,0:0:0:0:
256,192,69279,128,0,69547:0:0:0:0:
36,192,69279,1,0,0:0:0:0:
402,192,69413,1,0,0:0:0:0:
329,192,69547,128,0,69815:0:0:0:0:
36,192,69547,1,0,0:0:0:0:
402,192,69681,1,0,0:0:0:0:
109,192,69815,128,0,70083:0:0:0:0:
475,192,69815,1,0,0:0:0:0:
402,192,69949,1,0,0:0:0:0:
36,192,70083,1,0,0:0:0:0:
256,192,70083,1,0,0:0:0:0:
475,192,70216,1,0,0:0:0:0:
402,192,70350,1,0,0:0:0:0:
256,192,70484,1,0,0:0:0:0:
182,192,70484,1,0,0:0:0:0:
109,192,70618,128,0,70886:0:0:0:0:
36,192,70618,1,0,0:0:0:0:
475,192,70752,1,0,0:0:0:0:
329,192,70886,128,0,71154:0:0:0:0:
402,192,70886,1,0,0:0:0:0:
256,192,71020,1,0,0:0:0:0:
402,192,71154,128,0,71422:0:0:0:0:
36,192,71154,1,0,0:0:0:0:
182,192,71154,1,0,0:0:0:0:
109,192,71288,1,0,0:0:0:0:
475,192,71422,128,0,71690:0:0:0:0:
36,192,71422,1,0,0:0:0:0:
329,192,71422,1,0,0:0:0:0:
109,192,71556,1,0,0:0:0:0:
182,192,71690,1,0,0:0:0:0:
256,192,71690,1,0,0:0:0:0:
475,192,71824,128,0,72091:0:0:0:0:
36,192,71824,1,0,0:0:0:0:
109,192,71958,1,0,0:0:0:0:
182,192,72091,1,0,0:0:0:0:
256,192,72091,1,0,0:0:0:0:
475,192,72225,128,0,72493:0:0:0:0:
329,192,72225,1,0,0:0:0:0:
36,192,72359,1,0,0:0:0:0:
402,192,72493,128,0,72761:0:0:0:0:
329,192,72493,1,0,0:0:0:0:
36,192,72627,1,0,0:0:0:0:
256,192,72761,128,0,73029:0:0:0:0:
329,192,72761,1,0,0:0:0:0:
36,192,72895,1,0,0:0:0:0:
109,192,73029,128,0,73297:0:0:0:0:
182,192,73029,1,0,0:0:0:0:
329,192,73163,1,0,0:0:0:0:
402,192,73297,1,0,0:0:0:0:
475,192,73297,1,0,0:0:0:0:
182,192,73431,1,0,0:0:0:0:
329,192,73565,1,0,0:0:0:0:
402,192,73699,1,0,0:0:0:0:
475,192,73699,1,0,0:0:0:0:
182,192,73833,128,0,74100:0:0:0:0:
329,192,73833,1,0,0:0:0:0:
256,192,73966,1,0,0:0:0:0:
36,192,74100,128,0,74368:0:0:0:0:
329,192,74100,1,0,0:0:0:0:
256,192,74234,1,0,0:0:0:0:
109,192,74368,128,0,74636:0:0:0:0:
329,192,74368,1,0,0:0:0:0:
256,192,74502,1,0,0:0:0:0:
329,192,74636,128,0,74904:0:0:0:0:
475,192,74636,1,0,0:0:0:0:
36,192,74636,1,0,0:0:0:0:
402,192,74770,1,0,0:0:0:0:
182,192,74904,1,0,0:0:0:0:
36,192,74904,1,0,0:0:0:0:
329,192,75038,128,0,75306:0:0:0:0:
475,192,75038,1,0,0:0:0:0:
402,192,75172,1,0,0:0:0:0:
182,192,75306,1,0,0:0:0:0:
36,192,75306,1,0,0:0:0:0:
329,192,75440,128,0,75708:0:0:0:0:
109,192,75440,1,0,0:0:0:0:
402,192,75574,1,0,0:0:0:0:
182,192,75708,128,0,75975:0:0:0:0:
109,192,75708,1,0,0:0:0:0:
402,192,75841,1,0,0:0:0:0:
36,192,75975,128,0,76243:0:0:0:0:
109,192,75975,1,0,0:0:0:0:
402,192,76109,1,0,0:0:0:0:
109,192,76243,128,0,76511:0:0:0:0:
329,192,76243,1,0,0:0:0:0:
256,192,76377,1,0,0:0:0:0:
182,192,76511,1,0,0:0:0:0:
475,192,76511,1,0,0:0:0:0:
329,192,76645,1,0,0:0:0:0:
256,192,76779,1,0,0:0:0:0:
182,192,76913,1,0,0:0:0:0:
475,192,76913,1,0,0:0:0:0:
402,192,77047,128,0,77315:0:0:0:0:
36,192,77047,1,0,0:0:0:0:
109,192,77181,1,0,0:0:0:0:
329,192,77315,128,0,77583:0:0:0:0:
182,192,77315,1,0,0:0:0:0:
256,192,77449,1,0,0:0:0:0:
109,192,77583,128,0,77850:0:0:0:0:
475,192,77583,1,0,0:0:0:0:
402,192,77716,1,0,0:0:0:0:
36,192,77850,128,0,78118:0:0:0:0:
182,192,77850,1,0,0:0:0:0:
475,192,77850,1,0,0:0:0:0:
329,192,77984,1,0,0:0:0:0:
256,192,78118,1,0,0:0:0:0:
475,192,78118,1,0,0:0:0:0:
36,192,78252,128,0,78520:0:0:0:0:
182,192,78252,1,0,0:0:0:0:
329,192,78386,1,0,0:0:0:0:
256,192,78520,1,0,0:0:0:0:
475,192,78520,1,0,0:0:0:0:
36,192,78654,128,0,78922:0:0:0:0:
402,192,78654,1,0,0:0:0:0:
109,192,78788,1,0,0:0:0:0:
182,192,78922,128,0,79190:0:0:0:0:
402,192,78922,1,0,0:0:0:0:
109,192,79056,1,0,0:0:0:0:
329,192,79190,128,0,79458:0:0:0:0:
402,192,79190,1,0,0:0:0:0:
109,192,79324,1,0,0:0:0:0:
256,192,79458,128,0,79725:0:0:0:0:
36,192,79458,1,0,0:0:0:0:
182,192,79591,1,0,0:0:0:0:
329,192,79725,1,0,0:0:0:0:
475,192,79725,1,0,0:0:0:0:
36,192,79859,1,0,0:0:0:0:
109,192,79993,1,0,0:0:0:0:
329,192,80127,1,0,0:0:0:0:
475,192,80127,1,0,0:0:0:0:
182,192,80261,128,0,80529:0:0:0:0:
402,192,80261,1,0,0:0:0:0:
256,192,80395,1,0,0:0:0:0:
475,192,80529,128,0,80797:0:0:0:0:
36,192,80529,1,0,0:0:0:0:
329,192,80663,1,0,0:0:0:0:
182,192,80797,128,0,81065:0:0:0:0:
256,192,80797,1,0,0:0:0:0:
402,192,80931,1,0,0:0:0:0:
109,192,81065,128,0,81333:0:0:0:0:
329,192,81065,1,0,0:0:0:0:
36,192,81065,1,0,0:0:0:0:
402,192,81199,1,0,0:0:0:0:
256,192,81333,1,0,0:0:0:0:
475,192,81333,1,0,0:0:0:0:
109,192,81466,128,0,81734:0:0:0:0:
329,192,81466,1,0,0:0:0:0:
402,192,81600,1,0,0:0:0:0:
256,192,81734,1,0,0:0:0:0:
475,192,81734,1,0,0:0:0:0:
109,192,81868,128,0,82136:0:0:0:0:
329,192,81868,1,0,0:0:0:0:
36,192,82002,1,0,0:0:0:0:
182,192,82136,128,0,82404:0:0:0:0:
329,192,82136,1,0,0:0:0:0:
36,192,82270,1,0,0:0:0:0:
329,192,82404,128,0,82672:0:0:0:0:
256,192,82404,1,0,0:0:0:0:
36,192,82538,1,0,0:0:0:0:
402,192,82672,128,0,82940:0:0:0:0:
475,192,82672,1,0,0:0:0:0:
182,192,82806,1,0,0:0:0:0:
109,192,82940,1,0,0:0:0:0:
256,192,82940,1,0,0:0:0:0:
475,192,83074,1,0,0:0:0:0:
182,192,83208,1,0,0:0:0:0:
109,192,83341,1,0,0:0:0:0:
256,192,83341,1,0,0:0:0:0:
36,192,83475,128,0,84011:0:0:0:0:
402,192,83475,1,0,0:0:0:0:
329,192,83609,1,0,0:0:0:0:
182,192,83743,1,0,0:0:0:0:
256,192,83877,1,0,0:0:0:0:
109,192,84011,128,0,84279:0:0:0:0:
475,192,84011,1,0,0:0:0:0:
402,192,84145,1,0,0:0:0:0:
475,192,84279,128,0,85886:0:0:0:0:
329,192,84279,128,0,84547:0:0:0:0:
256,192,84279,1,0,0:0:0:0:
182,192,84547,128,0,84815:0:0:0:0:
329,192,84815,128,0,85083:0:0:0:0:
36,192,85083,128,0,85350:0:0:0:0:
402,192,85083,1,0,0:0:0:0:
109,192,85350,128,0,85618:0:0:0:0:
36,192,85618,128,0,85886:0:0:0:0:
329,192,85886,128,0,87493:0:0:0:0:
256,192,85886,128,0,86154:0:0:0:0:
109,192,86154,128,0,86288:0:0:0:0:
182,192,86288,128,0,86556:0:0:0:0:
36,192,86556,128,0,86690:0:0:0:0:
109,192,86690,128,0,86958:0:0:0:0:
256,192,86690,1,0,0:0:0:0:
475,192,86958,128,0,87225:0:0:0:0:
402,192,87225,128,0,87493:0:0:0:0:
182,192,87493,128,0,89100:0:0:0:0:
36,192,87493,128,0,87761:0:0:0:0:
329,192,87761,128,0,87895:0:0:0:0:
109,192,87895,128,0,88163:0:0:0:0:
402,192,88163,128,0,88297:0:0:0:0:
256,192,88297,128,0,88565:0:0:0:0:
36,192,88297,1,0,0:0:0:0:
475,192,88565,128,0,88833:0:0:0:0:
402,192,88833,128,0,89100:0:0:0:0:
36,192,89100,128,0,89904:0:0:0:0:
256,192,89100,128,0,89368:0:0:0:0:
402,192,89368,128,0,89502:0:0:0:0:
329,192,89502,128,0,89770:0:0:0:0:
475,192,89770,128,0,89904:0:0:0:0:
256,192,89904,128,0,90708:0:0:0:0:
109,192,89904,1,0,0:0:0:0:
402,192,89904,128,0,90172:0:0:0:0:
182,192,90172,1,0,0:0:0:0:
329,192,90172,128,0,90440:0:0:0:0:
109,192,90440,1,0,0:0:0:0:
182,192,90574,1,0,0:0:0:0:
475,192,90708,128,0,92315:0:0:0:0:
36,192,90708,128,0,90975:0:0:0:0:
329,192,90975,128,0,91109:0:0:0:0:
109,192,91109,128,0,91377:0:0:0:0:
402,192,91377,128,0,91511:0:0:0:0:
256,192,91511,128,0,91779:0:0:0:0:
182,192,91511,1,0,0:0:0:0:
36,192,91779,128,0,92047:0:0:0:0:
329,192,92047,128,0,92315:0:0:0:0:
109,192,92315,128,0,93922:0:0:0:0:
256,192,92315,128,0,92583:0:0:0:0:
36,192,92583,128,0,92716:0:0:0:0:
402,192,92716,128,0,92984:0:0:0:0:
182,192,92984,128,0,93118:0:0:0:0:
475,192,93118,1,0,0:0:0:0:
256,192,93118,128,0,93386:0:0:0:0:
402,192,93386,128,0,93654:0:0:0:0:
475,192,93654,128,0,93922:0:0:0:0:
329,192,93922,128,0,95529:0:0:0:0:
256,192,93922,128,0,94190:0:0:0:0:
182,192,94190,128,0,94324:0:0:0:0:
36,192,94324,128,0,94591:0:0:0:0:
109,192,94591,128,0,94725:0:0:0:0:
402,192,94725,1,0,0:0:0:0:
475,192,94725,128,0,94993:0:0:0:0:
256,192,94993,128,0,95261:0:0:0:0:
182,192,95261,128,0,95529:0:0:0:0:
475,192,95529,128,0,97136:0:0:0:0:
36,192,95529,128,0,95797:0:0:0:0:
109,192,95797,1,0,0:0:0:0:
256,192,95797,128,0,95931:0:0:0:0:
36,192,95931,128,0,96199:0:0:0:0:
182,192,96199,1,0,0:0:0:0:
329,192,96199,128,0,96333:0:0:0:0:
402,192,96333,1,0,0:0:0:0:
256,192,96333,128,0,96600:0:0:0:0:
182,192,96600,128,0,96868:0:0:0:0:
36,192,96600,1,0,0:0:0:0:
109,192,96868,128,0,97136:0:0:0:0:
329,192,96868,1,0,0:0:0:0:
36,192,97136,128,0,98743:0:0:0:0:
36,192,128475,132,0,128743:0:0:0:0:
182,192,128743,128,0,129011:0:0:0:0:
329,192,129011,128,0,129279:0:0:0:0:
36,192,129279,1,0,0:0:0:0:
475,192,129279,128,0,129547:0:0:0:0:
256,192,129279,1,0,0:0:0:0:
109,192,129413,1,0,0:0:0:0:
256,192,129547,1,0,0:0:0:0:
182,192,129547,1,0,0:0:0:0:
36,192,129681,1,0,0:0:0:0:
475,192,129681,128,0,129949:0:0:0:0:
109,192,129815,1,0,0:0:0:0:
256,192,129949,1,0,0:0:0:0:
182,192,129949,1,0,0:0:0:0:
36,192,130083,1,0,0:0:0:0:
475,192,130083,128,0,130350:0:0:0:0:
182,192,130216,1,0,0:0:0:0:
36,192,130350,1,0,0:0:0:0:
402,192,130350,128,0,130618:0:0:0:0:
182,192,130484,1,0,0:0:0:0:
36,192,130618,1,0,0:0:0:0:
329,192,130618,128,0,130886:0:0:0:0:
182,192,130752,1,0,0:0:0:0:
256,192,130886,128,0,131154:0:0:0:0:
109,192,130886,1,0,0:0:0:0:
182,192,131020,1,0,0:0:0:0:
475,192,131154,1,0,0:0:0:0:
329,192,131154,1,0,0:0:0:0:
109,192,131288,1,0,0:0:0:0:
182,192,131422,1,0,0:0:0:0:
329,192,131556,1,0,0:0:0:0:
475,192,131556,1,0,0:0:0:0:
402,192,131690,128,0,131958:0:0:0:0:
256,192,131690,1,0,0:0:0:0:
182,192,131824,1,0,0:0:0:0:
475,192,131958,128,0,132225:0:0:0:0:
36,192,131958,1,0,0:0:0:0:
109,192,132091,1,0,0:0:0:0:
329,192,132225,128,0,132493:0:0:0:0:
182,192,132225,1,0,0:0:0:0:
256,192,132359,1,0,0:0:0:0:
109,192,132493,128,0,132761:0:0:0:0:
36,192,132493,1,0,0:0:0:0:
475,192,132493,1,0,0:0:0:0:
182,192,132627,1,0,0:0:0:0:
402,192,132761,1,0,0:0:0:0:
256,192,132761,1,0,0:0:0:0:
109,192,132895,128,0,133163:0:0:0:0:
36,192,132895,1,0,0:0:0:0:
182,192,133029,1,0,0:0:0:0:
256,192,133163,1,0,0:0:0:0:
402,192,133163,1,0,0:0:0:0:
329,192,133297,1,0,0:0:0:0:
182,192,133297,1,0,0:0:0:0:
109,192,133297,128,0,133565:0:0:0:0:
36,192,133431,1,0,0:0:0:0:
329,192,133565,1,0,0:0:0:0:
256,192,133565,128,0,133833:0:0:0:0:
36,192,133699,1,0,0:0:0:0:
329,192,133833,1,0,0:0:0:0:
402,192,133833,128,0,134100:0:0:0:0:
36,192,133966,1,0,0:0:0:0:
475,192,134100,128,0,134368:0:0:0:0:
182,192,134100,1,0,0:0:0:0:
256,192,134234,1,0,0:0:0:0:
36,192,134368,1,0,0:0:0:0:
109,192,134368,1,0,0:0:0:0:
329,192,134502,1,0,0:0:0:0:
256,192,134636,1,0,0:0:0:0:
109,192,134770,1,0,0:0:0:0:
36,192,134770,1,0,0:0:0:0:
402,192,134904,128,0,135172:0:0:0:0:
182,192,134904,1,0,0:0:0:0:
256,192,135038,1,0,0:0:0:0:
329,192,135172,128,0,135440:0:0:0:0:
36,192,135172,1,0,0:0:0:0:
109,192,135306,1,0,0:0:0:0:
182,192,135440,128,0,135708:0:0:0:0:
402,192,135440,1,0,0:0:0:0:
256,192,135440,1,0,0:0:0:0:
475,192,135708,1,0,0:0:0:0:
402,192,135708,128,0,135975:0:0:0:0:
109,192,135708,1,0,0:0:0:0:
256,192,135841,1,0,0:0:0:0:
109,192,135975,1,0,0:0:0:0:
36,192,135975,1,0,0:0:0:0:
475,192,136109,1,0,0:0:0:0:
402,192,136109,128,0,136377:0:0:0:0:
256,192,136243,1,0,0:0:0:0:
109,192,136377,1,0,0:0:0:0:
36,192,136377,1,0,0:0:0:0:
182,192,136511,1,0,0:0:0:0:
402,192,136511,128,0,136779:0:0:0:0:
36,192,136645,1,0,0:0:0:0:
182,192,136779,1,0,0:0:0:0:
256,192,136779,128,0,137047:0:0:0:0:
36,192,136913,1,0,0:0:0:0:
182,192,137047,1,0,0:0:0:0:
329,192,137047,128,0,137315:0:0:0:0:
36,192,137181,1,0,0:0:0:0:
475,192,137315,128,0,137583:0:0:0:0:
109,192,137315,1,0,0:0:0:0:
182,192,137449,1,0,0:0:0:0:
256,192,137583,1,0,0:0:0:0:
329,192,137583,1,0,0:0:0:0:
109,192,137716,1,0,0:0:0:0:
182,192,137850,1,0,0:0:0:0:
256,192,137984,1,0,0:0:0:0:
329,192,137984,1,0,0:0:0:0:
402,192,138118,128,0,138386:0:0:0:0:
36,192,138118,1,0,0:0:0:0:
109,192,138252,1,0,0:0:0:0:
182,192,138386,128,0,138654:0:0:0:0:
329,192,138386,1,0,0:0:0:0:
256,192,138520,1,0,0:0:0:0:
402,192,138654,128,0,138788:0:0:0:0:
109,192,138654,1,0,0:0:0:0:
329,192,138788,1,0,0:0:0:0:
109,192,138922,1,0,0:0:0:0:
36,192,138922,128,0,139190:0:0:0:0:
256,192,139056,1,0,0:0:0:0:
475,192,139190,1,0,0:0:0:0:
329,192,139190,1,0,0:0:0:0:
109,192,139324,1,0,0:0:0:0:
36,192,139324,128,0,139591:0:0:0:0:
256,192,139458,1,0,0:0:0:0:
475,192,139591,1,0,0:0:0:0:
329,192,139591,1,0,0:0:0:0:
402,192,139725,1,0,0:0:0:0:
36,192,139725,128,0,139993:0:0:0:0:
109,192,139859,1,0,0:0:0:0:
402,192,139993,1,0,0:0:0:0:
256,192,139993,128,0,140261:0:0:0:0:
109,192,140127,1,0,0:0:0:0:
329,192,140261,1,0,0:0:0:0:
475,192,140261,128,0,140529:0:0:0:0:
109,192,140395,1,0,0:0:0:0:
182,192,140529,128,0,140797:0:0:0:0:
402,192,140529,1,0,0:0:0:0:
329,192,140663,1,0,0:0:0:0:
109,192,140797,1,0,0:0:0:0:
36,192,140797,1,0,0:0:0:0:
402,192,140931,1,0,0:0:0:0:
329,192,141065,1,0,0:0:0:0:
109,192,141199,1,0,0:0:0:0:
256,192,141199,1,0,0:0:0:0:
182,192,141333,128,0,141600:0:0:0:0:
475,192,141333,1,0,0:0:0:0:
402,192,141466,1,0,0:0:0:0:
256,192,141600,128,0,141868:0:0:0:0:
329,192,141600,1,0,0:0:0:0:
36,192,141734,1,0,0:0:0:0:
329,192,141868,128,0,142136:0:0:0:0:
109,192,141868,1,0,0:0:0:0:
182,192,142002,1,0,0:0:0:0:
475,192,142136,128,0,142404:0:0:0:0:
36,192,142136,1,0,0:0:0:0:
109,192,142270,1,0,0:0:0:0:
182,192,142404,1,0,0:0:0:0:
256,192,142404,1,0,0:0:0:0:
475,192,142538,128,0,142806:0:0:0:0:
36,192,142538,1,0,0:0:0:0:
109,192,142672,1,0,0:0:0:0:
182,192,142806,1,0,0:0:0:0:
256,192,142806,1,0,0:0:0:0:
475,192,142940,128,0,143208:0:0:0:0:
402,192,142940,1,0,0:0:0:0:
109,192,143074,1,0,0:0:0:0:
329,192,143208,128,0,143475:0:0:0:0:
402,192,143208,1,0,0:0:0:0:
182,192,143341,1,0,0:0:0:0:
36,192,143475,128,0,143743:0:0:0:0:
402,192,143475,1,0,0:0:0:0:
182,192,143609,1,0,0:0:0:0:
109,192,143743,128,0,144011:0:0:0:0:
256,192,143743,1,0,0:0:0:0:
329,192,143877,1,0,0:0:0:0:
402,192,144011,1,0,0:0:0:0:
475,192,144011,1,0,0:0:0:0:
182,192,144145,1,0,0:0:0:0:
256,192,144279,1,0,0:0:0:0:
402,192,144413,1,0,0:0:0:0:
329,192,144413,1,0,0:0:0:0:
36,192,144547,1,0,0:0:0:0:
475,192,144547,128,0,144815:0:0:0:0:
109,192,144681,1,0,0:0:0:0:
182,192,144815,1,0,0:0:0:0:
329,192,144815,128,0,145083:0:0:0:0:
256,192,144949,1,0,0:0:0:0:
475,192,145083,1,0,0:0:0:0:
402,192,145083,128,0,145350:0:0:0:0:
329,192,145216,1,0,0:0:0:0:
182,192,145350,128,0,145618:0:0:0:0:
36,192,145350,1,0,0:0:0:0:
109,192,145484,1,0,0:0:0:0:
475,192,145618,1,0,0:0:0:0:
329,192,145618,1,0,0:0:0:0:
182,192,145752,128,0,146020:0:0:0:0:
36,192,145752,1,0,0:0:0:0:
109,192,145886,1,0,0:0:0:0:
475,192,146020,1,0,0:0:0:0:
329,192,146020,1,0,0:0:0:0:
182,192,146154,128,0,146422:0:0:0:0:
402,192,146154,1,0,0:0:0:0:
256,192,146288,1,0,0:0:0:0:
109,192,146422,128,0,146690:0:0:0:0:
402,192,146422,1,0,0:0:0:0:
256,192,146556,1,0,0:0:0:0:
36,192,146690,128,0,146958:0:0:0:0:
402,192,146690,1,0,0:0:0:0:
256,192,146824,1,0,0:0:0:0:
402,192,146958,128,0,147225:0:0:0:0:
182,192,146958,1,0,0:0:0:0:
256,192,147091,1,0,0:0:0:0:
329,192,147225,1,0,0:0:0:0:
475,192,147225,1,0,0:0:0:0:
182,192,147359,1,0,0:0:0:0:
256,192,147493,1,0,0:0:0:0:
329,192,147627,1,0,0:0:0:0:
475,192,147627,1,0,0:0:0:0:
256,192,147761,128,0,148029:0:0:0:0:
36,192,147761,1,0,0:0:0:0:
109,192,147895,1,0,0:0:0:0:
329,192,148029,128,0,148297:0:0:0:0:
475,192,148029,1,0,0:0:0:0:
402,192,148163,1,0,0:0:0:0:
402,192,148297,128,0,148565:0:0:0:0:
182,192,148297,1,0,0:0:0:0:
109,192,148297,1,0,0:0:0:0:
475,192,148565,128,0,148833:0:0:0:0:
36,192,148565,1,0,0:0:0:0:
109,192,148699,1,0,0:0:0:0:
182,192,148833,1,0,0:0:0:0:
256,192,148833,1,0,0:0:0:0:
475,192,148966,128,0,149234:0:0:0:0:
36,192,148966,1,0,0:0:0:0:
109,192,149100,1,0,0:0:0:0:
182,192,149234,1,0,0:0:0:0:
256,192,149234,1,0,0:0:0:0:
475,192,149368,128,0,149636:0:0:0:0:
402,192,149368,1,0,0:0:0:0:
109,192,149502,1,0,0:0:0:0:
329,192,149636,128,0,149904:0:0:0:0:
402,192,149636,1,0,0:0:0:0:
109,192,149770,1,0,0:0:0:0:
36,192,149904,128,0,150172:0:0:0:0:
402,192,149904,1,0,0:0:0:0:
109,192,150038,1,0,0:0:0:0:
182,192,150172,128,0,150440:0:0:0:0:
475,192,150172,1,0,0:0:0:0:
402,192,150306,1,0,0:0:0:0:
256,192,150440,1,0,0:0:0:0:
109,192,150440,1,0,0:0:0:0:
475,192,150440,1,0,0:0:0:0:
402,192,150574,1,0,0:0:0:0:
256,192,150708,1,0,0:0:0:0:
109,192,150708,1,0,0:0:0:0:
182,192,150975,128,0,151243:0:0:0:0:
36,192,150975,1,0,0:0:0:0:
109,192,151109,1,0,0:0:0:0:
475,192,151243,128,0,151511:0:0:0:0:
402,192,151243,1,0,0:0:0:0:
329,192,151377,1,0,0:0:0:0:
182,192,151511,128,0,151779:0:0:0:0:
256,192,151511,1,0,0:0:0:0:
402,192,151645,1,0,0:0:0:0:
109,192,151779,128,0,152047:0:0:0:0:
36,192,151779,1,0,0:0:0:0:
329,192,151913,1,0,0:0:0:0:
402,192,152047,1,0,0:0:0:0:
475,192,152047,1,0,0:0:0:0:
109,192,152181,128,0,152449:0:0:0:0:
36,192,152181,1,0,0:0:0:0:
329,192,152315,1,0,0:0:0:0:
402,192,152449,1,0,0:0:0:0:
475,192,152449,1,0,0:0:0:0:
109,192,152583,128,0,152850:0:0:0:0:
329,192,152583,1,0,0:0:0:0:
182,192,152716,1,0,0:0:0:0:
256,192,152850,128,0,153118:0:0:0:0:
329,192,152850,1,0,0:0:0:0:
182,192,152984,1,0,0:0:0:0:
402,192,153118,128,0,153386:0:0:0:0:
329,192,153118,1,0,0:0:0:0:
182,192,153252,1,0,0:0:0:0:
475,192,153386,128,0,153654:0:0:0:0:
36,192,153386,1,0,0:0:0:0:
109,192,153520,1,0,0:0:0:0:
256,192,153654,1,0,0:0:0:0:
329,192,153654,1,0,0:0:0:0:
36,192,153788,1,0,0:0:0:0:
109,192,153922,1,0,0:0:0:0:
256,192,154056,1,0,0:0:0:0:
402,192,154056,1,0,0:0:0:0:
329,192,154190,128,0,154591:0:0:0:0:
182,192,154190,1,0,0:0:0:0:
256,192,154324,1,0,0:0:0:0:
36,192,154458,1,0,0:0:0:0:
256,192,154591,128,0,154993:0:0:0:0:
109,192,154591,1,0,0:0:0:0:
475,192,154725,1,0,0:0:0:0:
402,192,154859,1,0,0:0:0:0:
36,192,154993,128,0,157404:0:0:0:0:
182,192,154993,1,0,0:0:0:0:
329,192,154993,1,0,0:0:0:0:
475,192,167850,132,0,169458:0:0:0:0:
182,192,167850,128,0,169458:0:0:0:0:
402,192,168654,1,0,0:0:0:0:
36,192,168922,1,0,0:0:0:0:
109,192,169190,1,0,0:0:0:0:
329,192,169458,128,0,171065:0:0:0:0:
256,192,169458,1,0,0:0:0:0:
256,192,170261,128,0,171065:0:0:0:0:
402,192,170797,1,0,0:0:0:0:
36,192,171065,128,0,172672:0:0:0:0:
182,192,171065,1,0,0:0:0:0:
402,192,171868,128,0,172672:0:0:0:0:
475,192,171868,1,0,0:0:0:0:
256,192,172404,1,0,0:0:0:0:
109,192,172672,128,0,173475:0:0:0:0:
329,192,172672,1,0,0:0:0:0:
36,192,173475,128,0,174279:0:0:0:0:
182,192,173475,1,0,0:0:0:0:
329,192,173743,1,0,0:0:0:0:
402,192,174011,1,0,0:0:0:0:
475,192,174279,128,0,175886:0:0:0:0:
256,192,174279,1,0,0:0:0:0:
402,192,175083,1,0,0:0:0:0:
182,192,175350,1,0,0:0:0:0:
256,192,175618,1,0,0:0:0:0:
329,192,175886,128,0,177493:0:0:0:0:
36,192,175886,1,0,0:0:0:0:
256,192,176690,128,0,177493:0:0:0:0:
402,192,177225,1,0,0:0:0:0:
36,192,177493,128,0,179100:0:0:0:0:
182,192,177493,1,0,0:0:0:0:
402,192,178297,128,0,179100:0:0:0:0:
475,192,178297,1,0,0:0:0:0:
256,192,178833,1,0,0:0:0:0:
109,192,179100,1,0,0:0:0:0:
329,192,179100,1,0,0:0:0:0:
256,192,179904,128,0,180172:0:0:0:0:
402,192,179904,1,0,0:0:0:0:
182,192,180172,128,0,180440:0:0:0:0:
402,192,180306,1,0,0:0:0:0:
109,192,180440,128,0,180708:0:0:0:0:
475,192,206422,5,0,0:0:0:0:
256,192,206690,1,0,0:0:0:0:
475,192,206824,1,0,0:0:0:0:
256,192,207091,1,0,0:0:0:0:
402,192,207225,1,0,0:0:0:0:
256,192,207493,1,0,0:0:0:0:
402,192,207761,1,0,0:0:0:0:
256,192,208029,1,0,0:0:0:0:
36,192,208297,1,0,0:0:0:0:
256,192,208431,1,0,0:0:0:0:
36,192,208699,1,0,0:0:0:0:
182,192,208833,1,0,0:0:0:0:
36,192,209100,1,0,0:0:0:0:
182,192,209368,1,0,0:0:0:0:
109,192,209636,1,0,0:0:0:0:
475,192,209904,1,0,0:0:0:0:
109,192,210038,1,0,0:0:0:0:
475,192,210306,1,0,0:0:0:0:
109,192,210440,1,0,0:0:0:0:
182,192,210708,1,0,0:0:0:0:
402,192,210975,1,0,0:0:0:0:
182,192,211243,1,0,0:0:0:0:
475,192,211511,1,0,0:0:0:0:
182,192,211645,1,0,0:0:0:0:
475,192,211913,1,0,0:0:0:0:
109,192,212047,1,0,0:0:0:0:
256,192,212315,1,0,0:0:0:0:
329,192,212583,1,0,0:0:0:0:
475,192,212850,1,0,0:0:0:0:
256,192,213118,1,0,0:0:0:0:
475,192,213252,1,0,0:0:0:0:
256,192,213520,1,0,0:0:0:0:
402,192,213654,1,0,0:0:0:0:
256,192,213922,1,0,0:0:0:0:
402,192,214190,1,0,0:0:0:0:
256,192,214458,1,0,0:0:0:0:
36,192,214725,1,0,0:0:0:0:
256,192,214859,1,0,0:0:0:0:
36,192,215127,1,0,0:0:0:0:
182,192,215261,1,0,0:0:0:0:
36,192,215529,1,0,0:0:0:0:
182,192,215797,1,0,0:0:0:0:
109,192,216065,1,0,0:0:0:0:
475,192,216333,1,0,0:0:0:0:
109,192,216466,1,0,0:0:0:0:
475,192,216734,1,0,0:0:0:0:
109,192,216868,1,0,0:0:0:0:
402,192,217136,1,0,0:0:0:0:
329,192,217404,1,0,0:0:0:0:
36,192,217672,1,0,0:0:0:0:
256,192,217672,1,0,0:0:0:0:
475,192,217672,1,0,0:0:0:0:
