osu file format v14

[General]
AudioFilename: C81PrimarySweets WeekendPV.mp3
AudioLeadIn: 0
PreviewTime: 56411
Countdown: 0
SampleSet: Soft
StackLeniency: 0.7
Mode: 0
LetterboxInBreaks: 0
WidescreenStoryboard: 0

[Editor]
Bookmarks: 15244,34244,139381
DistanceSpacing: 1.6
BeatDivisor: 2
GridSize: 32
TimelineZoom: 2.999999

[Metadata]
Title:Sweets Weekend
TitleUnicode:Sweets Weekend
Artist:Primary
ArtistUnicode:Primary
Creator:Creamy Candy
Version:Hard
Source:
Tags:ゆいこんぬ Yuikonnu Yuiko Sweet's Holiday ゆいこ meis clauson c81 Comiket 81 KKipalt Kuro Fuyusaki CaffeAmericano
BeatmapID:1839373
BeatmapSetID:878348

[Difficulty]
HPDrainRate:5
CircleSize:4
OverallDifficulty:6
ApproachRate:8
SliderMultiplier:1.6
SliderTickRate:1

[Events]
//Background and Video events
0,0,"neko bg2.jpg",0,0
//Break Periods
//Storyboard Layer 0 (Background)
//Storyboard Layer 1 (Fail)
//Storyboard Layer 2 (Pass)
//Storyboard Layer 3 (Foreground)
//Storyboard Sound Samples

[TimingPoints]
540,333.333333333333,4,2,5,30,1,0
5206,-125,4,2,5,60,0,0
5873,-125,4,2,4,80,0,0
9706,-125,4,2,5,80,0,0
11206,-125,4,2,4,80,0,0
15039,-125,4,2,5,80,0,0
16539,-125,4,2,1,70,0,0
26539,-125,4,2,1,60,0,0
27123,-125,4,2,1,20,0,0
27206,-125,4,2,4,80,0,0
31289,-125,4,2,4,20,0,0
31373,-125,4,2,4,80,0,0
36623,-125,4,2,4,20,0,0
36706,-125,4,2,4,80,0,0
50789,-125,4,2,4,20,0,0
50873,-125,4,2,4,80,0,0
51206,-125,4,2,1,80,0,0
56539,-125,4,2,1,80,0,1
59956,-125,4,2,1,20,0,1
60039,-125,4,2,1,80,0,1
60623,-125,4,2,1,20,0,1
60706,-125,4,2,1,80,0,1
62623,-125,4,2,1,20,0,1
62706,-125,4,2,1,80,0,1
65039,-125,4,2,0,80,0,1
65206,-125,4,2,5,80,0,1
65373,-125,4,2,0,80,0,1
65539,-125,4,2,5,80,0,1
65706,-125,4,2,5,80,0,1
66539,-125,4,2,1,80,0,1
66873,-125,4,2,1,80,0,0
67206,-125,4,2,1,80,0,1
70623,-125,4,2,1,20,0,1
70706,-125,4,2,1,80,0,1
71289,-125,4,2,1,20,0,1
71373,-125,4,2,1,80,0,1
73289,-125,4,2,1,20,0,1
73373,-125,4,2,1,80,0,1
77873,-125,4,2,6,70,0,0
87039,-125,4,2,6,60,0,0
87206,-125,4,2,6,60,0,0
89873,-125,4,2,6,50,0,0
91206,-125,4,2,6,40,0,0
91873,-125,4,2,6,30,0,0

[Colours]
Combo1 : 254,211,84
Combo2 : 216,65,65
Combo3 : 163,78,214
Combo4 : 254,146,235

[HitObjects]
256,192,540,12,0,4873,0:0:0:0:
109,190,5206,6,0,P|161:179|193:184,1,64,8|2,0:0|0:0,0:0:0:0:
252,218,5539,1,8,0:0:0:0:
258,218,5623,1,2,0:0:0:0:
264,218,5706,1,2,0:0:0:0:
346,156,5873,6,0,P|348:124|345:92,1,64,6|0,0:0|0:0,0:0:0:0:
284,27,6206,2,0,P|231:17|146:39,1,128,8|2,0:0|0:0,0:0:0:0:
104,103,6706,2,0,P|114:133|120:164,1,64,2|8,0:0|0:0,0:0:0:0:
20,141,7039,6,0,P|12:86|61:22,1,128,2|2,0:0|0:0,0:0:0:0:
153,31,7539,1,8,0:0:0:0:
202,120,7706,2,0,P|242:122|290:112,1,64,2|0,0:0|0:0,0:0:0:0:
345,79,8039,2,0,P|345:128|349:145,2,64,2|8|0,0:0|0:0|0:0,0:0:0:0:
428,138,8539,6,0,P|422:188|338:222,1,128,6|8,0:0|0:0,0:0:0:0:
269,182,9039,2,0,P|263:150|265:118,2,64,0|2|2,0:0|0:0|0:0,0:0:0:0:
280,271,9539,1,8,0:0:0:0:
191,219,9706,6,0,P|133:208|65:228,1,128,6|6,0:0|0:0,0:0:0:0:
7,293,10206,1,8,0:0:0:0:
86,335,10373,2,0,P|144:346|212:326,1,128,6|6,0:0|0:0,0:0:0:0:
280,271,10873,1,8,0:0:0:0:
439,352,11206,6,0,P|448:304|434:210,1,128,6|8,0:0|0:0,0:0:0:0:
358,265,11706,1,0,0:0:0:0:
364,175,11873,2,0,P|395:139|438:131,2,64,2|2|8,0:0|0:0|0:0,0:0:0:0:
272,222,12373,6,0,P|266:176|280:85,1,128,2|2,0:0|0:0,0:0:0:0:
330,23,12873,1,8,0:0:0:0:
240,19,13039,2,0,P|184:89|176:138,1,128,2|2,0:0|0:0,0:0:0:0:
185,214,13539,1,8,0:0:0:0:
71,74,13873,6,0,P|72:130|45:199,1,128,6|8,0:0|0:0,0:0:0:0:
11,279,14373,2,0,P|62:277|93:292,1,64,0|2,0:0|0:0,0:0:0:0:
151,326,14706,2,0,P|182:332|213:327,1,64,2|8,0:0|0:0,0:0:0:0:
299,271,15039,1,6,0:0:0:0:
299,271,15373,6,0,L|297:185,1,64,6|8,0:0|0:0,0:0:0:0:
294,104,15706,1,6,0:0:0:0:
293,104,16039,2,0,P|232:118|170:102,1,128,6|0,0:0|0:0,0:0:0:0:
95,52,16539,6,0,P|84:89|104:189,1,128,2|8,0:0|0:0,0:0:0:0:
173,223,17039,1,0,0:0:0:0:
261,206,17206,2,0,P|324:194|398:213,1,128,2|8,0:0|0:0,0:0:0:0:
463,251,17706,1,2,0:0:0:0:
463,251,18039,6,0,P|468:198|465:170,1,64,2|8,0:0|0:0,0:0:0:0:
381,143,18373,2,0,P|380:174|385:206,2,64,0|2|2,0:0|0:0|0:0,0:0:0:0:
398,55,18873,1,8,0:0:0:0:
398,55,19206,6,0,P|363:50|315:63,1,64,6|0,0:0|0:0,0:0:0:0:
259,103,19539,2,0,P|279:171|281:244,1,128,8|2,0:0|0:0,0:0:0:0:
232,302,20039,1,2,0:0:0:0:
159,249,20206,1,8,0:0:0:0:
72,325,20373,6,0,P|65:259|72:187,1,128,6|2,0:0|0:0,0:0:0:0:
110,117,20873,1,2,0:0:0:0:
197,170,21039,2,0,P|228:173|266:170,1,64,12|0,0:0|0:0,0:0:0:0:
326,108,21373,1,6,0:0:0:0:
349,194,21539,1,8,0:0:0:0:
349,194,21873,6,0,P|345:233|366:337,1,128,2|8,0:0|0:0,0:0:0:0:
442,354,22373,1,0,0:0:0:0:
488,278,22539,2,0,P|491:214|477:151,1,128,2|8,0:0|0:0,0:0:0:0:
423,80,23039,1,2,0:0:0:0:
423,80,23373,6,0,L|341:80,1,64,2|8,0:0|0:0,0:0:0:0:
275,112,23706,2,0,P|270:77|275:48,2,64,2|2|2,0:0|0:0|0:0,0:0:0:0:
317,191,24206,1,8,0:0:0:0:
317,191,24539,6,0,P|277:198|241:194,1,64,6|0,0:0|0:0,0:0:0:0:
184,255,24873,2,0,P|168:193|185:132,1,128,8|2,0:0|0:0,0:0:0:0:
159,44,25373,1,2,0:0:0:0:
246,66,25539,1,8,0:0:0:0:
333,46,25706,1,6,0:0:0:0:
256,192,25789,12,0,26873,0:0:0:0:
164,302,27206,6,0,P|158:237|164:168,1,128,6|8,0:0|0:0,0:0:0:0:
200,93,27706,1,0,0:0:0:0:
255,163,27873,2,0,P|291:167|335:154,2,64,2|2|8,0:0|0:0|0:0,0:0:0:0:
283,77,28373,6,0,P|327:71|363:85,1,64,2|0,0:0|0:0,0:0:0:0:
421,27,28706,2,0,P|431:89|401:154,1,128,2|0,0:0|0:0,0:0:0:0:
356,222,29206,2,0,P|351:269|360:307,2,64,2|2|8,0:0|0:0|0:0,0:0:0:0:
356,222,29873,6,0,L|203:220,1,128,6|8,0:0|0:0,0:0:0:0:
174,292,30373,1,0,0:0:0:0:
140,209,30539,2,0,P|141:160|127:120,2,64,2|2|8,0:0|0:0|0:0,0:0:0:0:
55,177,31039,6,0,L|55:106,1,64,6|0,0:0|0:0,0:0:0:0:
137,81,31373,2,0,L|137:152,1,64,2|8,0:0|0:0,0:0:0:0:
69,35,31706,2,0,P|111:5|202:34,1,128,6|2,0:0|0:0,0:0:0:0:
249,76,32206,1,8,0:0:0:0:
249,76,32539,6,0,P|239:134|242:230,1,128,6|8,0:0|0:0,0:0:0:0:
292,275,33039,1,0,0:0:0:0:
373,313,33206,2,0,P|409:315|451:308,2,64,2|2|8,0:0|0:0|0:0,0:0:0:0:
406,229,33706,6,0,P|408:197|404:165,1,64,2|0,0:0|0:0,0:0:0:0:
333,110,34039,2,0,P|330:78|334:46,1,64,2|8,0:0|0:0,0:0:0:0:
243,47,34373,2,0,P|239:78|242:110,1,64,2|2,0:0|0:0,0:0:0:0:
271,195,34706,1,2,0:0:0:0:
342,258,34873,1,8,0:0:0:0:
342,258,35206,6,0,P|281:274|226:306,1,128,6|8,0:0|0:0,0:0:0:0:
146,351,35706,1,0,0:0:0:0:
91,278,35873,2,0,P|97:247|94:215,2,64,2|2|8,0:0|0:0|0:0,0:0:0:0:
11,237,36373,6,0,L|11:162,1,64,2|0,0:0|0:0,0:0:0:0:
94,151,36706,2,0,L|94:215,1,64,2|8,0:0|0:0,0:0:0:0:
34,101,37039,2,4,P|91:73|155:104,1,128,6|6,0:0|0:0,0:0:0:0:
208,161,37539,1,8,0:0:0:0:
208,161,37873,6,0,P|236:123|311:80,1,128,6|8,0:0|0:0,0:0:0:0:
393,75,38373,1,0,0:0:0:0:
450,142,38539,2,0,P|472:125|510:112,2,64,2|2|8,0:0|0:0|0:0,0:0:0:0:
377,214,39039,6,0,B|364:246|364:246|390:302|354:353,1,128,6|2,0:0|0:0,0:0:0:0:
287,289,39539,1,10,0:0:0:0:
208,333,39706,1,0,0:0:0:0:
123,292,39873,2,0,P|119:253|124:217,1,64,2|0,0:0|0:0,0:0:0:0:
162,134,40206,2,0,P|164:102|161:70,1,64,8|0,0:0|0:0,0:0:0:0:
67,110,40539,1,2,0:0:0:0:
262,180,40873,5,8,0:0:0:0:
262,180,41039,2,0,P|256:113|263:51,1,128,6|2,0:0|0:0,0:0:0:0:
342,92,41539,1,8,0:0:0:0:
347,194,41706,6,0,P|333:234|339:276,1,64,0|2,0:0|0:0,0:0:0:0:
407,306,42039,2,0,P|419:276|420:244,1,64,2|8,0:0|0:0,0:0:0:0:
341,346,42373,2,4,P|369:374|456:365,1,128,6|6,0:0|0:0,0:0:0:0:
504,295,42873,1,8,0:0:0:0:
504,295,43206,6,0,P|509:215|471:155,1,128,6|8,0:0|0:0,0:0:0:0:
410,129,43706,1,0,0:0:0:0:
327,164,43873,2,0,P|318:123|325:88,2,64,2|2|8,0:0|0:0|0:0,0:0:0:0:
396,239,44373,1,6,0:0:0:0:
396,239,44706,6,0,P|401:270|398:302,1,64,2|8,0:0|0:0,0:0:0:0:
320,346,45039,2,0,P|278:331|198:345,1,128,2|2,0:0|0:0,0:0:0:0:
113,377,45539,2,0,P|109:343|112:303,1,64,8|0,0:0|0:0,0:0:0:0:
145,204,45873,6,0,P|148:172|144:140,1,64,6|0,0:0|0:0,0:0:0:0:
113,56,46206,1,8,0:0:0:0:
24,130,46373,2,0,P|27:156|38:194,1,64,6|0,0:0|0:0,0:0:0:0:
126,203,46706,1,2,0:0:0:0:
214,187,46873,1,8,0:0:0:0:
301,205,47039,1,0,0:0:0:0:
379,142,47206,6,0,P|386:93|369:13,1,128,2|8,0:0|0:0,0:0:0:0:
370,16,47873,2,0,P|308:32|229:17,1,128,6|8,0:0|0:0,0:0:0:0:
245,23,48539,5,6,0:0:0:0:
176,80,48706,1,2,0:0:0:0:
95,40,48873,1,8,0:0:0:0:
25,95,49039,1,2,0:0:0:0:
62,176,49206,1,2,0:0:0:0:
151,168,49373,2,0,P|212:159|287:173,1,128,2|6,0:0|0:0,0:0:0:0:
277,169,50039,5,2,0:0:0:0:
358,230,50206,2,0,P|373:177|353:100,1,128,8|2,0:0|0:0,0:0:0:0:
314,28,50706,1,0,0:0:0:0:
357,107,50873,2,0,P|416:112|445:105,1,64,8|0,0:0|0:0,0:0:0:0:
476,41,51206,1,6,0:0:0:0:
476,41,51539,6,0,P|460:102|475:163,1,128,8|2,0:0|0:0,0:0:0:0:
430,241,52039,2,0,P|374:247|350:258,1,64,2|8,0:0|0:0,0:0:0:0:
312,321,52373,6,0,P|315:271|309:182,1,128,2|2,0:0|0:0,0:0:0:0:
238,137,52873,1,8,0:0:0:0:
149,144,53039,2,0,P|146:109|154:72,2,64,0|2|2,0:0|0:0|0:0,0:0:0:0:
190,223,53539,1,8,0:0:0:0:
55,341,53873,6,0,P|42:293|66:205,1,128,2|8,0:0|0:0,0:0:0:0:
123,279,54373,1,0,0:0:0:0:
190,223,54539,2,0,P|216:217|257:225,2,64,2|2|8,0:0|0:0|0:0,0:0:0:0:
222,306,55039,6,0,B|273:323|346:289|346:289|386:320|430:293,1,192,6|2,0:0|0:0,0:0:0:0:
395,214,55706,2,2,P|356:198|325:203,1,64
491,346,56206,1,8,0:0:0:0:
381,125,56539,6,0,P|342:109|259:151,1,128,6|8,0:0|0:0,0:0:0:0:
170,103,57039,2,0,P|182:132|189:163,2,64,0|2|2,0:0|0:0|0:0,0:0:0:0:
93,56,57539,1,10,0:0:0:0:
37,142,57706,6,0,P|29:217|53:292,1,128,6|2,0:0|0:0,0:0:0:0:
113,321,58206,1,8,0:0:0:0:
192,278,58373,2,0,P|265:266|320:286,1,128,2|2,0:0|0:0,0:0:0:0:
389,332,58873,1,8,0:0:0:0:
329,163,59206,6,0,P|326:129|335:76,2,64,4|2|8,0:0|0:0|0:0,0:0:0:0:
403,92,59706,2,0,P|374:38|302:25,1,128,6|2,0:0|0:0,0:0:0:0:
245,80,60206,1,8,0:0:0:0:
192,167,60373,6,0,P|175:227|195:311,1,128,6|2,0:0|0:0,0:0:0:0:
257,237,60873,2,0,P|282:202|368:189,1,128,8|6,0:0|0:0,0:0:0:0:
440,229,61373,1,2,0:0:0:0:
440,229,61539,2,0,P|448:268|443:297,1,64,12|0,0:0|0:0,0:0:0:0:
361,186,61873,6,0,P|356:155|363:124,1,64,6|2,0:0|0:0,0:0:0:0:
384,36,62206,1,8,0:0:0:0:
298,64,62373,2,0,P|276:131|280:207,1,128,6|2,0:0|0:0,0:0:0:0:
279,277,62873,1,8,0:0:0:0:
181,246,63039,6,0,P|102:226|45:240,1,128,6|2,0:0|0:0,0:0:0:0:
2,305,63539,1,8,0:0:0:0:
93,150,63873,2,0,P|96:116|91:75,1,64,6|2,0:0|0:0,0:0:0:0:
35,17,64206,1,8,0:0:0:0:
35,17,64539,5,6,0:0:0:0:
93,86,64706,1,2,0:0:0:0:
171,43,64873,1,8,0:0:0:0:
240,98,65039,2,0,L|309:97,1,64,2|2,0:0|0:0,0:0:0:0:
365,30,65373,2,0,P|391:71|396:100,1,64,2|8,0:0|0:0,0:0:0:0:
357,181,65706,6,0,P|336:225|331:312,1,128,6|6,0:0|0:0,0:0:0:0:
252,349,66206,2,0,P|224:339|165:346,1,64,8|0,0:0|0:0,0:0:0:0:
103,363,66539,2,0,P|99:322|108:278,1,64,6|2,0:0|0:0,0:0:0:0:
148,222,66873,1,12,0:0:0:0:
210,158,67039,1,10,0:0:0:0:
210,151,67123,1,10,0:0:0:0:
210,144,67206,6,0,P|215:72|200:-1,1,128,6|8,0:0|0:0,0:0:0:0:
115,15,67706,2,0,P|105:78|110:141,1,128,2|2,0:0|0:0,0:0:0:0:
148,222,68206,1,8,0:0:0:0:
229,284,68373,6,0,P|272:264|379:283,1,128,6|2,0:0|0:0,0:0:0:0:
434,303,68873,1,8,0:0:0:0:
482,228,69039,2,0,P|487:177|476:136,2,64,2|0|2,0:0|0:0|0:0,0:0:0:0:
401,189,69539,1,8,0:0:0:0:
401,189,69873,6,0,P|398:157|404:125,2,64,6|2|8,0:0|0:0|0:0,0:0:0:0:
353,265,70373,2,0,P|301:251|222:266,1,128,6|2,0:0|0:0,0:0:0:0:
147,301,70873,1,8,0:0:0:0:
91,215,71039,6,0,P|94:141|86:77,1,128,6|2,0:0|0:0,0:0:0:0:
33,14,71539,2,0,P|94:0|152:23,1,128,8|6,0:0|0:0,0:0:0:0:
203,97,72039,1,2,0:0:0:0:
203,97,72206,2,0,P|234:101|265:96,1,64,12|0,0:0|0:0,0:0:0:0:
291,11,72539,6,0,P|347:46|352:118,1,128,6|8,0:0|0:0,0:0:0:0:
289,181,73039,2,0,P|302:229|295:328,1,128,6|2,0:0|0:0,0:0:0:0:
230,363,73539,1,8,0:0:0:0:
129,313,73706,6,0,P|120:242|131:162,1,128,6|2,0:0|0:0,0:0:0:0:
176,112,74206,1,8,0:0:0:0:
34,221,74539,2,0,P|32:252|36:288,1,64,6|2,0:0|0:0,0:0:0:0:
120,314,74873,1,12,0:0:0:0:
120,314,75206,5,2,0:0:0:0:
198,270,75373,1,2,0:0:0:0:
273,317,75539,1,8,0:0:0:0:
345,263,75706,1,0,0:0:0:0:
330,174,75873,1,2,0:0:0:0:
247,135,76039,6,0,P|211:132|182:136,1,64,2|8,0:0|0:0,0:0:0:0:
103,174,76373,1,8,0:0:0:0:
103,174,76706,6,0,P|96:127|96:118,2,32,2|2|2,0:0|0:0|0:0,0:0:0:0:
180,335,77206,1,8,0:0:0:0:
237,265,77373,1,2,0:0:0:0:
314,310,77539,1,2,0:0:0:0:
374,243,77706,1,2,0:0:0:0:
459,299,77873,6,0,P|473:245|445:169,1,128,6|8,0:0|0:0,0:0:0:0:
401,103,78373,1,0,0:0:0:0:
313,121,78539,2,0,P|281:125|244:121,2,64,2|2|8,0:0|0:0|0:0,0:0:0:0:
270,40,79039,6,0,P|208:48|168:96,1,128,2|2,0:0|0:0,0:0:0:0:
129,176,79539,1,8,0:0:0:0:
71,105,79706,2,0,P|73:74|72:42,2,64,0|2|2,0:0|0:0|0:0,0:0:0:0:
42,191,80206,1,8,0:0:0:0:
174,311,80539,6,0,P|242:300|304:313,1,128,6|8,0:0|0:0,0:0:0:0:
378,353,81039,1,0,0:0:0:0:
411,269,81206,2,0,P|408:238|410:206,2,64,2|2|8,0:0|0:0|0:0,0:0:0:0:
484,197,81706,6,0,P|462:148|378:137,1,128,6|2,0:0|0:0,0:0:0:0:
323,185,82206,1,8,0:0:0:0:
242,122,82373,2,4,P|231:189|247:266,1,128,6|6,0:0|0:0,0:0:0:0:
298,316,82873,1,8,0:0:0:0:
133,245,83206,6,0,P|123:181|134:119,1,128,6|8,0:0|0:0,0:0:0:0:
176,39,83706,1,0,0:0:0:0:
250,89,83873,2,0,P|245:126|250:155,2,64,2|2|8,0:0|0:0|0:0,0:0:0:0:
324,138,84373,6,0,P|311:208|249:232,1,128,2|2,0:0|0:0,0:0:0:0:
177,206,84873,1,8,0:0:0:0:
101,253,85039,2,0,P|101:290|108:332,2,64,0|2|2,0:0|0:0|0:0,0:0:0:0:
96,163,85539,1,8,0:0:0:0:
263,232,85873,6,0,P|329:235|405:226,1,128,6|8,0:0|0:0,0:0:0:0:
445,159,86373,1,0,0:0:0:0:
379,98,86539,2,0,P|374:48|378:27,2,64,2|2|8,0:0|0:0|0:0,0:0:0:0:
462,64,87039,1,4,0:0:0:0:
256,192,87123,12,0,92373,0:0:0:0:
