osu file format v14

[General]
AudioFilename: C81PrimarySweets WeekendPV.mp3
AudioLeadIn: 0
PreviewTime: 56411
Countdown: 0
SampleSet: Soft
StackLeniency: 0.7
Mode: 0
LetterboxInBreaks: 0
WidescreenStoryboard: 0

[Editor]
Bookmarks: 139381
DistanceSpacing: 1
BeatDivisor: 4
GridSize: 4
TimelineZoom: 1.4

[Metadata]
Title:Sweets Weekend
TitleUnicode:Sweets Weekend
Artist:Primary
ArtistUnicode:Primary
Creator:CaffeAmericano
Version:Normal
Source:
Tags:ゆいこんぬ Yuikonnu Yuiko Sweet's Holiday ゆいこ meis clauson c81
BeatmapID:848081
BeatmapSetID:380545

[Difficulty]
HPDrainRate:4
CircleSize:3.5
OverallDifficulty:4
ApproachRate:5.5
SliderMultiplier:1.1
SliderTickRate:1

[Events]
//Background and Video events
0,0,"neko bg 1.jpg",0,0
//Break Periods
//Storyboard Layer 0 (Background)
//Storyboard Layer 1 (Fail)
//Storyboard Layer 2 (Pass)
//Storyboard Layer 3 (Foreground)
//Storyboard Sound Samples

[TimingPoints]
745,333.333333333333,4,2,1,60,1,0
6078,-100,4,2,4,80,0,0
16744,-100,4,2,1,70,0,0
27411,-100,4,2,4,80,0,0
51411,-100,4,2,1,80,0,0
55244,-100,4,2,1,80,0,0
56744,-100,4,2,1,80,0,1
65911,-100,4,2,5,80,0,1
66744,-100,4,2,1,80,0,1
67078,-100,4,2,1,80,0,0
67411,-100,4,2,1,80,0,1
67578,-100,4,2,1,80,0,1
78078,-100,4,2,1,60,0,0
87411,-100,4,2,1,30,0,0

[Colours]
Combo1 : 189,249,237
Combo2 : 250,201,86
Combo3 : 68,121,247
Combo4 : 220,75,75

[HitObjects]
256,192,745,12,0,4744,0:0:0:0:
448,144,6078,6,0,P|406:178|352:180,1,110,6|8,0:0|0:0,0:0:0:0:
260,148,6744,2,0,L|241:78,2,55,2|2|8,0:0|0:0|0:0,0:0:0:0:
248,196,7244,1,2,0:0:0:0:
324,260,7578,2,0,P|303:282|280:292,1,55,2|8,0:0|0:0,0:0:0:0:
232,292,7911,1,2,0:0:0:0:
148,340,8244,2,0,L|96:300,1,55,2|8,0:0|0:0,0:0:0:0:
60,220,8744,5,6,0:0:0:0:
64,120,9078,2,0,P|124:92|188:104,1,110,8|2,0:0|0:0,0:0:0:0:
208,68,9578,2,0,L|196:12,2,55,2|8|2,0:0|0:0|0:0,0:0:0:0:
280,136,10244,2,0,L|268:192,2,55,2|8|2,0:0|0:0|0:0,0:0:0:0:
344,60,10911,2,0,L|408:76,1,55,2|8,0:0|0:0,0:0:0:0:
456,152,11411,5,6,0:0:0:0:
384,220,11744,1,8,0:0:0:0:
408,316,12078,2,0,L|472:328,2,55,2|2|8,0:0|0:0|0:0,0:0:0:0:
368,344,12578,1,2,0:0:0:0:
312,260,12911,2,0,L|300:196,2,55,2|8|2,0:0|0:0|0:0,0:0:0:0:
276,352,13578,2,0,L|214:335,1,55,2|8,0:0|0:0,0:0:0:0:
148,276,14078,5,6,0:0:0:0:
80,348,14411,2,0,P|37:305|28:237,1,110,8|2,0:0|0:0,0:0:0:0:
44,212,14911,1,2,0:0:0:0:
68,168,15078,2,0,L|56:88,1,55,8|2,0:0|0:0,0:0:0:0:
156,96,15578,2,0,L|164:32,2,55,2|10|2,0:0|0:0|0:0,0:0:0:0:
252,112,16244,2,0,L|258:166,2,55,2|10|2,0:0|0:0|0:0,0:0:0:0:
284,72,16744,6,0,P|344:55|402:82,1,110,2|8,0:0|0:0,0:0:0:0:
448,148,17411,2,0,L|426:270,1,110,2|8,0:0|0:0,0:0:0:0:
436,304,17911,1,2,0:0:0:0:
348,312,18244,2,0,L|337:371,2,55,2|8|2,0:0|0:0|0:0,0:0:0:0:
328,268,18744,2,0,P|279:244|229:261,1,110,2|8,0:0|0:0,0:0:0:0:
200,356,19411,6,0,P|150:321|129:267,1,110,6|8,0:0|0:0,0:0:0:0:
160,196,20078,2,0,L|225:178,2,55,2|2|8,0:0|0:0|0:0,0:0:0:0:
116,172,20578,1,2,0:0:0:0:
56,108,20911,2,0,L|-10:90,2,55,2|8|6,0:0|0:0|0:0,0:0:0:0:
152,92,21578,2,0,L|211:81,1,55,2|8,0:0|0:0,0:0:0:0:
288,24,22078,6,0,P|352:28|408:60,1,110,2|8,0:0|0:0,0:0:0:0:
432,136,22744,2,0,L|388:200,1,55,2|2,0:0|0:0,0:0:0:0:
356,200,23078,2,0,L|284:200,1,55,8|2,0:0|0:0,0:0:0:0:
216,248,23578,2,0,L|233:313,2,55,2|8|2,0:0|0:0|0:0,0:0:0:0:
196,204,24078,2,0,P|160:176|88:176,1,110,2|8,0:0|0:0,0:0:0:0:
123,268,24744,6,0,L|153:380,1,110,6|8,0:0|0:0,0:0:0:0:
236,324,25411,2,0,L|251:270,2,55,2|2|8,0:0|0:0|0:0,0:0:0:0:
272,356,25911,2,0,B|352:380|392:312|392:312|360:256|372:208|404:176,1,275
256,44,27411,6,0,P|200:54|140:92,1,110,6|8,0:0|0:0,0:0:0:0:
84,148,28078,2,0,L|20:136,2,55,2|2|8,0:0|0:0|0:0,0:0:0:0:
116,184,28578,1,2,0:0:0:0:
208,216,28911,2,0,L|271:204,2,55,2|10|2,0:0|0:0|0:0,0:0:0:0:
172,252,29411,1,2,0:0:0:0:
132,340,29744,1,8,0:0:0:0:
228,356,30078,6,0,L|340:325,1,110,2|8,0:0|0:0,0:0:0:0:
424,288,30744,2,0,L|494:300,2,55,2|2|10,0:0|0:0|0:0,0:0:0:0:
416,244,31244,2,0,L|393:117,1,110,2|2,0:0|0:0,0:0:0:0:
388,88,31744,1,8,0:0:0:0:
376,40,31911,2,0,P|320:64|252:64,1,110,2|2,0:0|0:0,0:0:0:0:
224,52,32411,1,8,0:0:0:0:
196,148,32744,6,0,P|136:140|80:160,1,110,6|8,0:0|0:0,0:0:0:0:
56,248,33411,2,0,L|0:264,2,55,2|2|10,0:0|0:0|0:0,0:0:0:0:
104,256,33911,1,2,0:0:0:0:
200,232,34244,2,0,L|217:297,1,55,2|8,0:0|0:0,0:0:0:0:
184,324,34578,2,0,L|164:397,1,55,2|2,0:0|0:0,0:0:0:0:
268,376,35078,1,8,0:0:0:0:
360,340,35411,6,0,P|396:288|392:216,1,110,6|8,0:0|0:0,0:0:0:0:
356,152,36078,2,0,L|338:86,2,55,2|2|8,0:0|0:0|0:0,0:0:0:0:
320,188,36578,1,2,0:0:0:0:
264,268,36911,2,0,L|198:250,1,55,2|8,0:0|0:0,0:0:0:0:
180,216,37244,2,0,P|128:208|64:216,1,110,2|2,0:0|0:0,0:0:0:0:
28,236,37744,1,8,0:0:0:0:
28,136,38078,6,0,P|71:87|132:76,1,110,6|8,0:0|0:0,0:0:0:0:
212,88,38744,2,0,L|228:149,2,55,2|2|8,0:0|0:0|0:0,0:0:0:0:
252,56,39244,2,0,P|312:48|372:68,1,110,2|2,0:0|0:0,0:0:0:0:
400,88,39744,1,8,0:0:0:0:
460,168,40078,1,2,0:0:0:0:
448,216,40244,2,0,L|430:281,1,55,2|8,0:0|0:0,0:0:0:0:
352,328,40744,6,0,P|290:298|237:309,1,110,2|8,0:0|0:0,0:0:0:0:
203,323,41244,2,0,L|84:302,1,110,2|2,0:0|0:0,0:0:0:0:
72,260,41744,2,0,L|8:244,1,55,8|2,0:0|0:0,0:0:0:0:
8,148,42244,2,0,L|61:161,1,55,2|8,0:0|0:0,0:0:0:0:
108,148,42578,2,0,P|161:138|210:161,1,110,2|2,0:0|0:0,0:0:0:0:
248,196,43078,1,8,0:0:0:0:
332,252,43411,6,0,P|348:187|326:132,1,110,6|8,0:0|0:0,0:0:0:0:
280,64,44078,2,0,L|295:6,2,55,2|2|8,0:0|0:0|0:0,0:0:0:0:
240,96,44578,1,2,0:0:0:0:
176,172,44911,2,0,L|108:172,1,55,2|8,0:0|0:0,0:0:0:0:
28,136,45411,2,0,L|12:78,2,55,2|2|8,0:0|0:0|0:0,0:0:0:0:
16,184,45911,1,0,0:0:0:0:
40,228,46078,6,0,P|100:268|152:264,1,110,2|8,0:0|0:0,0:0:0:0:
176,240,46578,2,0,L|294:260,1,110,2|2,0:0|0:0,0:0:0:0:
332,244,47078,1,8,0:0:0:0:
420,200,47411,2,0,L|488:200,2,55,2|2|8,0:0|0:0|0:0,0:0:0:0:
384,108,48078,2,0,L|452:108,2,55,2|2|8,0:0|0:0|0:0,0:0:0:0:
292,148,48744,6,0,L|222:166,1,55,6|2,0:0|0:0,0:0:0:0:
196,140,49078,1,8,0:0:0:0:
128,68,49411,2,0,L|109:-2,2,55,2|2|8,0:0|0:0|0:0,0:0:0:0:
101,110,49911,2,0,P|98:160|135:220,1,110,2|2,0:0|0:0,0:0:0:0:
168,236,50411,1,8,0:0:0:0:
232,308,50744,2,0,L|216:365,2,55,2|2|8,0:0|0:0|0:0,0:0:0:0:
288,228,51411,6,0,P|342:212|402:232,1,110,6|8,0:0|0:0,0:0:0:0:
468,288,52078,2,0,P|489:234|466:162,1,110,2|8,0:0|0:0,0:0:0:0:
444,152,52578,1,2,0:0:0:0:
380,76,52911,2,0,L|391:12,2,55,2|8|2,0:0|0:0|0:0,0:0:0:0:
340,104,53411,2,0,P|280:115|231:94,1,110,2|8,0:0|0:0,0:0:0:0:
164,32,54078,6,0,L|126:171,1,110,2|8,0:0|0:0,0:0:0:0:
72,212,54744,2,0,L|12:201,2,55,2|2|8,0:0|0:0|0:0,0:0:0:0:
100,252,55244,2,0,B|141:320|209:310|244:266|244:204|244:204|264:184|308:200,1,275,4|0,0:0|0:0,0:0:0:0:
456,316,56744,6,0,P|400:328|344:296,1,110,6|8,0:0|0:0,0:0:0:0:
384,212,57411,2,0,L|399:154,1,55,2|2,0:0|0:0,0:0:0:0:
428,120,57744,1,8,0:0:0:0:
428,120,57911,2,0,P|368:88|324:96,1,110,2|2,0:0|0:0,0:0:0:0:
292,128,58411,1,8,0:0:0:0:
216,64,58744,2,0,L|227:1,2,55,2|2|8,0:0|0:0|0:0,0:0:0:0:
128,108,59411,6,0,P|84:160|80:220,1,110,2|8,0:0|0:0,0:0:0:0:
100,244,59911,2,0,P|148:264|228:256,1,110,6|2,0:0|0:0,0:0:0:0:
240,228,60411,1,8,0:0:0:0:
240,228,60578,2,0,P|292:208|360:216,1,110,6|2,0:0|0:0,0:0:0:0:
376,248,61078,1,8,0:0:0:0:
309,321,61411,2,0,L|318:376,2,55,6|2|12,0:0|0:0|0:0,0:0:0:0:
216,357,62078,6,0,P|164:373|96:337,1,110,6|8,0:0|0:0,0:0:0:0:
80,321,62578,2,0,L|64:197,1,110,6|2,0:0|0:0,0:0:0:0:
60,164,63078,1,8,0:0:0:0:
56,116,63244,2,0,P|108:92|172:104,1,110,2|2,0:0|0:0,0:0:0:0:
208,112,63744,1,8,0:0:0:0:
300,72,64078,2,0,L|311:8,2,55,6|2|8,0:0|0:0|0:0,0:0:0:0:
376,132,64744,6,0,L|352:265,1,110,6|8,0:0|0:0,0:0:0:0:
316,332,65411,2,0,L|256:342,1,55,2|2,0:0|0:0,0:0:0:0:
212,344,65744,1,8,0:0:0:0:
176,312,65911,2,0,P|148:264|160:196,1,110,6|6,0:0|0:0,0:0:0:0:
168,164,66411,1,8,0:0:0:0:
140,68,66744,2,0,L|84:68,2,55,6|2|12,0:0|0:0|0:0,0:0:0:0:
236,96,67411,6,0,L|371:84,1,110,6|8,0:0|0:0,0:0:0:0:
440,60,68078,2,0,L|455:2,2,55,2|2|8,0:0|0:0|0:0,0:0:0:0:
424,108,68578,2,0,P|424:164|444:228,1,110,6|2,0:0|0:0,0:0:0:0:
472,252,69078,1,8,0:0:0:0:
472,252,69244,2,0,L|348:241,1,110,2|2,0:0|0:0,0:0:0:0:
316,256,69744,1,8,0:0:0:0:
256,332,70078,6,2,L|140:321,1,110,2|10,0:0|0:0,0:0:0:0:
108,292,70578,2,0,P|88:240|96:172,1,110,6|2,0:0|0:0,0:0:0:0:
116,144,71078,1,8,0:0:0:0:
116,144,71244,2,0,L|239:133,1,110,6|2,0:0|0:0,0:0:0:0:
268,160,71744,1,8,0:0:0:0:
348,216,72078,2,0,L|336:282,2,55,6|2|12,0:0|0:0|0:0,0:0:0:0:
440,176,72744,6,0,P|424:100|392:60,1,110,2|8,0:0|0:0,0:0:0:0:
360,60,73244,1,6,0:0:0:0:
268,100,73578,2,0,L|204:88,1,55,2|8,0:0|0:0,0:0:0:0:
165,81,73911,1,2,0:0:0:0:
76,120,74244,2,0,L|86:179,1,55,2|8,0:0|0:0,0:0:0:0:
72,272,74744,2,0,L|12:282,2,55,6|2|12,0:0|0:0|0:0,0:0:0:0:
160,320,75411,6,0,P|248:328|280:312,1,110,2|8,0:0|0:0,0:0:0:0:
364,316,76078,2,0,L|419:348,2,55,2|2|8,0:0|0:0|0:0,0:0:0:0:
360,268,76578,1,8,0:0:0:0:
416,188,76911,2,0,L|410:120,1,55,8|8,0:0|0:0,0:0:0:0:
336,68,77411,2,0,L|272:56,1,55
244,92,77744,2,0,L|180:103,1,55
140,92,78078,6,0,P|100:136|92:192,1,110,2|8,0:0|0:0,0:0:0:0:
180,224,78744,2,0,L|313:200,1,110,2|8,0:0|0:0,0:0:0:0:
328,172,79244,1,2,0:0:0:0:
428,176,79578,2,0,L|462:117,2,55,2|8|2,0:0|0:0|0:0,0:0:0:0:
432,224,80078,1,2,0:0:0:0:
396,316,80411,1,10,0:0:0:0:
304,352,80744,6,0,P|252:368|180:340,1,110,2|8,0:0|0:0,0:0:0:0:
108,320,81411,2,0,L|42:337,2,55,2|2|8,0:0|0:0|0:0,0:0:0:0:
132,276,81911,1,2,0:0:0:0:
184,192,82244,2,0,L|167:130,1,55,2|8,0:0|0:0,0:0:0:0:
136,104,82578,2,0,P|191:99|241:70,1,110,2|2,0:0|0:0,0:0:0:0:
264,32,83078,1,8,0:0:0:0:
348,84,83411,6,0,P|400:132|408:176,1,110,2|8,0:0|0:0,0:0:0:0:
344,244,84078,2,0,L|221:222,1,110,2|8,0:0|0:0,0:0:0:0:
188,240,84578,1,2,0:0:0:0:
100,284,84911,2,0,L|61:329,2,55,2|8|2,0:0|0:0|0:0,0:0:0:0:
80,240,85411,2,0,P|92:148|116:124,1,110,2|8,0:0|0:0,0:0:0:0:
184,80,86078,6,0,P|260:64|320:84,1,110,2|8,0:0|0:0,0:0:0:0:
384,100,86744,2,0,L|452:84,2,55,2|2|8,0:0|0:0|0:0,0:0:0:0:
360,144,87244,1,6,0:0:0:0:
256,192,87411,12,0,92578,0:0:0:0:
