osu file format v14

[General]
AudioFilename: C81PrimarySweets WeekendPV.mp3
AudioLeadIn: 0
PreviewTime: 56411
Countdown: 0
SampleSet: Soft
StackLeniency: 0.7
Mode: 0
LetterboxInBreaks: 0
WidescreenStoryboard: 0

[Editor]
Bookmarks: 139381
DistanceSpacing: 1.1
BeatDivisor: 4
GridSize: 4
TimelineZoom: 1.4

[Metadata]
Title:Sweets Weekend
TitleUnicode:Sweets Weekend
Artist:Primary
ArtistUnicode:Primary
Creator:CaffeAmericano
Version:Insane
Source:
Tags:ゆいこんぬ Yuikonnu Yuiko Sweet's Holiday ゆいこ meis clauson c81
BeatmapID:834587
BeatmapSetID:380545

[Difficulty]
HPDrainRate:6
CircleSize:3.5
OverallDifficulty:7
ApproachRate:8.7
SliderMultiplier:1.7
SliderTickRate:1

[Events]
//Background and Video events
0,0,"neko bg2.jpg",0,0
//Break Periods
//Storyboard Layer 0 (Background)
//Storyboard Layer 1 (Fail)
//Storyboard Layer 2 (Pass)
//Storyboard Layer 3 (Foreground)
//Storyboard Sound Samples

[TimingPoints]
745,333.333333333333,4,2,1,60,1,0
745,-133.333333333333,4,2,1,60,0,0
6078,-90.9090909090909,4,2,4,80,0,0
9911,-90.9090909090909,4,2,5,80,0,0
11411,-90.9090909090909,4,2,4,80,0,0
15244,-90.9090909090909,4,2,5,80,0,0
16744,-100,4,2,1,70,0,0
26744,-200,4,2,1,60,0,0
27411,-100,4,2,4,80,0,0
46828,-100,4,2,4,20,0,0
46911,-100,4,2,4,80,0,0
51411,-100,4,2,1,80,0,0
55244,-166.666666666667,4,2,1,80,0,0
56744,-90.9090909090909,4,2,1,80,0,1
65911,-90.9090909090909,4,2,5,80,0,1
66744,-90.9090909090909,4,2,1,80,0,1
66994,-90.9090909090909,4,2,1,20,0,1
67078,-90.9090909090909,4,2,1,80,0,0
67328,-90.9090909090909,4,2,1,20,0,0
67411,-71.4285714285714,4,2,1,80,0,1
67578,-90.9090909090909,4,2,1,80,0,1
78078,-100,4,2,1,60,0,0
87411,-100,4,2,1,30,0,0

[Colours]
Combo1 : 254,211,84
Combo2 : 216,65,65
Combo3 : 163,78,214
Combo4 : 254,146,235

[HitObjects]
256,192,745,12,0,4744,0:0:0:0:
250,334,5411,6,0,P|252:298|233:249,1,63.7500024318696,8|0,0:0|0:0,0:0:0:0:
170,166,5744,1,8,0:0:0:0:
170,166,5828,1,2,0:0:0:0:
170,166,5911,1,2,0:0:0:0:
60,308,6078,6,0,P|104:320|160:304,1,93.5000028533936,6|0,0:0|0:0,0:0:0:0:
260,168,6411,2,0,P|216:156|160:172,1,93.5000028533936,8|0,0:0|0:0,0:0:0:0:
264,260,6744,1,2,0:0:0:0:
340,208,6911,1,2,0:0:0:0:
332,116,7078,1,8,0:0:0:0:
169,261,7244,6,0,P|180:305|222:345,1,93.5000028533936,2|0,0:0|0:0,0:0:0:0:
128,168,7578,2,0,P|83:155|38:166,1,93.5000028533936,2|8,0:0|0:0,0:0:0:0:
223,180,7911,2,0,P|255:147|269:103,1,93.5000028533936,2|0,0:0|0:0,0:0:0:0:
128,168,8244,1,2,0:0:0:0:
264,260,8411,2,0,L|368:260,1,93.5000028533936,8|0,0:0|0:0,0:0:0:0:
507,160,8744,6,0,P|479:124|420:103,1,93.5000028533936,6|0,0:0|0:0,0:0:0:0:
312,176,9078,1,8,0:0:0:0:
416,204,9244,1,0,0:0:0:0:
328,84,9411,1,2,0:0:0:0:
344,276,9578,2,0,P|381:301|443:303,1,93.5000028533936,2|8,0:0|0:0,0:0:0:0:
226,115,9911,6,0,L|127:133,1,93.5000028533936,6|0,0:0|0:0,0:0:0:0:
20,264,10244,2,0,L|112:280,1,93.5000028533936,6|8,0:0|0:0,0:0:0:0:
196,96,10578,2,0,L|97:113,1,93.5000028533936,6|0,0:0|0:0,0:0:0:0:
40,292,10911,1,6,0:0:0:0:
40,292,11078,2,0,L|132:308,1,93.5000028533936,8|0,0:0|0:0,0:0:0:0:
328,324,11411,6,0,P|368:304|396:256,1,93.5000028533936,6|0,0:0|0:0,0:0:0:0:
368,92,11744,2,0,P|324:112|300:160,1,93.5000028533936,8|0,0:0|0:0,0:0:0:0:
440,152,12078,1,2,0:0:0:0:
456,64,12244,1,2,0:0:0:0:
384,4,12411,1,8,0:0:0:0:
362,196,12578,6,0,P|392:229|446:241,1,93.5000028533936,2|0,0:0|0:0,0:0:0:0:
328,324,12911,2,0,L|224:324,1,93.5000028533936,2|8,0:0|0:0,0:0:0:0:
31,256,13244,2,0,P|57:217|112:192,1,93.5000028533936,2|0,0:0|0:0,0:0:0:0:
124,292,13578,1,2,0:0:0:0:
4,155,13744,2,0,P|4:95|12:47,1,93.5000028533936,8|0,0:0|0:0,0:0:0:0:
272,64,14078,6,0,P|272:124|264:172,1,93.5000028533936,6|0,0:0|0:0,0:0:0:0:
97,195,14411,1,8,0:0:0:0:
191,130,14578,1,0,0:0:0:0:
90,76,14744,1,2,0:0:0:0:
198,249,14911,2,0,P|237:266|300:260,1,93.5000028533936,2|8,0:0|0:0,0:0:0:0:
192,156,15244,6,0,L|89:173,1,93.5000028533936,6|0,0:0|0:0,0:0:0:0:
48,296,15578,2,0,L|140:311,1,93.5000028533936,6|8,0:0|0:0,0:0:0:0:
212,132,15911,2,0,L|120:148,1,93.5000028533936,6|0,0:0|0:0,0:0:0:0:
32,268,16244,1,6,0:0:0:0:
240,300,16411,1,8,0:0:0:0:
240,300,16744,6,0,P|268:268|280:216,1,85,2|0,0:0|0:0,0:0:0:0:
150,144,17078,1,8,0:0:0:0:
190,224,17244,1,0,0:0:0:0:
198,68,17411,1,2,0:0:0:0:
198,68,17578,1,2,0:0:0:0:
102,220,17744,1,8,0:0:0:0:
328,156,17911,6,0,P|320:111|291:74,1,85,2|0,0:0|0:0,0:0:0:0:
153,148,18244,2,0,L|245:148,1,85,2|8,0:0|0:0,0:0:0:0:
380,76,18578,1,0,0:0:0:0:
272,232,18744,2,0,P|315:250|365:242,1,85,2|2,0:0|0:0,0:0:0:0:
238,148,19078,1,8,0:0:0:0:
190,224,19244,1,0,0:0:0:0:
328,156,19411,6,0,L|380:76,1,85,6|0,0:0|0:0,0:0:0:0:
356,240,19745,1,8,0:0:0:0:
272,232,19911,1,0,0:0:0:0:
412,168,20078,2,0,P|443:211|443:270,1,85,2|2,0:0|0:0,0:0:0:0:
308,312,20411,1,8,0:0:0:0:
328,156,20578,6,0,L|424:136,1,85,2|0,0:0|0:0,0:0:0:0:
308,312,20911,2,0,L|224:294,1,85,2|8,0:0|0:0,0:0:0:0:
344,124,21244,2,0,L|440:104,1,85,6|0,0:0|0:0,0:0:0:0:
360,240,21578,1,6,0:0:0:0:
252,220,21744,1,8,0:0:0:0:
332,148,21911,1,0,0:0:0:0:
284,328,22078,6,0,L|189:311,1,85,2|0,0:0|0:0,0:0:0:0:
172,208,22411,1,8,0:0:0:0:
204,288,22578,1,0,0:0:0:0:
84,200,22744,1,2,0:0:0:0:
220,140,22911,1,2,0:0:0:0:
252,220,23078,1,8,0:0:0:0:
132,128,23244,6,0,P|150:84|182:60,1,85,2|0,0:0|0:0,0:0:0:0:
320,247,23578,2,0,L|236:244,1,85,2|8,0:0|0:0,0:0:0:0:
408,172,23911,1,0,0:0:0:0:
300,271,24078,2,0,L|200:267,1,85,2|2,0:0|0:0,0:0:0:0:
24,240,24411,1,8,0:0:0:0:
60,324,24578,1,0,0:0:0:0:
112,168,24744,6,0,P|78:142|29:129,1,85,6|0,0:0|0:0,0:0:0:0:
116,252,25078,1,8,0:0:0:0:
196,216,25244,1,0,0:0:0:0:
36,224,25411,1,2,0:0:0:0:
184,300,25578,1,2,0:0:0:0:
272,180,25744,1,8,0:0:0:0:
124,104,25911,1,6,0:0:0:0:
256,192,26078,12,0,27078,0:0:0:0:
408,188,27411,6,0,P|336:148|268:192,1,170,6|8,0:0|0:0,0:0:0:0:
340,232,27911,1,0,0:0:0:0:
296,108,28078,2,0,L|200:108,1,85,2|2,0:0|0:0,0:0:0:0:
92,32,28411,1,8,0:0:0:0:
172,184,28578,6,0,L|270:201,1,85,2|0,0:0|0:0,0:0:0:0:
352,40,28911,2,0,L|253:57,1,85,2|8,0:0|0:0,0:0:0:0:
384,124,29244,1,0,0:0:0:0:
440,48,29411,1,2,0:0:0:0:
296,108,29578,1,2,0:0:0:0:
374,216,29744,2,0,P|415:209|452:188,1,85,8|0,0:0|0:0,0:0:0:0:
172,184,30078,6,0,P|171:225|200:280,1,85,2|0,0:0|0:0,0:0:0:0:
344,324,30411,1,8,0:0:0:0:
260,348,30578,1,0,0:0:0:0:
352,232,30744,2,0,L|440:196,1,85,2|2,0:0|0:0,0:0:0:0:
468,44,31078,1,8,0:0:0:0:
360,140,31244,6,0,P|312:144|272:120,1,85,2|0,0:0|0:0,0:0:0:0:
392,64,31578,2,0,P|429:95|440:152,1,85,2|8,0:0|0:0,0:0:0:0:
272,176,31911,2,0,L|176:176,1,85,2|0,0:0|0:0,0:0:0:0:
240,32,32244,2,0,P|277:63|288:120,2,85,2|8|0,0:0|0:0|0:0,0:0:0:0:
272,176,32744,6,0,P|317:170|359:130,1,85,6|0,0:0|0:0,0:0:0:0:
187,124,33078,1,8,0:0:0:0:
188,216,33244,1,0,0:0:0:0:
108,80,33411,1,2,0:0:0:0:
108,260,33578,1,2,0:0:0:0:
187,124,33744,1,8,0:0:0:0:
31,137,33911,6,0,P|66:165|129:174,1,85,2|0,0:0|0:0,0:0:0:0:
268,272,34244,2,0,P|233:300|170:309,1,85,2|8,0:0|0:0,0:0:0:0:
16,232,34578,1,0,0:0:0:0:
108,260,34744,1,2,0:0:0:0:
188,216,34911,1,2,0:0:0:0:
101,358,35078,2,0,P|60:346|27:319,1,85,8|0,0:0|0:0,0:0:0:0:
268,272,35411,6,0,P|286:221|275:175,1,85,6|0,0:0|0:0,0:0:0:0:
136,144,35744,1,8,0:0:0:0:
188,216,35911,1,0,0:0:0:0:
40,148,36078,1,2,0:0:0:0:
148,304,36244,2,0,P|190:315|236:296,1,85,2|8,0:0|0:0,0:0:0:0:
352,120,36578,6,0,L|268:139,1,85,2|0,0:0|0:0,0:0:0:0:
105,196,36911,2,0,L|187:215,1,85,2|8,0:0|0:0,0:0:0:0:
384,244,37244,2,0,P|340:316|252:372,2,170,2|8|0,0:0|0:0|0:0,0:0:0:0:
228,164,38078,6,0,P|244:220|276:260,1,85,6|0,0:0|0:0,0:0:0:0:
468,292,38411,1,8,0:0:0:0:
388,340,38578,1,0,0:0:0:0:
380,152,38744,1,2,0:0:0:0:
464,192,38911,1,2,0:0:0:0:
384,244,39078,1,8,0:0:0:0:
300,104,39244,6,0,L|300:8,1,85,2|0,0:0|0:0,0:0:0:0:
460,104,39578,2,0,L|504:20,1,85,2|8,0:0|0:0,0:0:0:0:
384,244,39911,2,0,P|339:233|296:188,2,85,2|2|2,0:0|0:0|0:0,0:0:0:0:
460,104,40411,1,8,0:0:0:0:
464,196,40578,1,0,0:0:0:0:
380,152,40744,6,0,P|370:75|451:11,1,170,2|8,0:0|0:0,0:0:0:0:
464,196,41244,2,0,P|395:244|312:217,1,170,2|2,0:0|0:0,0:0:0:0:
144,160,41744,1,8,0:0:0:0:
248,304,41911,1,0,0:0:0:0:
244,112,42078,5,2,0:0:0:0:
168,260,42244,1,2,0:0:0:0:
244,112,42411,1,8,0:0:0:0:
248,304,42578,2,0,P|216:338|157:352,1,85,2|0,0:0|0:0,0:0:0:0:
240,204,42911,1,2,0:0:0:0:
314,244,43078,1,8,0:0:0:0:
332,328,43244,1,0,0:0:0:0:
168,260,43411,6,0,P|150:213|156:168,1,85,6|0,0:0|0:0,0:0:0:0:
324,152,43744,1,8,0:0:0:0:
240,204,43911,1,0,0:0:0:0:
324,64,44078,1,2,0:0:0:0:
400,208,44244,2,0,P|368:235|300:244,1,85,2|8,0:0|0:0,0:0:0:0:
404,112,44578,6,0,P|444:124|484:164,1,85,2|0,0:0|0:0,0:0:0:0:
416,336,44911,2,0,P|369:337|320:328,1,85,2|8,0:0|0:0,0:0:0:0:
240,204,45244,2,0,P|264:148|296:128,2,85,2|2|2,0:0|0:0|0:0,0:0:0:0:
337,215,45744,1,8,0:0:0:0:
280,288,45911,1,0,0:0:0:0:
188,124,46078,5,2,0:0:0:0:
240,204,46244,1,0,0:0:0:0:
188,280,46411,1,8,0:0:0:0:
284,124,46578,2,0,P|356:108|401:131,1,127.5,2|0,0:0|0:0,0:0:0:0:
401,131,46911,2,0,P|412:82|391:40,1,85,2|8,0:0|0:0,0:0:0:0:
496,128,47244,1,0,0:0:0:0:
420,229,47411,6,0,L|305:208,1,85,2|0,0:0|0:0,0:0:0:0:
396,360,47744,2,0,L|510:339,1,85,8|0,0:0|0:0,0:0:0:0:
404,192,48078,2,0,L|289:171,1,85,2|2,0:0|0:0,0:0:0:0:
192,280,48411,2,0,P|244:280|284:248,1,85,8|0,0:0|0:0,0:0:0:0:
124,208,48744,5,6,0:0:0:0:
88,292,48911,1,2,0:0:0:0:
217,194,49078,1,8,0:0:0:0:
156,360,49244,1,2,0:0:0:0:
32,212,49411,1,2,0:0:0:0:
192,280,49578,1,2,0:0:0:0:
304,176,49744,1,8,0:0:0:0:
160,120,49911,6,0,P|129:159|127:209,1,85,2|0,0:0|0:0,0:0:0:0:
240,108,50244,1,2,0:0:0:0:
284,272,50411,2,0,P|328:272|374:241,1,85,8|0,0:0|0:0,0:0:0:0:
333,88,50744,1,2,0:0:0:0:
392,169,50911,1,2,0:0:0:0:
223,205,51078,1,8,0:0:0:0:
240,108,51244,1,0,0:0:0:0:
284,272,51411,6,0,P|209:295|141:243,2,170,6|8|2,0:0|0:0|0:0,0:0:0:0:
316,176,52244,1,2,0:0:0:0:
223,205,52411,1,8,0:0:0:0:
368,296,52578,6,0,L|464:270,1,85,2|0,2:0|2:0,2:0:0:0:
376,108,52911,2,0,L|293:86,1,85,2|8,2:0|2:0,2:0:0:0:
119,203,53244,1,0,0:0:0:0:
266,274,53411,2,0,P|247:227|209:197,1,85,2|2,0:0|0:0,0:0:0:0:
64,124,53744,1,8,0:0:0:0:
156,116,53911,1,0,0:0:0:0:
180,280,54078,6,0,P|139:300|76:290,1,85,2|0,0:0|0:0,0:0:0:0:
217,194,54411,1,8,0:0:0:0:
272,272,54578,1,0,0:0:0:0:
119,203,54744,2,0,L|63:127,1,85,2|2,0:0|0:0,0:0:0:0:
128,16,55078,1,8,0:0:0:0:
289,112,55244,6,0,P|240:218|116:200,1,254.999992218018,4|0,0:0|0:0,0:0:0:0:
416,240,56744,6,0,P|356:240|316:220,1,93.5000028533936,6|0,0:0|0:0,0:0:0:0:
276,152,57078,1,8,0:0:0:0:
296,304,57244,1,0,0:0:0:0:
182,152,57411,1,2,0:0:0:0:
382,153,57578,2,0,P|371:103|336:63,1,93.5000028533936,2|8,0:0|0:0,0:0:0:0:
326,226,57911,6,0,P|369:242|416:240,1,93.5000028533936,2|0,0:0|0:0,0:0:0:0:
276,152,58244,2,0,L|164:152,1,93.5000028533936,2|8,0:0|0:0,0:0:0:0:
40,236,58578,1,0,0:0:0:0:
156,268,58744,1,2,0:0:0:0:
56,120,58911,2,0,B|86:64|86:64|112:50,2,93.5000028533936,2|8|0,0:0|0:0|0:0,0:0:0:0:
116,192,59411,5,2,0:0:0:0:
196,140,59578,1,2,0:0:0:0:
200,48,59744,1,8,0:0:0:0:
116,192,59911,2,0,B|176:252|176:252|304:256,1,187.000005706787,6|2,0:0|0:0,0:0:0:0:
336,92,60411,1,8,0:0:0:0:
460,212,60578,6,0,P|420:300|316:324,1,187.000005706787,6|2,0:0|0:0,0:0:0:0:
198,248,61078,2,0,P|218:200|262:176,1,93.5000028533936,8|0,0:0|0:0,0:0:0:0:
216,348,61411,2,0,L|117:330,1,93.5000028533936,6|2,0:0|0:0,0:0:0:0:
16,204,61744,2,0,L|108:187,1,93.5000028533936,12|0,0:0|0:0,0:0:0:0:
292,132,62078,5,6,0:0:0:0:
128,196,62244,1,0,0:0:0:0:
204,48,62411,1,8,0:0:0:0:
256,224,62578,2,0,P|353:210|389:119,1,187.000005706787,6|2,0:0|0:0,0:0:0:0:
328,32,63078,1,8,0:0:0:0:
196,133,63244,6,0,P|150:115|123:72,1,93.5000028533936,2|0,0:0|0:0,0:0:0:0:
292,132,63578,1,2,0:0:0:0:
132,224,63744,2,0,L|33:206,1,93.5000028533936,8|0,0:0|0:0,0:0:0:0:
204,48,64078,2,0,L|296:31,1,93.5000028533936,6|2,0:0|0:0,0:0:0:0:
464,216,64411,2,0,L|365:198,1,93.5000028533936,8|0,0:0|0:0,0:0:0:0:
232,168,64744,5,6,0:0:0:0:
352,276,64911,1,2,0:0:0:0:
464,128,65078,1,8,0:0:0:0:
336,180,65244,1,2,0:0:0:0:
456,288,65411,2,0,P|496:248|504:200,1,93.5000028533936,2|0,0:0|0:0,0:0:0:0:
368,88,65744,1,8,0:0:0:0:
272,256,65911,6,0,B|168:256|168:256|88:192,1,187.000005706787,6|6,0:0|0:0,0:0:0:0:
192,92,66411,2,0,L|296:92,1,93.5000028533936,8|0,0:0|0:0,0:0:0:0:
376,264,66744,2,0,B|340:300|340:300|248:300,1,140.25000428009,6|0,0:0|0:0,0:0:0:0:
288,212,67078,2,0,B|324:176|324:176|416:176,1,140.25000428009,12|0,0:0|0:0,0:0:0:0:
476,261,67411,6,0,P|456:326|402:362,1,118.999996368408,6|0,0:0|0:0,0:0:0:0:
200,236,67744,1,8,0:0:0:0:
349,123,67911,2,0,P|393:135|413:175,1,93.5000028533936,2|0,0:0|0:0,0:0:0:0:
293,236,68244,2,0,L|181:236,1,93.5000028533936,2|8,0:0|0:0,0:0:0:0:
100,244,68578,6,0,P|116:293|177:331,1,93.5000028533936,6|0,0:0|0:0,0:0:0:0:
293,236,68911,1,2,0:0:0:0:
235,328,69078,1,8,0:0:0:0:
152,168,69244,2,0,P|110:152|43:171,1,93.5000028533936,2|0,0:0|0:0,0:0:0:0:
184,40,69578,2,0,L|288:67,1,93.5000028533936,2|8,0:0|0:0,0:0:0:0:
325,168,69911,1,0,0:0:0:0:
384,48,70078,5,2,0:0:0:0:
325,168,70244,2,0,L|221:168,1,93.5000028533936,2|8,0:0|0:0,0:0:0:0:
429,131,70578,2,0,P|409:243|313:279,1,187.000005706787,6|2,0:0|0:0,0:0:0:0:
200,235,71078,1,8,0:0:0:0:
184,72,71244,6,0,P|288:76|342:146,1,187.000005706787,6|2,0:0|0:0,0:0:0:0:
272,320,71744,1,8,0:0:0:0:
352,276,71911,1,0,0:0:0:0:
200,235,72078,2,0,L|98:213,1,93.5000028533936,6|2,0:0|0:0,0:0:0:0:
16,60,72411,2,0,L|117:38,1,93.5000028533936,12|0,0:0|0:0,0:0:0:0:
252,76,72744,5,6,0:0:0:0:
228,160,72911,1,0,0:0:0:0:
168,96,73078,1,8,0:0:0:0:
312,156,73244,2,0,P|284:226|177:226,1,187.000005706787,6|2,0:0|0:0,0:0:0:0:
68,144,73744,1,8,0:0:0:0:
168,96,73911,6,0,P|204:120|232:176,1,93.5000028533936,2|0,0:0|0:0,0:0:0:0:
68,144,74244,1,2,0:0:0:0:
264,72,74411,2,0,L|360:72,1,93.5000028533936,8|0,0:0|0:0,0:0:0:0:
420,304,74744,1,6,0:0:0:0:
336,188,74911,1,2,0:0:0:0:
268,288,75078,2,0,P|221:294|174:282,1,93.5000028533936,12|0,0:0|0:0,0:0:0:0:
228,162,75411,5,2,0:0:0:0:
420,304,75578,1,2,0:0:0:0:
320,152,75744,1,8,0:0:0:0:
456,188,75911,1,0,0:0:0:0:
296,260,76078,1,2,0:0:0:0:
406,104,76244,2,0,P|372:68|315:53,1,93.5000028533936,2|8,0:0|0:0,0:0:0:0:
169,154,76578,6,0,P|201:230|325:250,1,187.000005706787,2|2,0:0|0:0,0:0:0:0:
456,188,77078,1,8,0:0:0:0:
456,188,77411,5,8,0:0:0:0:
388,312,77578,1,2,0:0:0:0:
277,152,77744,1,2,0:0:0:0:
376,228,77911,1,2,0:0:0:0:
252,336,78078,6,0,B|132:336|132:336|88:304,2,170,2|8|2,0:0|0:0|0:0,0:0:0:0:
336,276,78911,1,2,0:0:0:0:
372,180,79078,1,8,0:0:0:0:
272,112,79244,6,0,L|157:132,1,85,2|0,0:0|0:0,0:0:0:0:
252,261,79578,2,0,L|366:281,1,85,2|8,0:0|0:0,0:0:0:0:
174,221,79911,1,0,0:0:0:0:
174,221,80078,2,0,P|170:293|198:325,1,85,2|2,0:0|0:0,0:0:0:0:
256,180,80411,1,8,0:0:0:0:
188,126,80578,1,0,0:0:0:0:
340,172,80744,6,0,L|432:196,1,85,2|0,0:0|0:0,0:0:0:0:
352,80,81078,1,8,0:0:0:0:
268,92,81244,1,0,0:0:0:0:
252,261,81411,2,0,P|300:276|348:248,1,85,2|2,0:0|0:0,0:0:0:0:
184,164,81744,1,8,0:0:0:0:
36,312,81911,6,0,P|84:327|132:299,1,85,2|0,0:0|0:0,0:0:0:0:
252,261,82244,2,0,P|204:246|156:274,1,85,2|8,0:0|0:0,0:0:0:0:
316,348,82578,2,0,L|332:253,1,85,2|0,0:0|0:0,0:0:0:0:
396,112,82911,1,2,0:0:0:0:
312,168,83078,1,8,0:0:0:0:
404,216,83244,1,0,0:0:0:0:
280,72,83411,6,0,L|177:90,1,85,2|0,0:0|0:0,0:0:0:0:
92,192,83744,2,0,L|194:210,1,85,8|0,0:0|0:0,0:0:0:0:
312,168,84078,1,2,0:0:0:0:
252,240,84244,1,2,0:0:0:0:
344,260,84411,1,8,0:0:0:0:
312,84,84578,6,0,L|228:69,1,85,2|0,0:0|0:0,0:0:0:0:
112,176,84911,2,0,L|195:161,1,85,2|8,0:0|0:0,0:0:0:0:
39,124,85244,1,0,0:0:0:0:
39,124,85411,2,0,P|24:188|41:233,1,85,2|2,0:0|0:0,0:0:0:0:
144,312,85744,2,0,P|196:320|236:304,1,85,8|0,0:0|0:0,0:0:0:0:
372,160,86078,6,0,P|330:151|290:161,1,85,2|0,0:0|0:0,0:0:0:0:
160,340,86411,2,0,P|212:348|252:332,1,85,8|0,0:0|0:0,0:0:0:0:
408,244,86744,1,2,0:0:0:0:
260,324,86911,1,2,0:0:0:0:
224,212,87078,1,8,0:0:0:0:
388,340,87244,1,4,0:0:0:0:
256,192,87411,12,0,92578,0:0:0:0:
