osu file format v14

[General]
AudioFilename: C81PrimarySweets WeekendPV.mp3
AudioLeadIn: 0
PreviewTime: 56411
Countdown: 0
SampleSet: Soft
StackLeniency: 0.7
Mode: 0
LetterboxInBreaks: 0
WidescreenStoryboard: 0

[Editor]
Bookmarks: 139381
DistanceSpacing: 1.1
BeatDivisor: 4
GridSize: 4
TimelineZoom: 1.4

[Metadata]
Title:Sweets Weekend
TitleUnicode:Sweets Weekend
Artist:Primary
ArtistUnicode:Primary
Creator:CaffeAmericano
Version:Hard
Source:
Tags:ゆいこんぬ Yuikonnu Yuiko Sweet's Holiday ゆいこ meis clauson c81
BeatmapID:847547
BeatmapSetID:380545

[Difficulty]
HPDrainRate:5
CircleSize:4
OverallDifficulty:6
ApproachRate:7.5
SliderMultiplier:1.5
SliderTickRate:1

[Events]
//Background and Video events
0,0,"neko bg2.jpg",0,0
//Break Periods
//Storyboard Layer 0 (Background)
//Storyboard Layer 1 (Fail)
//Storyboard Layer 2 (Pass)
//Storyboard Layer 3 (Foreground)
//Storyboard Sound Samples

[TimingPoints]
745,333.333333333333,4,2,1,60,1,0
6078,-100,4,2,4,80,0,0
9911,-100,4,2,5,80,0,0
11411,-100,4,2,4,80,0,0
15244,-100,4,2,5,80,0,0
16744,-100,4,2,1,70,0,0
26744,-100,4,2,1,60,0,0
27411,-100,4,2,4,80,0,0
51411,-100,4,2,1,80,0,0
55244,-133.333333333333,4,2,1,80,0,0
56744,-100,4,2,1,80,0,1
65911,-100,4,2,5,80,0,1
66744,-100,4,2,1,80,0,1
67078,-100,4,2,1,80,0,0
67411,-100,4,2,1,80,0,1
67578,-100,4,2,1,80,0,1
78078,-100,4,2,1,60,0,0
87411,-100,4,2,1,30,0,0

[Colours]
Combo1 : 254,211,84
Combo2 : 216,65,65
Combo3 : 163,78,214
Combo4 : 254,146,235

[HitObjects]
256,192,745,12,0,4744,0:0:0:0:
384,104,5411,6,0,P|373:137|376:192,1,75,8|2,0:0|0:0,0:0:0:0:
432,236,5744,1,8,0:0:0:0:
432,236,5828,1,2,0:0:0:0:
432,236,5911,1,2,0:0:0:0:
376,296,6078,6,0,P|304:316|216:308,1,150,6|8,0:0|0:0,0:0:0:0:
92,220,6744,1,2,0:0:0:0:
120,296,6911,2,0,P|160:263|170:231,1,75,2|8,0:0|0:0,0:0:0:0:
196,164,7244,6,0,L|278:149,1,75,2|0,0:0|0:0,0:0:0:0:
340,228,7578,2,0,L|266:241,1,75,8|0,0:0|0:0,0:0:0:0:
228,136,7911,2,0,L|310:121,1,75,2|0,0:0|0:0,0:0:0:0:
404,140,8244,2,0,P|446:207|426:294,1,150,8|0,0:0|0:0,0:0:0:0:
416,356,8744,6,0,P|381:338|359:301,1,75,6|0,0:0|0:0,0:0:0:0:
340,228,9078,1,8,0:0:0:0:
340,228,9244,1,2,0:0:0:0:
260,212,9411,2,0,P|281:171|323:148,2,75,2|2|8,0:0|0:0|0:0,0:0:0:0:
216,284,9911,6,0,P|176:292|124:280,1,75,6|0,0:0|0:0,0:0:0:0:
96,192,10244,2,0,P|136:184|188:196,1,75,12|0,0:0|0:0,0:0:0:0:
61,273,10578,2,0,P|28:249|9:207,1,75,6|0,0:0|0:0,0:0:0:0:
56,108,10911,2,0,B|92:88|152:104|124:112|168:128|216:107,1,150,12|0,0:0|0:0,0:0:0:0:
256,48,11411,6,0,P|287:113|243:187,1,150,6|8,0:0|0:0,0:0:0:0:
128,284,12078,1,2,0:0:0:0:
192,332,12244,2,0,L|288:332,1,75,2|8,0:0|0:0,0:0:0:0:
352,356,12578,6,0,P|384:340|404:284,1,75,2|0,0:0|0:0,0:0:0:0:
340,212,12911,2,0,P|324:256|336:292,1,75,8|0,0:0|0:0,0:0:0:0:
418,222,13244,2,0,P|411:178|376:143,1,75,2|0,0:0|0:0,0:0:0:0:
304,100,13578,2,0,B|260:76|212:96|248:100|200:124|152:100,1,150,8|0,0:0|0:0,0:0:0:0:
116,32,14078,6,0,P|84:60|80:113,1,75,6|0,0:0|0:0,0:0:0:0:
112,164,14411,1,8,0:0:0:0:
112,164,14578,1,2,0:0:0:0:
48,216,14744,2,0,P|60:251|89:274,1,75,2|0,0:0|0:0,0:0:0:0:
160,232,15078,1,8,0:0:0:0:
252,184,15244,6,0,L|231:261,1,75,6|0,0:0|0:0,0:0:0:0:
332,220,15578,2,0,L|311:297,1,75,12|0,0:0|0:0,0:0:0:0:
412,256,15911,2,0,L|391:333,1,75,6|0,0:0|0:0,0:0:0:0:
492,288,16244,2,0,P|489:213|431:171,1,150,12|0,0:0|0:0,0:0:0:0:
352,156,16744,6,0,P|344:116|360:72,1,75,2|0,0:0|0:0,0:0:0:0:
416,32,17078,1,8,0:0:0:0:
252,36,17411,2,0,P|216:56|192:104,1,75,2|0,0:0|0:0,0:0:0:0:
172,164,17744,1,8,0:0:0:0:
216,232,17911,6,0,L|306:247,1,75,2|0,0:0|0:0,0:0:0:0:
368,316,18244,2,0,L|277:331,1,75,2|8,0:0|0:0,0:0:0:0:
220,364,18578,1,2,0:0:0:0:
139,293,18744,2,0,P|119:252|119:217,1,75,2|0,0:0|0:0,0:0:0:0:
168,152,19078,1,8,0:0:0:0:
289,245,19411,6,0,L|375:229,1,75,6|2,0:0|0:0,0:0:0:0:
412,164,19744,1,8,0:0:0:0:
412,164,20078,1,2,0:0:0:0:
450,236,20244,2,0,P|438:276|409:305,1,75,2|8,0:0|0:0,0:0:0:0:
320,348,20578,6,0,L|227:323,1,75,2|0,0:0|0:0,0:0:0:0:
164,264,20911,2,0,L|257:239,1,75,2|0,0:0|0:0,0:0:0:0:
300,160,21244,2,0,L|207:135,1,75,12|0,0:0|0:0,0:0:0:0:
299,64,21578,2,0,P|367:92|395:159,1,150,12|0,0:0|0:0,0:0:0:0:
420,238,22078,6,0,P|386:243|337:215,1,75,2|2,0:0|0:0,0:0:0:0:
300,160,22411,1,8,0:0:0:0:
300,160,22744,1,2,0:0:0:0:
248,224,22911,2,0,P|214:238|177:234,1,75,2|8,0:0|0:0,0:0:0:0:
112,184,23244,6,0,L|56:128,1,75,2|0,0:0|0:0,0:0:0:0:
60,24,23578,2,0,L|125:60,1,75,2|8,0:0|0:0,0:0:0:0:
172,128,23911,1,2,0:0:0:0:
220,60,24078,2,0,P|268:40|320:40,2,75,2|2|8,0:0|0:0|0:0,0:0:0:0:
384,66,24744,6,0,P|426:69|461:95,1,75,6|0,0:0|0:0,0:0:0:0:
397,150,25078,1,10,0:0:0:0:
240,196,25411,2,0,P|272:229|324:239,2,75,2|2|8,0:0|0:0|0:0,0:0:0:0:
268,88,25911,1,0,0:0:0:0:
256,192,25994,12,0,27078,0:0:0:0:
312,312,27411,6,0,P|384:268|404:204,1,150,6|8,0:0|0:0,0:0:0:0:
364,136,27911,1,0,0:0:0:0:
296,88,28078,2,0,P|325:60|372:54,2,75,2|2|8,0:0|0:0|0:0,0:0:0:0:
284,172,28578,6,0,P|240:152|217:120,1,75,2|0,0:0|0:0,0:0:0:0:
220,48,28911,1,2,0:0:0:0:
144,84,29078,1,8,0:0:0:0:
136,164,29244,1,0,0:0:0:0:
196,220,29411,2,0,P|161:242|115:242,2,75,2|2|8,0:0|0:0|0:0,0:0:0:0:
32,188,30078,6,0,P|17:266|66:342,1,150,2|8,0:0|0:0,0:0:0:0:
120,364,30578,1,0,0:0:0:0:
184,312,30744,2,0,P|223:300|272:316,1,75,2|2,0:0|0:0,0:0:0:0:
328,348,31078,1,8,0:0:0:0:
412,348,31244,6,0,P|436:316|436:256,1,75,2|0,0:0|0:0,0:0:0:0:
404,208,31578,1,2,0:0:0:0:
460,148,31744,1,8,0:0:0:0:
408,84,31911,2,0,P|340:60|260:68,1,150,2|2,0:0|0:0,0:0:0:0:
204,124,32411,1,8,0:0:0:0:
328,236,32744,6,0,P|260:260|180:252,1,150,6|8,0:0|0:0,0:0:0:0:
120,200,33244,1,0,0:0:0:0:
128,116,33411,2,0,P|87:123|49:156,2,75,2|2|10,0:0|0:0|0:0,0:0:0:0:
192,172,33911,6,0,P|211:127|207:89,1,75,2|0,0:0|0:0,0:0:0:0:
156,40,34244,1,2,0:0:0:0:
236,16,34411,1,8,0:0:0:0:
296,72,34578,1,0,0:0:0:0:
288,152,34744,2,0,P|335:142|361:117,1,75,2|2,0:0|0:0,0:0:0:0:
372,44,35078,1,8,0:0:0:0:
388,208,35411,6,0,P|300:243|233:235,1,150,6|8,0:0|0:0,0:0:0:0:
192,172,35911,1,0,0:0:0:0:
116,200,36078,1,2,0:0:0:0:
128,116,36244,2,0,P|167:90|209:88,1,75,2|8,0:0|0:0,0:0:0:0:
264,132,36578,6,0,P|300:120|332:96,1,75,2|0,0:0|0:0,0:0:0:0:
368,24,36911,1,2,0:0:0:0:
448,44,37078,1,8,0:0:0:0:
432,124,37244,2,0,L|464:280,1,150,2|2,0:0|0:0,0:0:0:0:
508,339,37744,1,8,0:0:0:0:
360,264,38078,6,0,P|292:240|212:268,1,150,6|8,0:0|0:0,0:0:0:0:
188,336,38578,1,0,0:0:0:0:
132,276,38744,2,0,P|135:233|159:197,1,75,2|2,0:0|0:0,0:0:0:0:
224,168,39078,1,8,0:0:0:0:
156,120,39244,6,0,L|59:94,1,75,2|0,0:0|0:0,0:0:0:0:
8,132,39578,1,2,0:0:0:0:
12,52,39744,2,0,P|42:24|86:15,1,75,8|0,0:0|0:0,0:0:0:0:
156,36,40078,2,0,B|200:60|256:48|204:40|256:28|308:48,1,150,2|8,0:0|0:0,0:0:0:0:
392,188,40744,6,0,P|320:216|244:172,1,150,2|8,0:0|0:0,0:0:0:0:
324,116,41244,2,0,P|396:88|472:132,1,150,2|2,0:0|0:0,0:0:0:0:
472,196,41744,1,8,0:0:0:0:
432,268,41911,6,0,B|384:312|384:312|276:320,1,150,2|2,0:0|0:0,0:0:0:0:
236,264,42411,1,8,0:0:0:0:
164,303,42578,2,0,P|127:299|96:277,1,75,2|0,0:0|0:0,0:0:0:0:
92,196,42911,2,0,P|46:213|23:240,2,75,2|8|0,0:0|0:0|0:0,0:0:0:0:
156,144,43411,6,0,B|208:168|244:144|216:144|256:124|300:140,1,150,6|8,0:0|0:0,0:0:0:0:
368,184,43911,1,0,0:0:0:0:
448,160,44078,2,0,P|468:120|460:72,1,75,2|2,0:0|0:0,0:0:0:0:
424,20,44411,1,8,0:0:0:0:
352,56,44578,6,0,P|304:64|260:56,1,75,2|0,0:0|0:0,0:0:0:0:
208,20,44911,1,2,0:0:0:0:
140,68,45078,1,8,0:0:0:0:
116,148,45244,2,0,P|148:228|208:240,1,150,2|2,0:0|0:0,0:0:0:0:
280,208,45744,1,8,0:0:0:0:
320,136,45911,1,0,0:0:0:0:
404,140,46078,6,0,P|412:232|376:272,1,150,2|8,0:0|0:0,0:0:0:0:
300,300,46578,2,0,L|208:312,1,75,2|0,0:0|0:0,0:0:0:0:
152,344,46911,1,2,0:0:0:0:
100,280,47078,1,8,0:0:0:0:
20,304,47244,1,0,0:0:0:0:
48,204,47411,6,0,P|88:187|136:196,1,75,2|0,0:0|0:0,0:0:0:0:
259,217,47744,2,0,P|221:239|172:237,1,75,8|0,0:0|0:0,0:0:0:0:
80,108,48078,2,0,P|158:108|207:170,1,150,2|8,0:0|0:0,0:0:0:0:
384,44,48744,5,6,0:0:0:0:
296,56,48911,1,2,0:0:0:0:
364,128,49078,2,0,L|449:150,1,75,8|0,0:0|0:0,0:0:0:0:
484,216,49411,1,2,0:0:0:0:
428,272,49578,1,2,0:0:0:0:
428,272,49911,6,0,L|280:320,1,150,2|2,0:0|0:0,0:0:0:0:
204,332,50411,1,8,0:0:0:0:
140,280,50578,1,0,0:0:0:0:
172,204,50744,2,0,P|212:239|220:288,1,75,2|0,0:0|0:0,0:0:0:0:
84,227,51078,2,0,P|84:182|103:145,1,75,8|0,0:0|0:0,0:0:0:0:
165,75,51411,6,0,P|89:49|15:85,2,150,6|8|2,0:0|0:0|0:0,0:0:0:0:
224,136,52244,1,2,0:0:0:0:
296,100,52411,1,8,0:0:0:0:
368,60,52578,6,0,P|408:80|440:124,1,75,2|0,0:0|0:0,0:0:0:0:
388,188,52911,2,0,L|305:202,1,75,2|8,0:0|0:0,0:0:0:0:
236,180,53244,1,2,0:0:0:0:
252,284,53411,2,0,P|282:299|336:303,1,75,2|2,0:0|0:0,0:0:0:0:
396,268,53744,1,8,0:0:0:0:
240,372,54078,6,0,P|177:332|167:259,2,150,2|8|2,0:0|0:0|0:0,0:0:0:0:
324,376,54911,1,2,0:0:0:0:
400,344,55078,1,8,0:0:0:0:
480,336,55244,2,0,B|470:275|410:249|364:273|364:273|328:252|316:196|388:152,1,281.250010728836,6|0,0:0|0:0,0:0:0:0:
447,156,56744,6,0,P|439:88|362:42,1,150,6|8,0:0|0:0,0:0:0:0:
299,73,57244,1,0,0:0:0:0:
244,136,57411,2,0,P|196:144|156:128,1,75,2|2,0:0|0:0,0:0:0:0:
116,76,57744,1,8,0:0:0:0:
116,76,57911,6,0,P|120:148|96:224,1,150,2|2,0:0|0:0,0:0:0:0:
28,268,58411,1,8,0:0:0:0:
101,306,58578,2,0,P|135:297|171:263,1,75,2|0,0:0|0:0,0:0:0:0:
200,196,58911,1,2,0:0:0:0:
272,236,59078,2,0,L|362:251,1,75,8|0,0:0|0:0,0:0:0:0:
412,200,59411,5,2,0:0:0:0:
435,279,59578,1,2,0:0:0:0:
376,337,59744,1,8,0:0:0:0:
294,325,59911,2,0,L|200:308,1,75,6|0,0:0|0:0,0:0:0:0:
180,240,60244,1,2,0:0:0:0:
132,308,60411,1,8,0:0:0:0:
95,208,60578,6,0,P|146:155|219:159,1,150,6|2,0:0|0:0,0:0:0:0:
268,228,61078,2,0,P|299:186|301:145,1,75,8|0,0:0|0:0,0:0:0:0:
268,88,61411,1,6,0:0:0:0:
268,88,61578,1,2,0:0:0:0:
352,84,61744,2,0,P|378:109|388:145,1,75,12|0,0:0|0:0,0:0:0:0:
388,228,62078,5,6,0:0:0:0:
460,188,62244,2,0,P|470:143|462:108,1,75,2|8,0:0|0:0,0:0:0:0:
424,40,62578,2,0,B|372:40|372:40|316:24|316:24|268:24,1,150,6|2,0:0|0:0,0:0:0:0:
208,72,63078,1,8,0:0:0:0:
272,124,63244,6,0,P|224:200|156:212,1,150,2|2,0:0|0:0,0:0:0:0:
88,204,63744,2,0,P|56:248|56:288,1,75,8|0,0:0|0:0,0:0:0:0:
108,332,64078,2,0,P|144:334|184:320,2,75,6|2|8,0:0|0:0|0:0,0:0:0:0:
256,264,64744,5,6,0:0:0:0:
312,324,64911,1,2,0:0:0:0:
312,324,65078,2,0,P|364:313|395:292,1,75,8|0,0:0|0:0,0:0:0:0:
444,248,65411,1,2,0:0:0:0:
472,172,65578,1,2,0:0:0:0:
432,100,65744,1,8,0:0:0:0:
356,132,65911,6,0,P|312:120|276:92,1,75,6|0,0:0|0:0,0:0:0:0:
248,32,66244,1,6,0:0:0:0:
164,40,66411,2,0,P|136:76|128:116,1,75,8|0,0:0|0:0,0:0:0:0:
164,180,66744,1,6,0:0:0:0:
164,180,66911,1,2,0:0:0:0:
88,212,67078,2,0,L|12:212,1,75,12|0,0:0|0:0,0:0:0:0:
76,288,67411,6,0,L|168:288,1,75,6|0,0:0|0:0,0:0:0:0:
220,244,67744,1,8,0:0:0:0:
228,327,67911,2,0,P|204:356|170:371,2,75,2|0|2,0:0|0:0|0:0,0:0:0:0:
220,244,68411,1,8,0:0:0:0:
148,204,68578,6,0,P|197:164|278:185,1,150,6|2,0:0|0:0,0:0:0:0:
300,260,69078,1,8,0:0:0:0:
372,304,69244,2,0,L|454:289,1,75,2|0,0:0|0:0,0:0:0:0:
496,224,69578,1,2,0:0:0:0:
432,172,69744,2,0,L|358:158,1,75,8|0,0:0|0:0,0:0:0:0:
275,183,70078,5,2,0:0:0:0:
288,104,70244,1,2,0:0:0:0:
364,72,70411,1,8,0:0:0:0:
280,24,70578,2,0,P|237:43|216:69,1,75,6|0,0:0|0:0,0:0:0:0:
200,144,70911,1,2,0:0:0:0:
144,84,71078,1,8,0:0:0:0:
102,179,71244,6,0,P|143:232|228:245,1,150,6|2,0:0|0:0,0:0:0:0:
288,200,71744,2,0,L|367:193,1,75,8|0,0:0|0:0,0:0:0:0:
436,232,72078,1,6,0:0:0:0:
436,232,72244,1,0,0:0:0:0:
440,148,72411,2,0,P|409:115|372:104,1,75,12|0,0:0|0:0,0:0:0:0:
300,112,72744,5,6,0:0:0:0:
220,123,72911,2,0,P|182:125|149:109,1,75,2|8,0:0|0:0,0:0:0:0:
136,28,73244,2,0,P|79:69|77:145,1,150,6|2,0:0|0:0,0:0:0:0:
144,192,73744,1,8,0:0:0:0:
204,275,73911,6,0,P|170:290|123:290,1,75,2|0,0:0|0:0,0:0:0:0:
144,192,74244,1,2,0:0:0:0:
236,192,74411,2,0,L|308:228,1,75,8|0,0:0|0:0,0:0:0:0:
432,168,74744,1,6,0:0:0:0:
432,168,74911,1,2,0:0:0:0:
348,80,75078,2,0,L|268:86,1,75,12|0,0:0|0:0,0:0:0:0:
176,44,75411,5,2,0:0:0:0:
160,124,75578,1,2,0:0:0:0:
216,184,75744,2,0,L|290:178,1,75,8|0,0:0|0:0,0:0:0:0:
368,212,76078,1,2,0:0:0:0:
328,284,76244,2,0,L|253:289,1,75,2|8,0:0|0:0,0:0:0:0:
172,268,76578,1,8,0:0:0:0:
162,268,76911,5,8,0:0:0:0:
186,348,77078,1,8,0:0:0:0:
196,348,77411,5,8,0:0:0:0:
116,336,77578,1,2,0:0:0:0:
84,260,77744,2,0,P|96:224|128:190,1,75,2|0,0:0|0:0,0:0:0:0:
204,184,78078,6,0,P|204:136|180:96,2,75,2|0|8,0:0|0:0|0:0,0:0:0:0:
120,44,78744,2,0,P|153:19|207:14,1,75,2|2,0:0|0:0,0:0:0:0:
264,40,79078,1,8,0:0:0:0:
288,120,79244,6,0,L|309:201,1,75,2|0,0:0|0:0,0:0:0:0:
376,112,79578,2,0,L|395:39,1,75,2|8,0:0|0:0,0:0:0:0:
476,56,79911,1,0,0:0:0:0:
464,140,80078,2,0,L|429:216,1,75,2|2,0:0|0:0,0:0:0:0:
360,248,80411,2,0,P|372:288|404:316,1,75,8|0,0:0|0:0,0:0:0:0:
460,364,80744,6,0,P|384:344|308:364,1,150,2|8,0:0|0:0,0:0:0:0:
176,268,81411,1,2,0:0:0:0:
104,308,81578,2,0,P|76:272|72:224,1,75,2|8,0:0|0:0,0:0:0:0:
117,147,81911,6,0,L|204:162,1,75,2|0,0:0|0:0,0:0:0:0:
284,236,82244,2,0,L|197:251,1,75,2|0,0:0|0:0,0:0:0:0:
268,144,82578,2,0,L|354:159,1,75,8|0,0:0|0:0,0:0:0:0:
400,244,82911,2,0,P|446:177|425:96,1,150,8|0,0:0|0:0,0:0:0:0:
376,56,83411,6,0,P|407:34|444:30,2,75,2|0|8,0:0|0:0|0:0,0:0:0:0:
268,184,84078,1,2,0:0:0:0:
228,112,84244,1,2,0:0:0:0:
148,92,84411,1,8,0:0:0:0:
92,180,84578,6,0,P|129:206|169:212,1,75,2|0,0:0|0:0,0:0:0:0:
252,260,84911,2,0,P|214:286|174:292,1,75,2|8,0:0|0:0,0:0:0:0:
104,284,85244,1,0,0:0:0:0:
152,368,85411,2,0,P|196:376|237:357,1,75,2|2,0:0|0:0,0:0:0:0:
296,328,85744,1,8,0:0:0:0:
428,228,86078,6,0,P|392:212|344:216,1,75,2|0,0:0|0:0,0:0:0:0:
280,240,86411,1,8,0:0:0:0:
280,240,86744,1,2,0:0:0:0:
292,160,86910,1,2,0:0:0:0:
368,128,87077,1,8,0:0:0:0:
448,144,87244,1,4,0:0:0:0:
256,192,87411,12,0,92578,0:0:0:0:
