osu file format v14

[General]
AudioFilename: C81PrimarySweets WeekendPV.mp3
AudioLeadIn: 0
PreviewTime: 56411
Countdown: 0
SampleSet: Soft
StackLeniency: 0.7
Mode: 0
LetterboxInBreaks: 0
WidescreenStoryboard: 0

[Editor]
Bookmarks: 16714,87214,88714,139381
DistanceSpacing: 0.5
BeatDivisor: 4
GridSize: 4
TimelineZoom: 1.4

[Metadata]
Title:Sweets Weekend
TitleUnicode:Sweets Weekend
Artist:Primary
ArtistUnicode:Primary
Creator:CaffeAmericano
Version:Extra
Source:
Tags:ゆいこんぬ Yuikonnu Yuiko Sweet's Holiday ゆいこ meis clauson c81
BeatmapID:832691
BeatmapSetID:380545

[Difficulty]
HPDrainRate:6.5
CircleSize:4
OverallDifficulty:8
ApproachRate:9.1
SliderMultiplier:2
SliderTickRate:1

[Events]
//Background and Video events
0,0,"sweets.jpg",0,0
//Break Periods
//Storyboard Layer 0 (Background)
//Storyboard Layer 1 (Fail)
//Storyboard Layer 2 (Pass)
//Storyboard Layer 3 (Foreground)
//Storyboard Sound Samples

[TimingPoints]
745,333.333333333333,4,2,5,30,1,0
745,-125,4,2,5,30,0,0
2078,-125,4,2,5,40,0,0
3411,-125,4,2,5,50,0,0
4744,-125,4,2,5,60,0,0
6078,-90.9090909090909,4,2,4,80,0,0
9911,-90.9090909090909,4,2,5,80,0,0
11411,-90.9090909090909,4,2,4,80,0,0
15244,-90.9090909090909,4,2,5,80,0,0
16744,-100,4,2,1,70,0,0
26744,-200,4,2,1,60,0,0
27328,-200,4,2,1,20,0,0
27411,-100,4,2,4,80,0,0
29994,-100,4,2,4,20,0,0
30078,-100,4,2,4,80,0,0
30328,-100,4,2,4,20,0,0
30411,-100,4,2,4,80,0,0
31494,-100,4,2,4,20,0,0
31578,-100,4,2,4,80,0,0
31828,-100,4,2,4,20,0,0
31911,-100,4,2,4,80,0,0
32994,-100,4,2,4,20,0,0
33078,-100,4,2,4,80,0,0
35328,-100,4,2,4,20,0,0
35411,-100,4,2,4,80,0,0
35661,-100,4,2,4,20,0,0
35744,-100,4,2,4,80,0,0
36828,-100,4,2,4,20,0,0
36911,-100,4,2,4,80,0,0
37161,-100,4,2,4,20,0,0
37244,-100,4,2,4,80,0,0
40994,-100,4,2,4,20,0,0
41078,-100,4,2,4,80,0,0
51411,-100,4,2,1,80,0,0
55244,-181.818181818182,4,2,1,80,0,0
56744,-90.9090909090909,4,2,1,80,0,1
63994,-90.9090909090909,4,2,1,20,0,1
64078,-90.9090909090909,4,2,1,80,0,1
65911,-90.9090909090909,4,2,5,80,0,1
66744,-90.9090909090909,4,2,1,80,0,1
66994,-90.9090909090909,4,2,1,20,0,1
67078,-76.9230769230769,4,2,1,80,0,0
67328,-76.9230769230769,4,2,1,20,0,0
67411,-66.6666666666667,4,2,1,80,0,1
67661,-66.6666666666667,4,2,1,20,0,1
67744,-90.9090909090909,4,2,1,80,0,1
78078,-100,4,2,1,60,0,0
87411,-100,4,2,1,30,0,0

[Colours]
Combo1 : 240,38,124
Combo2 : 255,228,168
Combo3 : 213,108,213
Combo4 : 245,175,71

[HitObjects]
236,48,745,5,4,0:0:0:0:
236,48,911,1,0,0:0:0:0:
184,120,1078,1,0,0:0:0:0:
184,120,1244,1,0,0:0:0:0:
196,208,1411,2,0,P|188:256|148:288,1,80
92,324,1744,2,0,P|124:356|168:368,1,80
104,214,2078,5,4,0:0:0:0:
104,214,2244,1,0,0:0:0:0:
167,278,2411,1,0,0:0:0:0:
167,278,2578,1,0,0:0:0:0:
256,284,2745,2,0,P|267:246|259:208,1,80
292,124,3078,2,0,P|330:142|398:136,1,80
424,72,3411,5,4,0:0:0:0:
456,152,3578,1,0,0:0:0:0:
400,220,3744,1,0,0:0:0:0:
476,264,3911,1,0,0:0:0:0:
328,256,4078,1,0,0:0:0:0:
400,304,4244,1,0,0:0:0:0:
324,348,4411,1,0,0:0:0:0:
252,300,4578,1,0,0:0:0:0:
336,160,4744,6,0,L|322:238,1,80,4|0,0:0|0:0,0:0:0:0:
172,276,5078,2,0,L|158:197,1,80
40,64,5411,5,8,0:0:0:0:
136,184,5578,1,2,0:0:0:0:
264,92,5744,1,8,0:0:0:0:
264,92,5828,1,2,0:0:0:0:
264,92,5911,1,2,0:0:0:0:
112,108,6078,6,0,P|153:56|208:48,1,110.000003356934,6|0,0:0|0:0,0:0:0:0:
356,112,6411,1,8,0:0:0:0:
356,112,6744,5,2,0:0:0:0:
188,268,6911,1,2,0:0:0:0:
216,156,7078,1,8,0:0:0:0:
370,255,7244,6,0,L|263:282,1,110.000003356934,2|0,0:0|0:0,0:0:0:0:
88,161,7578,2,0,L|197:133,1,110.000003356934,2|8,0:0|0:0,0:0:0:0:
360,288,7911,2,0,L|253:315,1,110.000003356934,2|0,0:0|0:0,0:0:0:0:
96,348,8244,1,2,0:0:0:0:
268,204,8411,1,8,0:0:0:0:
264,348,8578,1,2,0:0:0:0:
104,272,8744,6,0,P|132:224|188:212,1,110.000003356934,6|0,0:0|0:0,0:0:0:0:
380,316,9078,1,8,0:0:0:0:
184,292,9244,1,0,0:0:0:0:
332,128,9411,1,2,0:0:0:0:
264,348,9578,1,2,0:0:0:0:
232,184,9744,1,8,0:0:0:0:
432,208,9911,6,0,L|403:99,1,110.000003356934,6|0,0:0|0:0,0:0:0:0:
232,184,10244,2,0,L|203:290,1,110.000003356934,6|8,0:0|0:0,0:0:0:0:
324,160,10578,2,0,P|245:90|145:149,2,220.000006713867,6|12|0,0:0|0:0|0:0,0:0:0:0:
180,332,11411,6,0,P|124:340|60:348,1,110.000003356934,6|0,0:0|0:0,0:0:0:0:
16,152,11744,2,0,L|148:168,1,110.000003356934,8|0,0:0|0:0,0:0:0:0:
304,320,12078,1,2,0:0:0:0:
116,240,12244,1,2,0:0:0:0:
288,220,12411,1,8,0:0:0:0:
148,75,12578,6,0,P|56:103|48:219,2,220.000006713867,2|8|2,0:0|0:0|0:0,0:0:0:0:
268,232,13411,1,2,0:0:0:0:
125,165,13578,1,2,0:0:0:0:
336,168,13744,1,8,0:0:0:0:
256,320,13911,1,0,0:0:0:0:
228,84,14078,6,0,P|277:59|352:68,1,110.000003356934,6|0,0:0|0:0,0:0:0:0:
464,240,14411,1,8,0:0:0:0:
301,163,14578,1,0,0:0:0:0:
464,128,14744,1,2,0:0:0:0:
348,308,14911,2,0,P|293:309|228:269,1,110.000003356934,2|8,0:0|0:0,0:0:0:0:
148,128,15244,5,6,0:0:0:0:
135,111,15578,1,6,0:0:0:0:
123,95,15911,1,6,0:0:0:0:
111,79,16244,5,6,0:0:0:0:
264,136,16411,1,8,0:0:0:0:
63,167,16578,1,2,0:0:0:0:
241,42,16744,6,0,P|293:43|336:75,1,100,2|0,0:0|0:0,0:0:0:0:
424,200,17078,2,0,P|373:185|340:143,1,100,8|0,0:0|0:0,0:0:0:0:
426,104,17411,1,2,0:0:0:0:
348,224,17578,2,0,L|240:236,1,100,2|8,0:0|0:0,0:0:0:0:
132,243,17911,5,2,0:0:0:0:
132,243,18244,1,2,0:0:0:0:
256,134,18411,1,8,0:0:0:0:
288,296,18577,1,0,0:0:0:0:
168,156,18744,1,2,0:0:0:0:
312,208,18911,1,0,0:0:0:0:
200,300,19077,1,8,0:0:0:0:
276,44,19411,6,0,P|327:53|369:87,1,100,6|0,0:0|0:0,0:0:0:0:
380,248,19744,2,0,P|329:234|290:196,1,100,8|0,0:0|0:0,0:0:0:0:
416,160,20078,1,2,0:0:0:0:
392,336,20244,1,2,0:0:0:0:
464,232,20411,1,8,0:0:0:0:
312,316,20578,6,0,L|200:336,1,100,2|0,0:0|0:0,0:0:0:0:
308,128,20911,2,0,L|420:148,1,100,2|8,0:0|0:0,0:0:0:0:
192,260,21244,2,0,L|172:148,1,100,6|0,0:0|0:0,0:0:0:0:
464,232,21577,2,0,B|452:300|452:300|412:340,2,100,6|10|0,0:0|0:0|0:0,0:0:0:0:
268,216,22078,5,0,0:0:0:0:
312,344,22244,1,2,0:0:0:0:
386,177,22411,2,0,P|366:133|324:108,1,100,8|0,0:0|0:0,0:0:0:0:
95,123,22744,2,0,P|123:163|171:175,2,100,2|0|8,0:0|0:0|0:0,0:0:0:0:
256,52,23244,5,2,0:0:0:0:
256,52,23578,1,2,0:0:0:0:
340,208,23744,1,8,0:0:0:0:
184,172,23911,1,0,0:0:0:0:
400,80,24078,1,2,0:0:0:0:
288,136,24244,1,0,0:0:0:0:
168,76,24411,1,8,0:0:0:0:
364,304,24744,6,0,P|416:304|464:272,1,100,6|0,0:0|0:0,0:0:0:0:
288,136,25078,2,0,P|238:135|195:159,1,100,8|0,0:0|0:0,0:0:0:0:
72,316,25411,1,2,0:0:0:0:
264,244,25578,1,0,0:0:0:0:
94,158,25744,1,8,0:0:0:0:
204,336,25911,1,6,0:0:0:0:
204,336,26244,5,0,0:0:0:0:
264,244,26411,1,0,0:0:0:0:
204,336,26578,1,0,0:0:0:0:
48,308,26744,6,0,P|38:228|100:156,1,175
128,160,27411,6,0,P|200:144|232:68,1,150,6|0,0:0|0:0,0:0:0:0:
142,69,27744,1,8,0:0:0:0:
160,236,27911,1,0,0:0:0:0:
360,120,28078,1,2,0:0:0:0:
208,160,28244,1,2,0:0:0:0:
332,252,28411,1,8,0:0:0:0:
440,120,28578,6,0,L|336:104,1,100,2|0,0:0|0:0,0:0:0:0:
216,284,28911,2,0,L|314:268,1,100,2|8,0:0|0:0,0:0:0:0:
208,160,29244,1,2,0:0:0:0:
116,240,29411,1,2,0:0:0:0:
144,356,29578,1,2,0:0:0:0:
390,356,29744,2,0,P|412:258|364:203,1,150,8|0,0:0|0:0,0:0:0:0:
348,200,30078,6,0,P|326:102|374:47,1,150,2|0,0:0|0:0,0:0:0:0:
423,133,30411,1,8,0:0:0:0:
314,287,30578,1,0,0:0:0:0:
408,140,30744,1,2,0:0:0:0:
188,160,30911,1,2,0:0:0:0:
348,200,31078,1,8,0:0:0:0:
172,244,31244,6,0,B|141:356|141:356|180:337,1,150,2|0,0:0|0:0,0:0:0:0:
236,300,31578,2,0,L|274:154,1,150,8|0,0:0|0:0,0:0:0:0:
208,108,31911,2,0,P|295:77|356:153,1,200,2|8,0:0|0:0,0:0:0:0:
172,244,32411,1,8,0:0:0:0:
48,112,32578,1,0,0:0:0:0:
284,76,32744,6,0,P|280:150|211:191,1,150,6|0,0:0|0:0,0:0:0:0:
208,108,33078,1,8,0:0:0:0:
376,128,33244,1,0,0:0:0:0:
172,244,33411,1,2,0:0:0:0:
134,66,33578,2,0,P|167:33|223:24,1,100,2|8,0:0|0:0,0:0:0:0:
396,256,33911,6,0,L|289:274,1,100,2|0,0:0|0:0,0:0:0:0:
208,108,34244,2,0,L|306:125,1,100,2|8,0:0|0:0,0:0:0:0:
180,304,34578,2,0,L|162:197,1,100,2|2,0:0|0:0,0:0:0:0:
316,140,34911,1,2,0:0:0:0:
247,345,35078,2,0,P|191:381|114:349,1,150,8|0,0:0|0:0,0:0:0:0:
84,320,35411,6,0,L|117:133,1,150,6|0,0:0|0:0,0:0:0:0:
92,132,35744,1,8,0:0:0:0:
292,56,35911,1,0,0:0:0:0:
208,224,36078,1,2,0:0:0:0:
396,256,36244,2,0,P|364:296|308:312,1,100,2|8,0:0|0:0,0:0:0:0:
132,250,36578,6,0,B|132:138|132:138|164:178,1,150,2|0,0:0|0:0,0:0:0:0:
208,224,36911,2,0,B|208:304|208:304|144:336,1,150,8|0,0:0|0:0,0:0:0:0:
60,304,37244,2,0,B|60:148|60:148|24:184,1,200,2|2,0:0|0:0,0:0:0:0:
28,179,37744,1,8,0:0:0:0:
432,304,38078,6,0,P|326:335|235:301,1,200,6|8,0:0|0:0,0:0:0:0:
392,128,38578,1,0,0:0:0:0:
392,128,38744,2,0,P|419:177|432:224,1,100,2|0,0:0|0:0,0:0:0:0:
244,307,39078,1,8,0:0:0:0:
140,108,39244,6,0,P|207:47|288:105,2,200,2|8|2,0:0|0:0|0:0,0:0:0:0:
332,304,40078,1,2,0:0:0:0:
215,124,40244,1,0,0:0:0:0:
156,292,40411,2,0,P|232:312|288:304,1,100,8|0,0:0|0:0,0:0:0:0:
340,136,40744,6,0,B|280:240|280:240|324:224,1,150,2|0,0:0|0:0,0:0:0:0:
308,229,41078,1,8,0:0:0:0:
155,192,41244,2,0,P|70:152|72:57,1,200,2|2,0:0|0:0,0:0:0:0:
160,8,41744,1,8,0:0:0:0:
296,72,41911,1,0,0:0:0:0:
144,106,42078,5,2,0:0:0:0:
296,72,42244,1,2,0:0:0:0:
160,8,42411,1,8,0:0:0:0:
278,208,42578,2,0,P|226:292|116:313,1,200,2|2,0:0|0:0,0:0:0:0:
155,192,43078,1,8,0:0:0:0:
155,192,43244,1,0,0:0:0:0:
352,136,43411,6,0,B|408:136|408:136|468:176,1,100,6|0,0:0|0:0,0:0:0:0:
336,304,43744,2,0,B|280:304|280:304|220:264,1,100,8|0,0:0|0:0,0:0:0:0:
204,112,44078,1,2,0:0:0:0:
380,208,44244,1,0,0:0:0:0:
208,288,44411,1,8,0:0:0:0:
96,80,44578,6,0,B|70:176|70:176|69:287,1,200,2|2,0:0|0:0,0:0:0:0:
176,128,45078,2,0,B|159:190|159:190|158:232,1,100,8|0,0:0|0:0,0:0:0:0:
292,256,45411,1,2,0:0:0:0:
360,92,45578,1,2,0:0:0:0:
240,176,45744,1,8,0:0:0:0:
404,248,45911,1,2,0:0:0:0:
236,344,46078,6,0,B|76:344|76:344|116:308,1,200,2|8,0:0|0:0,0:0:0:0:
332,72,46578,2,0,B|492:72|492:72|452:108,1,200,2|2,0:0|0:0,0:0:0:0:
296,244,47078,1,8,0:0:0:0:
400,148,47244,1,2,0:0:0:0:
344,344,47411,6,0,L|238:368,1,100,2|0,0:0|0:0,0:0:0:0:
128,168,47744,2,0,L|233:192,1,100,8|0,0:0|0:0,0:0:0:0:
44,247,48078,2,0,P|12:166|69:69,1,200,2|8,0:0|0:0,0:0:0:0:
216,88,48578,1,0,0:0:0:0:
152,296,48744,5,6,0:0:0:0:
240,108,48911,1,0,0:0:0:0:
124,292,49078,1,8,0:0:0:0:
360,164,49244,1,2,0:0:0:0:
136,200,49411,1,2,0:0:0:0:
352,80,49578,1,0,0:0:0:0:
312,272,49744,1,8,0:0:0:0:
112,100,49911,6,0,P|176:56|276:108,1,200,2|2,0:0|0:0,0:0:0:0:
144,264,50411,1,8,0:0:0:0:
192,149,50578,1,2,0:0:0:0:
320,284,50744,2,0,P|280:328|236:348,1,100,2|0,0:0|0:0,0:0:0:0:
192,149,51078,2,0,P|232:105|276:85,1,100,8|0,0:0|0:0,0:0:0:0:
394,288,51411,6,0,P|309:358|249:302,2,200,6|8|2,0:0|0:0|0:0,0:0:0:0:
368,164,52244,1,2,0:0:0:0:
320,284,52411,1,8,0:0:0:0:
468,212,52578,6,0,L|449:109,1,100,2|0,0:0|0:0,0:0:0:0:
260,188,52911,2,0,L|242:286,1,100,2|8,0:0|0:0,0:0:0:0:
368,164,53244,1,2,0:0:0:0:
236,68,53411,2,0,L|137:85,1,100,2|0,0:0|0:0,0:0:0:0:
24,104,53744,1,8,0:0:0:0:
171,270,54078,6,0,B|243:246|267:166|267:166|195:146,2,200,2|8|2,0:0|0:0|0:0,0:0:0:0:
103,166,54911,1,2,0:0:0:0:
332,216,55078,1,8,0:0:0:0:
96,328,55244,6,0,B|196:244|256:388|364:304,1,275.000008392334,2|0,0:0|0:0,0:0:0:0:
364,64,56744,6,0,P|308:48|252:68,1,110.000003356934,6|0,0:0|0:0,0:0:0:0:
128,236,57078,2,0,P|184:252|240:232,1,110.000003356934,8|0,0:0|0:0,0:0:0:0:
140,36,57411,1,2,0:0:0:0:
181,162,57578,1,2,0:0:0:0:
312,146,57744,1,8,0:0:0:0:
168,280,57911,6,0,L|36:260,1,110.000003356934,2|0,0:0|0:0,0:0:0:0:
32,88,58244,1,2,0:0:0:0:
181,162,58411,1,8,0:0:0:0:
40,184,58578,1,2,0:0:0:0:
240,36,58744,1,2,0:0:0:0:
312,176,58911,1,0,0:0:0:0:
112,132,59078,2,0,L|223:114,1,110.000003356934,8|0,0:0|0:0,0:0:0:0:
404,228,59411,5,2,0:0:0:0:
181,162,59578,1,2,0:0:0:0:
308,72,59744,1,8,0:0:0:0:
216,280,59911,2,0,B|40:280|40:280|96:248,1,220.000006713867,6|2,0:0|0:0,0:0:0:0:
336,144,60411,1,8,0:0:0:0:
308,312,60578,6,0,B|232:356|232:356|72:356,1,220.000006713867,6|2,0:0|0:0,0:0:0:0:
192,204,61078,2,0,B|256:204|256:204|304:232,1,110.000003356934,8|0,0:0|0:0,0:0:0:0:
412,344,61411,1,6,0:0:0:0:
216,280,61578,1,2,0:0:0:0:
416,136,61744,1,12,0:0:0:0:
344,244,61911,1,2,0:0:0:0:
216,84,62078,6,0,P|252:35|309:17,1,110.000003356934,6|0,0:0|0:0,0:0:0:0:
460,28,62411,1,8,0:0:0:0:
338,164,62578,2,0,B|310:156|304:112|304:112|273:182|212:189|159:159,1,220.000006713867,6|2,0:0|0:0,0:0:0:0:
328,36,63078,1,8,0:0:0:0:
420,240,63244,6,0,P|404:300|340:328,1,110.000003356934,2|0,0:0|0:0,0:0:0:0:
156,244,63578,1,2,0:0:0:0:
336,132,63744,2,0,B|455:132|455:132|416:168,1,165.000005035401,8|0,0:0|0:0,0:0:0:0:
348,212,64078,2,0,B|273:199|273:199|206:162|206:162|127:148,1,220.000006713867,6|8,2:0|2:0,2:0:0:0:
64,256,64578,1,0,0:0:0:0:
292,120,64744,5,6,0:0:0:0:
304,284,64911,1,2,0:0:0:0:
168,76,65078,1,8,0:0:0:0:
152,240,65244,1,0,0:0:0:0:
396,224,65411,1,2,0:0:0:0:
84,168,65578,1,2,0:0:0:0:
376,136,65744,1,8,0:0:0:0:
200,340,65911,6,0,B|41:297|41:297|16:236,2,220.000006713867,6|6|8,0:0|0:0|0:0,0:0:0:0:
379,191,66744,2,0,P|308:155|237:190,1,165.000005035401,6|0,0:0|0:0,0:0:0:0:
257,270,67078,6,0,P|171:237|171:145,1,194.999991073609,12|0,0:0|0:0,0:0:0:0:
220,79,67411,6,0,B|188:56|134:54|98:88|91:136|91:136|84:97|40:79,1,225.000008583069,6|0,0:0|0:0,0:0:0:0:
19,152,67744,1,8,0:0:0:0:
332,156,67911,2,0,P|344:96|328:40,1,110.000003356934,2|0,0:0|0:0,0:0:0:0:
236,190,68244,2,0,P|269:235|333:258,1,110.000003356934,2|8,0:0|0:0,0:0:0:0:
132,344,68578,6,0,P|78:355|25:343,1,110.000003356934,6|0,0:0|0:0,0:0:0:0:
164,256,68911,1,2,0:0:0:0:
220,344,69078,1,8,0:0:0:0:
28,248,69244,2,0,L|59:132,1,110.000003356934,2|0,0:0|0:0,0:0:0:0:
272,56,69578,2,0,L|300:162,1,110.000003356934,2|8,0:0|0:0,0:0:0:0:
248,272,69911,1,0,0:0:0:0:
148,92,70078,5,2,0:0:0:0:
376,188,70244,1,2,0:0:0:0:
100,208,70411,1,8,0:0:0:0:
355,264,70578,2,0,P|315:357|206:373,1,220.000006713867,6|2,0:0|0:0,0:0:0:0:
288,80,71078,1,8,0:0:0:0:
248,272,71244,6,0,P|186:268|128:232,1,110.000003356934,6|0,0:0|0:0,0:0:0:0:
148,92,71578,1,2,0:0:0:0:
355,264,71744,2,0,P|337:312|281:356,1,110.000003356934,8|0,0:0|0:0,0:0:0:0:
288,160,72078,1,6,0:0:0:0:
404,336,72244,1,2,0:0:0:0:
192,196,72411,1,12,0:0:0:0:
136,356,72578,1,2,0:0:0:0:
248,272,72744,5,6,0:0:0:0:
160,220,72911,1,2,0:0:0:0:
76,168,73078,1,8,0:0:0:0:
248,84,73244,2,0,B|416:84|416:84|348:132,1,220.000006713867,6|2,0:0|0:0,0:0:0:0:
160,220,73744,1,8,0:0:0:0:
316,40,73911,6,0,L|432:40,1,110.000003356934,2|0,0:0|0:0,0:0:0:0:
332,224,74244,1,2,0:0:0:0:
456,152,74411,1,8,0:0:0:0:
52,120,74744,5,6,0:0:0:0:
180,196,74911,1,2,0:0:0:0:
44,256,75078,1,12,0:0:0:0:
188,328,75245,1,0,0:0:0:0:
52,120,75411,5,2,0:0:0:0:
280,240,75578,1,2,0:0:0:0:
84,356,75744,1,8,0:0:0:0:
172,168,75911,1,2,0:0:0:0:
312,336,76078,1,2,0:0:0:0:
44,256,76244,1,2,0:0:0:0:
244,68,76411,1,8,0:0:0:0:
200,248,76578,1,2,0:0:0:0:
436,92,76911,5,8,0:0:0:0:
436,92,77078,1,8,0:0:0:0:
368,224,77411,5,8,0:0:0:0:
228,108,77578,1,2,0:0:0:0:
184,332,77744,1,2,0:0:0:0:
48,168,77911,1,0,0:0:0:0:
196,216,78078,6,0,P|96:296|20:296,2,200,2|8|2,0:0|0:0|0:0,0:0:0:0:
196,116,78911,1,2,0:0:0:0:
112,60,79078,1,8,0:0:0:0:
40,176,79244,6,0,P|96:176|152:144,1,100,2|0,0:0|0:0,0:0:0:0:
272,40,79578,2,0,P|328:40|384:72,1,100,2|8,0:0|0:0,0:0:0:0:
392,228,79911,1,0,0:0:0:0:
304,136,80078,1,2,0:0:0:0:
456,116,80244,1,2,0:0:0:0:
284,232,80411,1,8,0:0:0:0:
264,232,80744,6,0,L|160:232,1,100,2|0,0:0|0:0,0:0:0:0:
296,72,81078,2,0,P|320:120|316:176,1,100,8|0,0:0|0:0,0:0:0:0:
192,312,81411,1,2,0:0:0:0:
225,140,81578,1,2,0:0:0:0:
320,292,81744,1,8,0:0:0:0:
144,192,81911,5,2,0:0:0:0:
128,180,82244,1,2,0:0:0:0:
112,168,82578,1,8,0:0:0:0:
96,156,82911,1,2,0:0:0:0:
225,140,83078,6,0,P|241:192|221:249,1,100,8|0,0:0|0:0,0:0:0:0:
156,80,83411,5,2,0:0:0:0:
328,160,83578,1,0,0:0:0:0:
176,292,83744,2,0,L|61:271,1,100,8|0,0:0|0:0,0:0:0:0:
230,235,84078,2,0,P|254:290|230:349,2,100,2|2|8,0:0|0:0|0:0,0:0:0:0:
80,144,84578,5,2,0:0:0:0:
80,144,84911,1,2,0:0:0:0:
240,72,85078,1,8,0:0:0:0:
230,235,85244,1,2,0:0:0:0:
156,104,85411,1,2,0:0:0:0:
243,154,85578,1,2,0:0:0:0:
148,204,85744,1,8,0:0:0:0:
436,324,86078,6,0,L|329:342,1,100,2|0,0:0|0:0,0:0:0:0:
304,204,86411,2,0,L|410:222,1,100,8|0,0:0|0:0,0:0:0:0:
472,92,86744,2,0,B|402:103|402:103|360:88,2,100,2|2|8,0:0|0:0|0:0,0:0:0:0:
304,16,87244,1,4,0:0:0:0:
256,192,87411,12,0,92578,0:0:0:0:
