osu file format v14

[General]
AudioFilename: audio.mp3
AudioLeadIn: 0
PreviewTime: 160429
Countdown: 0
SampleSet: Soft
StackLeniency: 0.7
Mode: 0
LetterboxInBreaks: 0
WidescreenStoryboard: 0

[Editor]
Bookmarks: 27029,39829,65429,78229,110229,123029,148629,161429,174229,190229,215829,228629,247829,260629
DistanceSpacing: 0.7
BeatDivisor: 8
GridSize: 16
TimelineZoom: 1

[Metadata]
Title:Saigo no Ame
TitleUnicode:最後の雨
Artist:Primary
ArtistUnicode:Primary
Creator:Lafayla
Version:Regret
Source:
Tags:From GardeN japanese pop Meis Clauson yuiko ゆいこんぬ yuikonnu
BeatmapID:2281218
BeatmapSetID:1091176

[Difficulty]
HPDrainRate:5
CircleSize:4.6
OverallDifficulty:8
ApproachRate:8
SliderMultiplier:3.59999990463257
SliderTickRate:1

[Events]
//Background and Video events
0,0,"806714fea577d6a58bd9d990ded11dd53f2c3850_s2_n1.jpg",0,0
//Break Periods
//Storyboard Layer 0 (Background)
//Storyboard Layer 1 (Fail)
//Storyboard Layer 2 (Pass)
//Storyboard Layer 3 (Foreground)
//Storyboard Layer 4 (Overlay)
//Storyboard Sound Samples

[TimingPoints]
1429,800,4,2,1,40,1,0
1429,-166.666666666667,4,2,1,40,0,0
14229,-125,4,2,1,50,0,0
27029,-142.857142857143,4,2,1,40,0,0
39829,-125,4,2,1,50,0,0
65429,-142.857142857143,4,2,1,45,0,0
77829,-125,4,2,1,55,0,0
78229,-111.111111111111,4,2,1,60,0,0
105029,-250.000000000001,4,2,1,60,0,0
105729,-250.000000000001,4,2,1,20,0,0
105929,-250.000000000001,4,2,1,60,0,0
106529,-250.000000000001,4,2,1,20,0,0
106729,-250.000000000001,4,2,1,60,0,0
107029,-250.000000000001,4,2,1,40,0,0
110229,-142.857142857143,4,2,1,40,0,0
122629,-142.857142857143,4,2,1,55,0,0
123029,-100,4,2,1,65,0,0
148629,-111.111111111111,4,2,1,60,0,0
158229,-200,4,2,1,60,0,0
160429,-200,4,2,1,65,0,0
161429,-90.9090909090909,4,2,1,70,0,1
190229,-100,4,2,1,65,0,0
212629,-142.857142857143,4,2,1,55,0,0
215829,-200,4,2,1,45,0,0
227629,-200,4,2,1,55,0,0
228229,-200,4,2,1,65,0,0
228629,-90.9090909090909,4,2,1,75,0,1
242629,-285.714285714286,4,2,1,75,0,0
243329,-285.714285714286,4,2,1,20,0,0
243529,-285.714285714286,4,2,1,75,0,0
244129,-285.714285714286,4,2,1,20,0,0
244329,-285.714285714286,4,2,1,75,0,0
244629,-285.714285714286,4,2,1,40,0,0
247029,-90.9090909090909,4,2,1,45,0,0
247829,-142.857142857143,4,2,1,40,0,0
260829,-142.857142857143,4,2,1,30,0,0
262229,-142.857142857143,4,2,1,25,0,0
263829,-142.857142857143,4,2,1,20,0,0

[Colours]
Combo1 : 250,190,230
Combo2 : 130,200,230
Combo3 : 255,230,140
Combo4 : 170,245,170

[HitObjects]
470,74,1029,5,2,0:0:0:0:
470,74,1429,6,0,P|428:118|366:127,1,107.999993843079,2|0,0:0|0:0,0:0:0:0:
280,121,2029,1,2,0:0:0:0:
280,121,2229,1,0,0:0:0:0:
128,55,2629,1,0,0:0:0:0:
128,55,2829,6,0,P|67:55|34:105,1,107.999993843079,2|0,0:0|0:0,0:0:0:0:
23,186,3429,1,0,0:0:0:0:
23,186,3629,2,0,B|83:160|79:215|139:194,1,107.999993843079,2|0,0:0|0:0,0:0:0:0:
216,178,4229,1,0,0:0:0:0:
325,156,4429,1,2,0:0:0:0:
325,156,4629,6,0,B|371:151|414:200|414:200|420:168|465:143,1,161.999990764618,2|0,0:0|0:0,0:0:0:0:
508,231,5429,1,2,0:0:0:0:
508,231,6029,1,0,0:0:0:0:
383,334,6429,5,0,0:0:0:0:
411,345,6629,1,2,0:0:0:0:
308,230,7029,6,0,P|313:193|327:158,1,53.9999969215394
412,146,7429,2,0,P|406:109|392:74,1,53.9999969215394,2|0,0:0|0:0,0:0:0:0:
328,0,7829,6,0,P|303:55|240:69,1,107.999993843079,2|0,0:0|0:0,0:0:0:0:
175,72,8429,1,2,0:0:0:0:
175,72,8629,1,0,0:0:0:0:
22,16,9029,1,0,0:0:0:0:
22,16,9229,6,0,B|37:126,1,107.999993843079,2|0,0:0|0:0,0:0:0:0:
91,204,9829,1,0,0:0:0:0:
39,285,10029,1,2,0:0:0:0:
39,285,10229,2,0,P|63:295|90:300,1,53.9999969215394
190,284,10629,1,0,0:0:0:0:
255,218,10829,1,2,0:0:0:0:
254,217,11029,6,0,B|270:179|271:135|271:135|237:95|194:92,1,161.999990764618,2|0,0:0|0:0,0:0:0:0:
109,73,11829,1,2,0:0:0:0:
109,73,12429,1,0,0:0:0:0:
280,8,12829,5,0,0:0:0:0:
311,20,13029,1,2,0:0:0:0:
396,136,13429,6,0,P|402:101|428:71,1,53.9999969215394
492,172,13829,2,0,P|485:206|460:237,1,53.9999969215394,2|0,0:0|0:0,0:0:0:0:
496,343,14229,6,0,B|460:317|424:314|424:314|399:342|354:341,1,143.999996185303,2|0,0:0|0:0,0:0:0:0:
265,324,14829,1,2,0:0:0:0:
265,324,15029,1,0,0:0:0:0:
367,188,15429,1,0,0:0:0:0:
367,188,15629,6,0,P|361:118|293:93,1,143.999996185303,2|0,0:0|0:0,0:0:0:0:
226,30,16229,1,0,0:0:0:0:
226,30,16429,2,0,B|190:43|174:73|174:73|141:41|108:41,1,143.999996185303,2|0,0:0|0:0,0:0:0:0:
20,49,17029,1,0,0:0:0:0:
0,134,17229,1,2,0:0:0:0:
49,206,17429,5,2,0:0:0:0:
49,206,17629,2,0,B|70:230|104:241|104:241|139:203|201:211,1,143.999996185303,2|0,0:0|0:0,0:0:0:0:
289,248,18229,2,0,B|269:182|326:148|326:148|348:162|373:185,1,143.999996185303,2|0,0:0|0:0,0:0:0:0:
423,215,18829,1,2,0:0:0:0:
507,60,19229,5,0,0:0:0:0:
441,28,19429,1,2,0:0:0:0:
283,82,19829,6,0,P|274:113|271:152,1,71.9999980926514
185,180,20229,2,0,P|194:211|197:251,1,71.9999980926514,2|0,0:0|0:0,0:0:0:0:
82,323,20629,6,0,B|164:305|129:370|233:348,1,143.999996185303,2|0,0:0|0:0,0:0:0:0:
317,318,21229,1,2,0:0:0:0:
317,318,21429,1,0,0:0:0:0:
500,361,21829,1,0,0:0:0:0:
500,361,22029,6,0,B|498:308|534:289|534:289|523:251|484:232,1,143.999996185303,2|0,0:0|0:0,0:0:0:0:
417,181,22629,1,0,0:0:0:0:
319,213,22829,1,2,0:0:0:0:
319,213,23029,2,0,P|282:216|248:201,1,71.9999980926514
175,145,23429,1,0,0:0:0:0:
202,56,23629,1,2,0:0:0:0:
302,59,23829,5,2,0:0:0:0:
302,59,24030,2,0,B|347:72|397:37|397:37|384:79,1,143.999996185303,2|0,0:0|0:0,0:0:0:0:
355,177,24629,1,2,0:0:0:0:
355,177,24829,1,2,0:0:0:0:
512,265,25229,1,0,0:0:0:0:
330,323,25629,5,0,0:0:0:0:
352,345,25829,1,2,0:0:0:0:
266,221,26229,5,2,0:0:0:0:
238,209,26429,1,0,0:0:0:0:
207,204,26629,1,2,0:0:0:0:
179,214,26829,1,0,0:0:0:0:
115,256,27029,5,2,0:0:0:0:
115,256,27229,2,0,P|125:194|96:144,1,94.499994612694,2|0,0:0|0:0,0:0:0:0:
79,147,27629,2,0,P|71:102|91:69,1,62.9999964084627,2|0,0:0|0:0,0:0:0:0:
191,17,28229,5,0,0:0:0:0:
225,27,28429,1,2,0:0:0:0:
304,113,28829,5,2,0:0:0:0:
338,103,29029,1,0,0:0:0:0:
500,56,29429,6,0,P|488:85|484:116,1,62.9999964084627,2|0,0:0|0:0,0:0:0:0:
418,177,29829,2,0,P|428:206|432:237,1,62.9999964084627
493,343,30229,5,2,0:0:0:0:
493,343,30429,2,0,L|397:353,1,94.499994612694,2|0,0:0|0:0,0:0:0:0:
395,319,30829,2,0,L|309:309,1,62.9999964084627,2|0,0:0|0:0,0:0:0:0:
212,220,31429,5,0,0:0:0:0:
196,247,31629,1,2,0:0:0:0:
319,164,32029,5,2,0:0:0:0:
303,137,32229,1,0,0:0:0:0:
400,39,32629,6,0,P|456:16|512:42,1,125.999992816925,2|0,0:0|0:0,0:0:0:0:
512,193,33429,5,2,0:0:0:0:
512,193,33629,2,0,P|472:143|422:150,1,94.499994612694,2|0,0:0|0:0,0:0:0:0:
402,152,34029,2,0,P|372:143|350:120,1,62.9999964084627,2|0,0:0|0:0,0:0:0:0:
242,4,34629,5,0,0:0:0:0:
213,20,34829,1,2,0:0:0:0:
188,157,35229,5,2,0:0:0:0:
217,141,35429,1,0,0:0:0:0:
410,144,35829,6,0,P|427:175|418:229,1,62.9999964084627,2|0,0:0|0:0,0:0:0:0:
332,217,36229,2,0,P|316:243|313:275,1,62.9999964084627
220,374,36629,5,2,0:0:0:0:
220,374,36829,2,0,L|210:312,1,62.9999964084627,2|0,0:0|0:0,0:0:0:0:
130,223,37229,2,0,L|120:284,1,62.9999964084627,2|0,0:0|0:0,0:0:0:0:
44,347,37629,1,0,0:0:0:0:
0,262,37829,5,2,0:0:0:0:
0,262,38029,1,2,0:0:0:0:
50,108,38429,2,0,P|84:94|112:93,1,62.9999964084627,2|0,0:0|0:0,0:0:0:0:
199,20,38829,1,0,0:0:0:0:
199,20,39029,2,0,P|233:35|261:36,1,62.9999964084627,2|0,0:0|0:0,0:0:0:0:
390,98,39429,2,0,P|358:100|330:114,1,62.9999964084627,2|0,0:0|0:0,0:0:0:0:
190,127,39829,6,0,B|270:131|229:199|317:199,1,143.999996185303,2|0,0:0|0:0,0:0:0:0:
413,194,40429,1,2,0:0:0:0:
413,194,40629,1,0,0:0:0:0:
512,351,41029,1,0,0:0:0:0:
512,351,41229,6,0,P|454:303|377:324,1,143.999996185303,2|0,0:0|0:0,0:0:0:0:
285,354,41829,1,0,0:0:0:0:
285,354,42029,2,0,B|230:373|186:348|186:348|209:306|211:282,1,143.999996185303,2|0,0:0|0:0,0:0:0:0:
218,230,42629,1,0,0:0:0:0:
149,167,42829,1,2,0:0:0:0:
62,166,43029,5,2,0:0:0:0:
62,166,43229,2,0,P|19:208|34:289,1,143.999996185303,2|0,0:0|0:0,0:0:0:0:
123,343,43829,2,0,B|141:276|195:268|195:268|221:289|234:320,1,143.999996185303,2|0,0:0|0:0,0:0:0:0:
268,369,44429,1,2,0:0:0:0:
401,261,44829,5,0,0:0:0:0:
450,323,45029,1,2,0:0:0:0:
507,176,45429,6,0,P|482:150|447:145,1,71.9999980926514
365,97,45829,2,0,P|340:122|305:127,1,71.9999980926514,2|0,0:0|0:0,0:0:0:0:
201,170,46229,6,0,P|195:101|132:73,1,143.999996185303,2|0,0:0|0:0,0:0:0:0:
38,101,46829,1,2,0:0:0:0:
38,101,47029,1,0,0:0:0:0:
72,258,47429,1,0,0:0:0:0:
72,258,47629,6,0,L|214:278,1,143.999996185303,2|0,0:0|0:0,0:0:0:0:
308,303,48229,1,0,0:0:0:0:
386,235,48429,1,2,0:0:0:0:
386,235,48629,2,0,P|388:199|373:163,1,71.9999980926514
333,92,49029,1,0,0:0:0:0:
399,36,49229,1,2,0:0:0:0:
487,64,49429,5,2,0:0:0:0:
487,64,49630,2,0,B|517:96|532:138|532:138|529:162|512:191,1,143.999996185303,2|0,0:0|0:0,0:0:0:0:
398,274,50229,2,0,B|463:251|505:296|505:296|458:319,1,143.999996185303,2|0,0:0|0:0,0:0:0:0:
395,361,50829,1,2,0:0:0:0:
298,214,51229,5,0,0:0:0:0:
366,151,51429,1,2,0:0:0:0:
226,48,51829,6,0,P|183:51|157:62,1,71.9999980926514
114,151,52229,2,0,P|80:138|45:137,1,71.9999980926514,2|0,0:0|0:0,0:0:0:0:
0,284,52629,6,0,B|42:277|67:242|67:242|106:245|123:278,1,143.999996185303,2|0,0:0|0:0,0:0:0:0:
167,350,53229,1,2,0:0:0:0:
167,350,53429,1,0,0:0:0:0:
308,258,53829,1,0,0:0:0:0:
308,258,54029,6,0,P|316:196|254:130,1,143.999996185303,2|0,0:0|0:0,0:0:0:0:
188,53,54629,1,0,0:0:0:0:
188,53,54829,2,0,B|256:70|248:10|334:31,1,143.999996185303,2|0,0:0|0:0,0:0:0:0:
407,71,55429,1,0,0:0:0:0:
375,156,55629,1,2,0:0:0:0:
448,223,55829,5,2,0:0:0:0:
448,223,56029,2,0,B|459:242|466:260|466:260|395:243|340:272,1,143.999996185303,2|0,0:0|0:0,0:0:0:0:
234,293,56629,2,0,P|255:236|218:160,1,143.999996185303,2|0,0:0|0:0,0:0:0:0:
139,118,57229,1,2,0:0:0:0:
35,273,57629,5,0,0:0:0:0:
0,196,57829,1,2,0:0:0:0:
163,305,58229,6,0,P|198:302|233:292,1,71.9999980926514
300,367,58629,2,0,P|329:347|355:321,1,71.9999980926514,2|0,0:0|0:0,0:0:0:0:
412,205,59029,6,0,B|354:238|316:216|316:216|307:185|333:144,1,143.999996185303,2|0,0:0|0:0,0:0:0:0:
369,103,59629,1,2,0:0:0:0:
369,103,59829,1,0,0:0:0:0:
227,20,60229,1,0,0:0:0:0:
227,20,60429,6,0,P|151:17|112:92,1,143.999996185303,2|0,0:0|0:0,0:0:0:0:
116,166,61029,1,0,0:0:0:0:
197,223,61229,1,2,0:0:0:0:
197,223,61429,2,0,P|229:222|268:211,1,71.9999980926514
347,173,61829,1,0,0:0:0:0:
431,221,62029,1,2,0:0:0:0:
461,317,62229,5,2,0:0:0:0:
461,317,62429,2,0,B|318:337,1,143.999996185303,2|0,0:0|0:0,0:0:0:0:
238,359,63029,1,2,0:0:0:0:
238,359,63229,1,2,0:0:0:0:
153,224,63629,1,0,0:0:0:0:
15,346,64029,5,0,0:0:0:0:
48,342,64229,1,2,0:0:0:0:
153,224,64629,5,2,0:0:0:0:
162,197,64829,1,0,0:0:0:0:
162,169,65029,1,2,0:0:0:0:
157,141,65229,1,0,0:0:0:0:
120,67,65429,5,2,0:0:0:0:
119,66,66229,2,0,P|180:99|259:87,1,125.999992816925,2|0,0:0|0:0,0:0:0:0:
328,71,66829,2,0,P|311:39|307:0,2,62.9999964084627
406,126,67429,6,0,P|401:161|384:193,1,62.9999964084627,2|0,0:0|0:0,0:0:0:0:
320,258,67829,1,0,0:0:0:0:
320,258,68229,2,0,L|249:244,1,62.9999964084627,2|0,0:0|0:0,0:0:0:0:
178,239,68629,6,0,P|232:196|225:127,1,125.999992816925,2|0,0:0|0:0,0:0:0:0:
188,60,69229,2,0,L|259:49,2,62.9999964084627
84,86,69829,1,2,0:0:0:0:
84,86,70029,6,0,P|83:51|73:14,2,62.9999964084627
30,174,70629,2,0,B|108:161|93:213|161:200,1,125.999992816925,2|0,0:0|0:0,0:0:0:0:
245,192,71229,1,0,0:0:0:0:
245,192,71429,2,0,P|235:226|235:262,1,62.9999964084627,2|0,0:0|0:0,0:0:0:0:
237,351,71829,5,2,0:0:0:0:
237,351,72629,2,0,B|276:345|297:354|297:354|322:333|363:324,1,125.999992816925,2|0,0:0|0:0,0:0:0:0:
452,312,73229,2,0,P|470:346|476:384,2,62.9999964084627
392,240,73829,6,0,P|400:210|416:183,1,62.9999964084627,2|0,0:0|0:0,0:0:0:0:
472,97,74229,1,0,0:0:0:0:
472,97,74629,2,0,L|393:82,1,62.9999964084627,2|0,0:0|0:0,0:0:0:0:
318,66,75029,1,2,0:0:0:0:
318,66,77829,6,0,P|341:100|388:115,1,71.9999980926514,2|0,0:0|0:0,0:0:0:0:
459,122,78229,6,0,B|368:104|393:179|288:163,1,161.999990764618,2|0,0:0|0:0,0:0:0:0:
169,146,78829,1,2,0:0:0:0:
169,146,79029,2,0,P|244:130|273:207,1,161.999990764618,2|0,0:0|0:0,0:0:0:0:
197,337,79629,6,0,P|233:319|273:316,1,80.9999953823091,2|0,0:0|0:0,0:0:0:0:
364,384,80029,1,0,0:0:0:0:
364,384,80229,2,0,P|415:377|454:351,1,80.9999953823091,2|0,0:0|0:0,0:0:0:0:
511,202,80629,2,0,B|465:185|413:179|413:179|375:202|362:247,1,161.999990764618,2|0,0:0|0:0,0:0:0:0:
371,222,81229,1,0,0:0:0:0:
299,104,81429,6,0,B|277:22|354:-4|354:-4|342:24|315:33,1,161.999990764618,2|0,0:0|0:0,0:0:0:0:
85,131,82229,2,0,P|36:133|-1:119,1,80.9999953823091,2|0,0:0|0:0,0:0:0:0:
62,223,82629,1,0,0:0:0:0:
62,223,82829,2,0,P|100:211|140:214,2,80.9999953823091,2|0|0,0:0|0:0|0:0,0:0:0:0:
196,301,83429,6,0,P|226:274|235:226,1,80.9999953823091,2|0,0:0|0:0,0:0:0:0:
268,96,83829,2,0,P|276:135|312:167,1,80.9999953823091
412,263,84229,2,0,P|373:250|327:265,1,80.9999953823091,2|0,0:0|0:0,0:0:0:0:
495,336,84629,6,0,P|516:243|464:168,1,161.999990764618,2|0,0:0|0:0,0:0:0:0:
406,119,85229,1,2,0:0:0:0:
406,119,85429,1,2,0:0:0:0:
242,218,85829,5,0,0:0:0:0:
242,218,86029,2,0,P|201:215|165:197,1,80.9999953823091,2|0,0:0|0:0,0:0:0:0:
100,116,86429,1,0,0:0:0:0:
100,116,86629,2,0,P|49:123|10:149,1,80.9999953823091,2|0,0:0|0:0,0:0:0:0:
3,296,87029,2,0,B|57:276|84:229|84:229|98:260|139:286,1,161.999990764618,2|0,0:0|0:0,0:0:0:0:
118,271,87629,1,0,0:0:0:0:
297,251,87829,6,0,P|263:182|186:196,1,161.999990764618,2|0,2:0|2:0,2:0:0:0:
302,368,88629,2,0,P|342:360|379:334,1,80.9999953823091,2|0,0:0|0:0,0:0:0:0:
464,273,89029,1,0,0:0:0:0:
464,273,89229,2,0,P|463:312|476:351,2,80.9999953823091,2|0|0,0:0|0:0|0:0,0:0:0:0:
504,128,89829,6,0,P|475:156|437:169,1,80.9999953823091,2|0,0:0|0:0,0:0:0:0:
350,262,90229,2,0,P|321:233|283:220,1,80.9999953823091
144,186,90629,2,0,P|181:172|210:144,1,80.9999953823091,2|0,0:0|0:0,0:0:0:0:
288,2,91029,6,0,B|208:-4|185:55|185:55|215:46|231:32,1,161.999990764618,2|0,0:0|0:0,0:0:0:0:
68,49,91629,1,2,0:0:0:0:
68,49,91829,2,0,P|-1:91|1:167,1,161.999990764618,2|0,0:0|0:0,0:0:0:0:
0,300,92429,6,0,P|28:272|77:268,1,80.9999953823091,2|0,0:0|0:0,0:0:0:0:
142,203,92829,1,0,0:0:0:0:
142,203,93029,2,0,P|170:230|219:234,1,80.9999953823091,2|0,0:0|0:0,0:0:0:0:
309,337,93429,2,0,L|330:161,1,161.999990764618,2|0,0:0|0:0,0:0:0:0:
328,176,94029,1,0,0:0:0:0:
490,66,94229,6,0,B|433:75|414:127|414:127|392:91|333:83,1,161.999990764618,2|0,0:0|0:0,0:0:0:0:
167,14,95029,2,0,P|196:43|194:86,1,80.9999953823091,2|0,0:0|0:0,0:0:0:0:
98,107,95429,1,0,0:0:0:0:
98,107,95629,2,0,P|69:136|70:179,2,80.9999953823091,2|0|0,0:0|0:0|0:0,0:0:0:0:
133,247,96229,6,0,P|94:271|56:275,1,80.9999953823091,2|0,0:0|0:0,0:0:0:0:
199,170,96629,2,0,P|238:176|272:198,1,80.9999953823091
409,254,97029,2,0,P|370:278|332:282,1,80.9999953823091,2|0,0:0|0:0,0:0:0:0:
288,84,97429,6,0,B|334:84|356:122|356:122|390:133|440:98,1,161.999990764618,2|0,0:0|0:0,0:0:0:0:
512,45,98029,1,2,0:0:0:0:
512,45,98229,1,2,0:0:0:0:
459,214,98629,5,0,0:0:0:0:
459,214,98829,2,0,P|457:263|491:305,1,80.9999953823091,2|0,0:0|0:0,0:0:0:0:
386,375,99229,1,0,0:0:0:0:
386,375,99429,2,0,P|388:326|354:284,1,80.9999953823091,2|0,0:0|0:0,0:0:0:0:
198,206,99829,2,0,B|233:243|271:249|271:249|300:210|341:205,1,161.999990764618,2|0,0:0|0:0,0:0:0:0:
331,206,100429,1,0,0:0:0:0:
501,134,100629,6,0,B|463:139|424:161|424:161|405:125|362:110,1,161.999990764618,2|0,0:0|0:0,0:0:0:0:
115,53,101429,2,0,P|153:65|177:96,1,80.9999953823091,2|0,0:0|0:0,0:0:0:0:
260,162,101828,1,0,0:0:0:0:
260,162,102029,2,0,P|221:174|197:205,2,80.9999953823091,2|0|0,0:0|0:0|0:0,0:0:0:0:
423,240,102629,6,0,P|390:198|383:161,1,80.9999953823091,2|0,0:0|0:0,0:0:0:0:
392,350,103029,2,0,P|431:342|470:350,1,80.9999953823091
284,266,103429,2,0,P|272:304|245:334,1,80.9999953823091,2|0,0:0|0:0,0:0:0:0:
54,294,103829,6,0,P|131:299|174:235,1,161.999990764618,2|0,0:0|0:0,0:0:0:0:
225,92,104429,2,0,P|223:134|246:171,1,80.9999953823091,2|0,0:0|0:0,0:0:0:0:
393,203,104829,1,2,0:0:0:0:
393,203,104929,1,2,0:0:0:0:
393,203,105029,6,0,P|331:82|319:119,1,359.999990463257,2|0,0:0|0:0,0:0:0:0:
404,226,110229,5,2,0:0:0:0:
404,226,110429,2,0,P|386:174|425:131,1,94.499994612694,2|0,0:0|0:0,0:0:0:0:
441,131,110829,2,0,P|454:90|424:57,1,62.9999964084627,2|0,0:0|0:0,0:0:0:0:
305,12,111429,5,0,0:0:0:0:
286,42,111629,1,2,0:0:0:0:
211,170,112029,5,2,0:0:0:0:
192,140,112229,1,0,0:0:0:0:
19,155,112629,6,0,P|50:157|82:177,1,62.9999964084627,2|0,0:0|0:0,0:0:0:0:
104,272,113029,2,0,P|135:269|167:249,1,62.9999964084627
289,164,113429,5,2,0:0:0:0:
289,164,113629,2,0,P|284:228|296:276,1,94.499994612694,2|0,0:0|0:0,0:0:0:0:
324,278,114029,2,0,P|327:325|318:360,1,62.9999964084627,2|0,0:0|0:0,0:0:0:0:
475,301,114629,5,0,0:0:0:0:
459,274,114829,1,2,0:0:0:0:
317,191,115229,5,2,0:0:0:0:
333,164,115429,1,0,0:0:0:0:
458,69,115829,6,0,P|409:32|344:40,1,125.999992816925,2|0,0:0|0:0,0:0:0:0:
172,135,116629,5,2,0:0:0:0:
172,135,116829,2,0,P|224:157|267:142,1,94.499994612694,2|0,0:0|0:0,0:0:0:0:
288,127,117229,2,0,P|328:132|349:156,1,62.9999964084627,2|0,0:0|0:0,0:0:0:0:
468,232,117829,5,0,0:0:0:0:
483,203,118029,1,2,0:0:0:0:
377,306,118429,5,2,0:0:0:0:
392,335,118629,1,0,0:0:0:0:
244,255,119029,6,0,P|212:247|182:253,1,62.9999964084627,2|0,0:0|0:0,0:0:0:0:
116,319,119429,2,0,P|83:307|53:260,1,62.9999964084627
7,216,119829,5,2,0:0:0:0:
7,216,120029,2,0,L|19:154,1,62.9999964084627,2|0,0:0|0:0,0:0:0:0:
109,89,120429,2,0,L|121:151,1,62.9999964084627,2|0,0:0|0:0,0:0:0:0:
211,214,120829,1,0,0:0:0:0:
185,308,121029,5,2,0:0:0:0:
185,308,121229,1,2,0:0:0:0:
348,345,121629,2,0,P|363:317|366:286,1,62.9999964084627,2|0,0:0|0:0,0:0:0:0:
458,239,122029,1,0,0:0:0:0:
458,239,122229,2,0,P|442:211|439:180,1,62.9999964084627,2|0,0:0|0:0,0:0:0:0:
512,16,122629,5,8,3:0:0:0:
499,32,122762,1,8,3:0:0:0:
488,17,122895,1,8,3:0:0:0:
474,31,123029,6,0,B|369:31|419:122|303:117,1,179.999995231629,14|0,0:0|0:0,0:0:0:0:
188,90,123629,1,2,0:0:0:0:
188,90,123829,2,0,P|260:90|287:189,1,179.999995231629,8|0,1:0|0:0,0:0:0:0:
256,324,124429,1,10,0:0:0:0:
347,286,124629,6,0,P|423:266|467:276,1,89.9999976158143,0|0,3:0|0:0,0:0:0:0:
256,324,125029,1,8,0:0:0:0:
164,265,125229,1,2,0:0:0:0:
164,265,125429,2,0,P|157:222|179:184,1,89.9999976158143,8|0,1:0|0:0,0:0:0:0:
285,103,125829,1,0,0:0:0:0:
285,103,126029,1,2,0:0:0:0:
436,141,126229,5,10,0:0:0:0:
436,141,126429,2,0,B|376:165|343:158|343:158|319:96|261:102,1,179.999995231629,2|0,0:0|0:0,0:0:0:0:
88,187,127029,2,0,B|155:186|181:127|181:127|199:176|255:197,1,179.999995231629,8|0,1:0|0:0,0:0:0:0:
389,254,127629,1,10,0:0:0:0:
389,254,128029,5,0,0:0:0:0:
217,176,128229,1,10,0:0:0:0:
217,176,128629,6,0,P|173:168|135:191,1,89.9999976158143,8|0,1:0|0:0,0:0:0:0:
309,108,129029,2,0,P|293:66|254:45,1,89.9999976158143,2|0,0:0|0:0,0:0:0:0:
428,141,129429,6,0,P|496:82|480:0,1,179.999995231629,10|0,0:0|0:0,0:0:0:0:
313,112,130029,1,2,0:0:0:0:
313,112,130229,2,0,B|285:181|335:231|335:231|309:209|253:221,1,179.999995231629,8|0,1:0|0:0,0:0:0:0:
117,216,130829,1,10,0:0:0:0:
192,283,131029,5,0,3:0:0:0:
192,283,131229,1,8,0:0:0:0:
162,120,131429,1,8,0:0:0:0:
26,154,131629,1,2,0:0:0:0:
26,154,131829,2,0,P|3:191|10:235,1,89.9999976158143,8|0,1:0|0:0,0:0:0:0:
101,341,132229,1,0,0:0:0:0:
101,341,132429,1,2,0:0:0:0:
227,256,132629,5,10,0:0:0:0:
227,256,132829,2,0,B|268:233|300:228|300:228|359:249|402:299,1,179.999995231629,2|0,0:0|0:0,0:0:0:0:
318,129,133429,2,0,B|335:64|426:66|426:66|420:98|376:80|332:98,1,179.999995231629,8|0,1:0|0:0,0:0:0:0:
207,57,134029,1,10,0:0:0:0:
207,57,134429,5,0,0:0:0:0:
394,89,134629,1,10,0:0:0:0:
392,87,135029,5,8,1:0:0:0:
218,161,135229,1,8,1:0:0:0:
48,111,135429,2,0,P|34:151|31:199,1,89.9999976158143,8|0,3:0|0:0,0:0:0:0:
30,198,135829,6,0,B|88:189|132:228|132:228|183:213|179:162,1,179.999995231629,14|0,0:0|0:0,0:0:0:0:
351,93,136429,1,2,0:0:0:0:
351,93,136629,2,0,B|292:101|266:137|266:137|241:84|161:86,1,179.999995231629,8|0,1:0|0:0,0:0:0:0:
260,240,137229,1,10,0:0:0:0:
365,189,137429,6,0,P|385:265|375:309,1,89.9999976158143,0|0,3:0|0:0,0:0:0:0:
267,138,137829,1,8,0:0:0:0:
403,83,138029,1,2,0:0:0:0:
403,83,138229,2,0,P|458:138|471:181,1,89.9999976158143,8|0,1:0|0:0,0:0:0:0:
502,300,138629,1,0,0:0:0:0:
502,300,138829,1,2,0:0:0:0:
359,351,139029,5,10,0:0:0:0:
359,351,139229,2,0,B|323:317|271:307|271:307|235:355|156:351,1,179.999995231629,2|0,0:0|0:0,0:0:0:0:
10,275,139829,2,0,B|77:276|103:335|103:335|112:291|177:265,1,179.999995231629,8|0,1:0|0:0,0:0:0:0:
273,152,140429,1,10,0:0:0:0:
273,152,140829,5,0,0:0:0:0:
142,289,141029,1,10,0:0:0:0:
142,289,141429,6,0,P|99:277|44:273,1,89.9999976158143,8|0,1:0|0:0,0:0:0:0:
229,234,141829,2,0,P|272:246|327:250,1,89.9999976158143,2|0,0:0|0:0,0:0:0:0:
239,77,142229,6,0,P|156:88|137:183,1,179.999995231629,10|0,0:0|0:0,0:0:0:0:
178,343,142829,1,2,0:0:0:0:
178,343,143029,2,0,B|231:354|265:374|265:374|308:345|407:336,1,179.999995231629,8|0,1:0|0:0,0:0:0:0:
512,342,143629,1,10,0:0:0:0:
430,267,143829,5,0,3:0:0:0:
430,267,144029,1,8,0:0:0:0:
512,159,144229,1,8,0:0:0:0:
361,65,144429,1,2,0:0:0:0:
361,65,144629,2,0,P|398:42|442:49,1,89.9999976158143,8|0,1:0|0:0,0:0:0:0:
344,176,145029,1,0,0:0:0:0:
344,176,145229,1,2,0:0:0:0:
215,145,145429,5,10,0:0:0:0:
215,145,145629,2,0,B|160:71|220:23|220:23|230:64|194:82,1,179.999995231629,2|0,0:0|0:0,0:0:0:0:
68,205,146229,2,0,B|168:177|124:275|273:236,1,179.999995231629,8|0,1:0|0:0,0:0:0:0:
430,165,146829,1,10,0:0:0:0:
235,243,147229,5,8,1:0:0:0:
430,165,147429,1,10,0:0:0:0:
512,263,147629,1,8,0:0:0:0:
512,263,147729,1,8,0:0:0:0:
512,263,147829,5,8,1:0:0:0:
349,336,148029,1,8,3:0:0:0:
330,187,148229,5,8,0:0:0:0:
226,122,148429,1,8,3:0:0:0:
226,122,148629,5,14,0:0:0:0:
226,122,149429,2,0,P|147:118|110:202,1,161.999990764618,8|0,1:0|0:0,0:0:0:0:
108,299,150029,2,0,P|72:280|32:273,2,80.9999953823091,2|0|8,0:0|3:0|0:0,0:0:0:0:
174,365,150629,6,0,P|213:358|249:339,1,80.9999953823091,10|0,0:0|0:0,0:0:0:0:
398,246,151029,1,8,1:0:0:0:
398,246,151429,2,0,L|383:325,1,80.9999953823091,2|0,0:0|0:0,0:0:0:0:
493,279,151729,1,2,0:0:0:0:
493,279,151829,6,0,B|492:220|468:175|468:175|427:157|386:144,1,161.999990764618,10|0,0:0|0:0,0:0:0:0:
258,115,152429,1,2,0:0:0:0:
257,114,152629,2,0,L|335:93,1,80.9999953823091,8|0,1:0|0:0,0:0:0:0:
433,55,153029,1,2,0:0:0:0:
433,55,153229,5,0,0:0:0:0:
311,0,153429,1,0,3:0:0:0:
141,119,153629,1,8,1:0:0:0:
199,219,153829,2,0,P|236:234|275:227,1,80.9999953823091,0|0,1:0|0:0,0:0:0:0:
482,251,154229,2,0,P|442:244|405:259,1,80.9999953823091,8|0,1:0|0:0,0:0:0:0:
285,361,154629,1,2,0:0:0:0:
149,328,154829,1,2,0:0:0:0:
149,328,155029,5,10,0:0:0:0:
149,328,155829,2,0,B|139:281|99:247|99:247|104:216|149:171,1,161.999990764618,8|0,1:0|0:0,0:0:0:0:
213,137,156429,2,0,P|256:141|289:163,2,80.9999953823091,2|0|8,0:0|3:0|0:0,0:0:0:0:
147,68,157029,6,0,P|186:49|225:52,1,80.9999953823091,10|0,0:0|0:0,0:0:0:0:
418,122,157429,1,8,1:0:0:0:
418,122,157829,1,10,0:0:0:0:
434,94,157929,1,2,0:0:0:0:
458,77,158029,1,2,0:0:0:0:
463,241,158229,6,0,B|295:294|342:140|164:189,1,314.99999165535,14|0,0:0|0:0,0:0:0:0:
77,236,159829,5,2,0:0:0:0:
77,236,160029,1,2,0:0:0:0:
299,375,160429,1,8,3:0:0:0:
299,375,160529,1,8,3:0:0:0:
299,375,160629,5,8,1:0:0:0:
360,243,160829,1,8,3:0:0:0:
169,188,161029,5,8,1:0:0:0:
103,30,161229,1,8,1:0:0:0:
103,30,161429,6,0,B|162:30|191:79|191:79|234:94|298:49,1,198.000000797272,14|0,0:0|0:0,0:0:0:0:
278,61,162029,1,2,0:0:0:0:
505,89,162229,2,0,P|397:93|376:199,1,198.000000797272,8|0,1:0|0:0,0:0:0:0:
291,313,162829,6,0,P|283:252|252:206,1,99.0000003986359,0|8,1:0|0:0,0:0:0:0:
172,378,163229,1,0,1:0:0:0:
84,342,163429,2,0,P|92:281|123:235,1,99.0000003986359,10|0,0:0|0:0,0:0:0:0:
254,70,163829,2,0,B|214:117|149:123|149:123|98:99|73:63,1,198.000000797272,8|0,1:0|0:0,0:0:0:0:
258,74,164429,1,0,0:0:0:0:
258,74,164629,6,0,P|302:93|327:163,1,99.0000003986359,10|0,0:0|0:0,0:0:0:0:
492,1,165029,2,0,P|452:30|379:16,1,99.0000003986359,8|0,0:0|0:0,0:0:0:0:
487,238,165429,2,0,P|481:188|529:132,1,99.0000003986359,8|0,1:0|0:0,0:0:0:0:
487,238,165829,1,2,0:0:0:0:
360,186,166029,5,8,0:0:0:0:
360,186,166129,1,8,0:0:0:0:
360,186,166229,1,10,0:0:0:0:
325,357,166429,1,0,1:0:0:0:
213,333,166629,2,0,P|174:298|173:243,1,99.0000003986359,10|0,0:0|0:0,0:0:0:0:
6,265,167029,2,0,P|44:230|45:175,1,99.0000003986359,8|0,1:0|0:0,0:0:0:0:
113,34,167429,2,0,P|118:82|155:113,1,99.0000003986359,2|0,0:0|0:0,0:0:0:0:
155,113,167829,6,0,B|204:108|250:146|250:146|265:97|328:78,1,198.000000797272,10|0,0:0|0:0,0:0:0:0:
315,82,168429,1,2,0:0:0:0:
509,158,168629,2,0,B|442:218|380:178|380:178|415:153|453:184,1,198.000000797272,8|0,1:0|0:0,0:0:0:0:
379,331,169229,6,0,P|339:369|272:369,1,99.0000003986359,0|8,1:0|0:0,0:0:0:0:
132,309,169629,1,0,1:0:0:0:
196,224,169829,2,0,P|243:233|277:268,1,99.0000003986359,10|0,0:0|0:0,0:0:0:0:
74,217,170229,2,0,B|72:156|127:127|127:127|112:69|64:49,1,198.000000797272,8|0,1:0|0:0,0:0:0:0:
254,132,170829,1,0,1:0:0:0:
254,132,171029,6,0,P|302:124|335:88,1,99.0000003986359,10|0,0:0|0:0,0:0:0:0:
184,212,171429,2,0,P|214:249|262:260,1,99.0000003986359,8|0,0:0|0:0,0:0:0:0:
79,191,171829,2,0,P|61:236|75:283,1,99.0000003986359,8|0,1:0|0:0,0:0:0:0:
79,191,172228,1,2,0:0:0:0:
0,115,172429,5,10,0:0:0:0:
0,115,172529,1,8,0:0:0:0:
0,115,172629,1,10,0:0:0:0:
131,5,172829,1,0,1:0:0:0:
192,163,173029,2,0,P|201:112|219:61,1,99.0000003986359,10|0,0:0|0:0,0:0:0:0:
267,259,173429,5,8,1:0:0:0:
152,299,173629,1,8,3:0:0:0:
333,91,173829,5,8,1:0:0:0:
512,144,174029,1,8,1:0:0:0:
512,144,174229,6,0,B|399:127|440:212|325:194,1,198.000000797272,14|0,0:0|0:0,0:0:0:0:
329,194,174829,1,2,0:0:0:0:
197,92,175029,2,0,B|188:61|208:41|208:41|273:100|193:187,1,198.000000797272,8|0,1:0|0:0,0:0:0:0:
90,313,175629,6,0,P|141:280|199:281,1,99.0000003986359,0|8,1:0|0:0,0:0:0:0:
338,295,176029,1,0,1:0:0:0:
383,383,176229,2,0,P|431:376|470:346,1,99.0000003986359,10|0,0:0|0:0,0:0:0:0:
506,158,176629,2,0,B|438:169|415:230|415:230|389:188|319:178,1,198.000000797272,8|0,1:0|0:0,0:0:0:0:
182,148,177229,1,0,0:0:0:0:
182,148,177429,6,0,P|221:176|226:226,1,99.0000003986359,10|0,0:0|0:0,0:0:0:0:
88,96,177829,2,0,P|93:47|133:18,1,99.0000003986359,8|0,0:0|0:0,0:0:0:0:
90,203,178229,2,0,P|45:222|0:202,1,99.0000003986359,8|0,1:0|0:0,0:0:0:0:
88,96,178629,1,2,0:0:0:0:
238,65,178829,5,10,0:0:0:0:
238,65,178929,1,8,0:0:0:0:
238,65,179029,1,10,0:0:0:0:
309,195,179229,1,0,1:0:0:0:
427,116,179429,2,0,P|384:89|336:83,1,99.0000003986359,10|0,0:0|0:0,0:0:0:0:
422,237,179829,2,0,P|470:230|512:204,1,99.0000003986359,8|0,1:0|0:0,0:0:0:0:
308,194,180229,1,2,0:0:0:0:
203,321,180429,1,0,1:0:0:0:
203,321,180629,6,0,B|288:361|338:298|338:298|308:283|273:318,1,198.000000797272,10|0,0:0|0:0,0:0:0:0:
292,302,181229,1,2,0:0:0:0:
169,216,181429,2,0,P|90:270|111:386,1,198.000000797272,8|0,1:0|0:0,0:0:0:0:
169,216,182029,6,0,P|129:178|62:178,1,99.0000003986359,0|8,1:0|0:0,0:0:0:0:
232,112,182429,1,0,1:0:0:0:
138,54,182629,2,0,P|82:50|31:93,1,99.0000003986359,10|0,0:0|0:0,0:0:0:0:
232,112,183029,2,0,B|293:112|329:58|329:58|347:98|399:120,1,198.000000797272,8|0,1:0|0:0,0:0:0:0:
512,251,183629,1,0,1:0:0:0:
512,251,183829,6,0,P|476:212|420:205,1,99.0000003986359,10|0,0:0|0:0,0:0:0:0:
272,341,184229,2,0,P|322:329|357:284,1,99.0000003986359,8|0,0:0|0:0,0:0:0:0:
152,192,184629,2,0,P|136:241|157:293,1,99.0000003986359,8|0,1:0|0:0,0:0:0:0:
241,139,185028,1,2,0:0:0:0:
146,56,185229,5,10,0:0:0:0:
146,56,185329,1,8,0:0:0:0:
146,56,185429,1,10,0:0:0:0:
334,1,185629,1,0,1:0:0:0:
457,102,185829,2,0,P|415:127|366:126,1,99.0000003986359,10|0,0:0|0:0,0:0:0:0:
146,56,186229,5,8,1:0:0:0:
219,186,186429,1,8,3:0:0:0:
82,259,186629,5,10,0:0:0:0:
50,352,186829,1,8,0:0:0:0:
50,352,187029,6,0,B|140:382|147:280|249:323,1,198.000000797272,14|0,0:0|0:0,0:0:0:0:
363,372,187629,1,10,0:0:0:0:
268,149,187829,1,8,1:0:0:0:
152,117,188029,1,0,1:0:0:0:
339,251,188229,5,6,0:0:0:0:
339,251,190029,1,8,0:0:0:0:
470,125,190229,5,14,0:0:0:0:
470,125,190429,2,0,B|416:125|390:80|390:80|351:67|293:107,1,179.999995231629,0|8,1:0|0:0,0:0:0:0:
129,238,191029,1,8,1:0:0:0:
81,325,191229,1,0,1:0:0:0:
56,145,191429,1,6,0:0:0:0:
56,145,191629,6,0,P|93:121|138:118,1,89.9999976158143,10|0,0:0|0:0,0:0:0:0:
227,263,192029,2,0,P|264:286|309:289,1,89.9999976158143,0|0,1:0|0:0,0:0:0:0:
446,253,192429,1,10,0:0:0:0:
343,113,192629,1,8,1:0:0:0:
343,113,192829,2,0,P|353:160|358:211,2,89.9999976158143,10|0|0,0:0|0:0|0:0,0:0:0:0:
343,113,193429,6,0,P|387:117|431:126,1,89.9999976158143,10|0,0:0|0:0,0:0:0:0:
300,30,193829,2,0,P|255:39|211:43,1,89.9999976158143,10|0,0:0|0:0,0:0:0:0:
17,69,194229,1,8,1:0:0:0:
17,69,194429,2,0,P|106:92|92:195,1,179.999995231629,2|0,0:0|0:0,0:0:0:0:
45,339,195029,5,8,0:0:0:0:
131,276,195229,2,0,P|177:261|229:261,2,89.9999976158143,10|8|2,0:0|0:0|0:0,0:0:0:0:
294,370,195829,1,8,1:0:0:0:
378,306,196029,1,2,0:0:0:0:
378,306,196229,2,0,P|392:263|357:207,1,89.9999976158143,8|0,0:0|0:0,0:0:0:0:
197,96,196629,5,14,0:0:0:0:
197,96,196829,2,0,B|228:121|289:136|289:136|320:128|359:100,1,179.999995231629,0|8,1:0|0:0,0:0:0:0:
169,244,197429,1,8,1:0:0:0:
69,325,197629,1,0,1:0:0:0:
90,141,197829,1,6,0:0:0:0:
90,141,198029,6,0,P|100:91|119:45,1,89.9999976158143,10|0,0:0|0:0,0:0:0:0:
169,244,198429,2,0,P|185:285|194:329,1,89.9999976158143,0|0,1:0|0:0,0:0:0:0:
258,185,198829,1,10,0:0:0:0:
426,288,199029,1,8,1:0:0:0:
426,288,199229,2,0,P|470:292|508:269,2,89.9999976158143,10|0|0,0:0|0:0|0:0,0:0:0:0:
425,287,199829,6,0,P|415:243|396:203,1,89.9999976158143,10|0,0:0|0:0,0:0:0:0:
263,168,200229,2,0,P|272:124|292:83,1,89.9999976158143,10|0,0:0|0:0,0:0:0:0:
302,262,200629,1,8,1:0:0:0:
302,262,200829,2,0,B|196:300|226:198|97:253,1,179.999995231629,2|0,0:0|0:0,0:0:0:0:
131,240,201429,5,8,0:0:0:0:
11,260,201629,2,0,L|0:349,2,89.9999976158143,10|8|2,0:0|0:0|0:0,0:0:0:0:
71,50,202229,5,8,1:0:0:0:
103,143,202429,1,8,3:0:0:0:
294,226,202629,5,8,1:0:0:0:
366,93,202829,1,8,1:0:0:0:
163,235,203029,5,14,0:0:0:0:
163,235,203229,2,0,P|71:251|2:195,1,179.999995231629,0|8,1:0|0:0,0:0:0:0:
223,101,203829,1,8,1:0:0:0:
322,158,204029,1,0,1:0:0:0:
265,327,204229,1,6,0:0:0:0:
265,327,204429,6,0,P|221:329|174:345,1,89.9999976158143,10|0,0:0|0:0,0:0:0:0:
360,374,204829,2,0,P|404:372|451:356,1,89.9999976158143,0|0,1:0|0:0,0:0:0:0:
512,237,205229,1,10,0:0:0:0:
345,124,205429,1,8,1:0:0:0:
508,33,205629,1,10,0:0:0:0:
508,33,205829,2,0,P|521:75|511:118,1,89.9999976158143,2|0,0:0|0:0,0:0:0:0:
510,118,206229,6,0,P|464:126|421:104,1,89.9999976158143,10|0,0:0|0:0,0:0:0:0:
277,28,206629,2,0,P|317:10|361:18,1,89.9999976158143,10|0,0:0|0:0,0:0:0:0:
237,202,207029,1,8,1:0:0:0:
237,202,207229,2,0,B|170:171|175:93|175:93|147:126|134:159,1,179.999995231629,2|0,0:0|0:0,0:0:0:0:
117,298,207829,5,8,0:0:0:0:
213,324,208029,2,0,P|255:327|304:309,2,89.9999976158143,10|8|2,0:0|0:0|0:0,0:0:0:0:
22,163,208629,5,8,1:0:0:0:
117,298,208829,1,8,1:0:0:0:
262,206,209029,5,8,3:0:0:0:
289,102,209229,1,8,3:0:0:0:
78,52,209429,5,14,0:0:0:0:
78,52,209629,2,0,B|136:92|199:37|199:37|156:28|127:70,1,179.999995231629,0|8,1:0|0:0,0:0:0:0:
36,231,210229,1,8,1:0:0:0:
93,334,210429,1,0,1:0:0:0:
284,234,210629,1,6,0:0:0:0:
284,234,210829,6,0,P|273:190|249:152,1,89.9999976158143,10|0,0:0|0:0,0:0:0:0:
408,262,211229,2,0,P|382:302|373:353,1,89.9999976158143,0|0,1:0|0:0,0:0:0:0:
284,234,211629,1,10,0:0:0:0:
418,112,211829,1,8,1:0:0:0:
326,40,212029,1,8,0:0:0:0:
326,40,212229,2,0,P|280:25|235:40,1,89.9999976158143,2|0,0:0|0:0,0:0:0:0:
213,63,212529,1,2,0:0:0:0:
213,63,212629,6,0,P|251:115|247:187,1,125.999992816925,6|0,0:0|0:0,0:0:0:0:
53,343,213429,2,0,P|54:281|92:231,1,125.999992816925,2|0,0:0|0:0,0:0:0:0:
92,231,214229,1,2,0:0:0:0:
96,235,215829,6,0,L|83:324,1,89.9999976158143,2|0,0:0|0:0,0:0:0:0:
201,266,216429,1,0,0:0:0:0:
201,266,216629,2,0,L|188:176,1,89.9999976158143,2|0,0:0|0:0,0:0:0:0:
159,87,217229,2,0,P|136:86|115:79,2,44.9999988079071,0|0|0,0:0|0:0|0:0,0:0:0:0:
284,57,217829,2,0,P|242:41|218:3,2,89.9999976158143,2|0|0,0:0|0:0|0:0,0:0:0:0:
492,37,219029,6,0,P|450:52|426:90,1,89.9999976158143,2|0,0:0|0:0,0:0:0:0:
374,269,219829,2,0,P|361:249|355:228,1,44.9999988079071,2|0,0:0|0:0,0:0:0:0:
458,323,220229,1,0,0:0:0:0:
458,323,220429,2,0,P|423:358|367:370,1,89.9999976158143,2|0,0:0|0:0,0:0:0:0:
262,303,221029,2,0,P|227:267|171:255,1,89.9999976158143,2|0,0:0|0:0,0:0:0:0:
96,265,221629,1,0,0:0:0:0:
96,265,221829,2,0,L|88:310,1,44.9999988079071,2|0,0:0|0:0,0:0:0:0:
40,162,222229,6,0,P|80:179|142:168,1,89.9999976158143,2|0,0:0|0:0,0:0:0:0:
193,259,222829,1,0,0:0:0:0:
193,259,223029,2,0,P|228:232|249:172,1,89.9999976158143,2|0,0:0|0:0,0:0:0:0:
249,98,223629,2,0,P|231:89|206:82,2,44.9999988079071,0|0|0,0:0|0:0|0:0,0:0:0:0:
346,155,224229,2,0,L|335:65,2,89.9999976158143,2|0|0,0:0|0:0|0:0,0:0:0:0:
413,269,225229,1,0,0:0:0:0:
413,269,225429,6,0,P|419:218|450:171,1,89.9999976158143,2|0,0:0|0:0,0:0:0:0:
512,55,226229,2,0,L|467:47,1,44.9999988079071,2|0,0:0|0:0,0:0:0:0:
344,24,226629,1,0,0:0:0:0:
344,24,226829,2,0,P|352:67|336:111,1,89.9999976158143,2|0,0:0|0:0,0:0:0:0:
240,181,227429,1,2,0:0:0:0:
240,181,227629,6,0,P|218:188|196:190,1,44.9999988079071,2|0,0:0|0:0,0:0:0:0:
86,185,228029,1,0,0:0:0:0:
86,185,228229,2,0,P|44:196|10:226,1,67.4999982118607,2|0,0:0|0:0,0:0:0:0:
0,268,228629,6,0,B|38:228|89:234|89:234|119:280|176:276,1,198.000000797272,14|0,0:0|0:0,0:0:0:0:
173,276,229229,1,2,0:0:0:0:
271,114,229429,2,0,B|218:185|288:251|288:251|293:221|269:204|242:198,1,198.000000797272,8|0,1:0|0:0,0:0:0:0:
94,129,230029,6,0,P|42:128|-2:147,1,99.0000003986359,0|8,1:0|0:0,0:0:0:0:
189,81,230429,1,0,1:0:0:0:
271,114,230629,2,0,P|322:114|367:95,1,99.0000003986359,10|0,0:0|0:0,0:0:0:0:
512,275,231029,2,0,P|415:205|315:245,1,198.000000797272,8|0,1:0|0:0,0:0:0:0:
142,324,231629,1,0,0:0:0:0:
142,324,231829,6,0,P|186:305|211:235,1,99.0000003986359,10|0,0:0|0:0,0:0:0:0:
50,112,232229,2,0,P|94:131|119:201,1,99.0000003986359,8|0,0:0|0:0,0:0:0:0:
328,142,232629,2,0,P|289:113|216:126,1,99.0000003986359,8|0,1:0|0:0,0:0:0:0:
410,218,233029,1,2,0:0:0:0:
512,144,233229,5,10,0:0:0:0:
512,144,233329,1,8,0:0:0:0:
512,144,233429,1,10,0:0:0:0:
451,320,233629,1,0,1:0:0:0:
357,363,233829,2,0,L|246:347,1,99.0000003986359,10|0,0:0|0:0,0:0:0:0:
129,203,234229,2,0,L|18:218,1,99.0000003986359,8|0,1:0|0:0,0:0:0:0:
188,101,234629,1,2,0:0:0:0:
381,167,234829,1,0,1:0:0:0:
381,167,235029,6,0,B|332:172|286:134|286:134|271:183|220:197,1,198.000000797272,10|0,0:0|0:0,0:0:0:0:
220,196,235629,1,2,0:0:0:0:
21,127,235829,2,0,B|55:76|119:63|119:63|173:81|201:115,1,198.000000797272,8|0,1:0|0:0,0:0:0:0:
390,196,236429,6,0,P|437:187|477:154,1,99.0000003986359,0|8,1:0|0:0,0:0:0:0:
275,185,236829,1,0,1:0:0:0:
202,233,237029,2,0,P|232:269|281:287,1,99.0000003986359,10|0,0:0|0:0,0:0:0:0:
512,313,237429,2,0,B|429:291|383:348|383:348|424:361|450:320,1,198.000000797272,8|0,1:0|0:0,0:0:0:0:
512,164,238029,1,0,1:0:0:0:
511,163,238229,6,0,P|505:114|471:79,1,99.0000003986359,10|0,0:0|0:0,0:0:0:0:
278,117,238629,2,0,P|322:136|369:124,1,99.0000003986359,8|0,0:0|0:0,0:0:0:0:
222,20,239029,2,0,P|182:48|169:95,1,99.0000003986359,8|0,1:0|0:0,0:0:0:0:
194,285,239428,1,2,0:0:0:0:
79,346,239629,5,10,0:0:0:0:
79,346,239729,1,8,0:0:0:0:
79,346,239829,1,10,0:0:0:0:
161,191,240029,1,0,1:0:0:0:
296,231,240229,2,0,P|345:227|388:204,1,99.0000003986359,10|0,0:0|0:0,0:0:0:0:
169,95,240629,5,8,1:0:0:0:
39,168,240829,1,8,3:0:0:0:
40,372,241029,5,10,0:0:0:0:
138,317,241229,1,8,0:0:0:0:
138,317,241429,6,0,B|190:307|240:332|240:332|265:289|357:268,1,198.000000797272,14|0,0:0|0:0,0:0:0:0:
482,262,242029,1,10,0:0:0:0:
276,144,242229,1,8,1:0:0:0:
205,24,242429,1,0,1:0:0:0:
0,172,242629,6,0,B|94:245|193:182|193:182|144:179|95:239,1,314.999982042313,6|0,0:0|0:0,0:0:0:0:
173,88,247829,5,2,0:0:0:0:
173,88,248029,2,0,P|225:105|284:85,1,94.499994612694,2|0,0:0|0:0,0:0:0:0:
293,76,248429,2,0,P|329:63|370:77,1,62.9999964084627,2|0,0:0|0:0,0:0:0:0:
508,67,249029,5,0,0:0:0:0:
498,101,249229,1,2,0:0:0:0:
376,180,249629,5,2,0:0:0:0:
386,214,249829,1,0,0:0:0:0:
452,346,250229,6,0,P|422:334|391:331,1,62.9999964084627,2|0,0:0|0:0,0:0:0:0:
304,291,250629,2,0,P|274:302|243:305,1,62.9999964084627,0|0,0:0|0:0,0:0:0:0:
107,291,251029,5,2,0:0:0:0:
107,291,251229,2,0,L|89:178,1,94.499994612694,2|0,0:0|0:0,0:0:0:0:
54,180,251629,2,0,L|67:89,1,62.9999964084627,2|0,0:0|0:0,0:0:0:0:
174,9,252229,5,0,0:0:0:0:
201,25,252429,1,2,0:0:0:0:
337,74,252829,5,2,0:0:0:0:
310,90,253029,1,0,0:0:0:0:
203,214,253429,6,0,P|271:197|345:211,1,125.999992816925,2|0,0:0|0:0,0:0:0:0:
465,303,254229,5,2,0:0:0:0:
465,303,254429,2,0,P|449:250|459:198,1,94.499994612694,2|0,0:0|0:0,0:0:0:0:
478,178,254829,2,0,P|477:146|466:117,1,62.9999964084627,2|0,0:0|0:0,0:0:0:0:
340,19,255429,5,0,0:0:0:0:
311,35,255629,1,2,0:0:0:0:
167,22,256029,5,2,0:0:0:0:
138,38,256229,1,0,0:0:0:0:
249,143,256629,6,0,P|266:174|257:228,1,62.9999964084627,2|0,0:0|0:0,0:0:0:0:
371,211,257029,2,0,P|370:246|335:288,1,62.9999964084627
292,362,257429,5,2,0:0:0:0:
292,362,257629,2,0,L|230:356,1,62.9999964084627,2|0,0:0|0:0,0:0:0:0:
176,278,258029,2,0,L|114:283,1,62.9999964084627,2|0,0:0|0:0,0:0:0:0:
28,303,258429,1,0,0:0:0:0:
0,213,258629,5,2,0:0:0:0:
0,213,258829,1,2,0:0:0:0:
110,101,259229,2,0,P|144:87|172:86,1,62.9999964084627,2|0,0:0|0:0,0:0:0:0:
235,164,259629,1,0,0:0:0:0:
235,164,259829,2,0,P|269:179|297:180,1,62.9999964084627,2|0,0:0|0:0,0:0:0:0:
416,163,260229,1,2,0:0:0:0:
273,34,260629,5,2,0:0:0:0:
256,192,260829,12,0,263829,0:0:0:0:
