osu file format v14

[General]
AudioFilename: audio.mp3
AudioLeadIn: 0
PreviewTime: 37897
Countdown: 0
SampleSet: Soft
StackLeniency: 0.2
Mode: 0
LetterboxInBreaks: 0
WidescreenStoryboard: 0

[Editor]
Bookmarks: 14422
DistanceSpacing: 1.1
BeatDivisor: 4
GridSize: 32
TimelineZoom: 2.3

[Metadata]
Title:STRUGGLES
TitleUnicode:STRUGGLES
Artist:Primary
ArtistUnicode:Primary
Creator:keeVY
Version:Regret
Source:
Tags:Lafayla NeKroMan4ik yuiko 10th single c88 meis clauson yuikonnu cut version ver female vocalist japanese rock pop
BeatmapID:2419195
BeatmapSetID:1159351

[Difficulty]
HPDrainRate:6
CircleSize:4.2
OverallDifficulty:9
ApproachRate:9.3
SliderMultiplier:1.92
SliderTickRate:1

[Events]
//Background and Video events
0,0,"bg.jpg",0,0
//Break Periods
//Storyboard Layer 0 (Background)
//Storyboard Layer 1 (Fail)
//Storyboard Layer 2 (Pass)
//Storyboard Layer 3 (Foreground)
//Storyboard Layer 4 (Overlay)
//Storyboard Sound Samples

[TimingPoints]
22,300,4,2,1,5,1,0
622,-100,4,2,1,15,0,0
1222,-100,4,2,1,25,0,0
1822,-100,4,2,1,35,0,0
2422,-100,4,2,1,45,0,0
3022,-100,4,2,1,55,0,0
3622,-100,4,2,1,65,0,0
4072,-100,4,2,1,5,0,0
4222,-166.666666666667,4,2,1,65,0,0
4822,-95.2380952380952,4,2,1,75,0,0
7147,-95.2380952380952,4,2,1,5,0,0
7222,-95.2380952380952,4,2,1,75,0,0
9847,-95.2380952380952,4,2,1,5,0,0
9922,-95.2380952380952,4,2,1,75,0,0
12022,-86.9565217391304,4,2,1,75,0,0
12247,-86.9565217391304,4,2,1,5,0,0
12322,-86.9565217391304,4,2,1,75,0,0
13222,-86.9565217391304,4,2,1,85,0,0
14422,-100,4,2,1,65,0,0
14722,-117.647058823529,4,2,1,65,0,0
23722,-117.647058823529,4,2,1,70,0,0
24022,-95.2380952380952,4,2,1,75,0,0
33622,-117.647058823529,4,2,1,70,0,0
37222,-166.666666666667,4,2,1,65,0,0
37972,-500,4,2,1,65,0,0
38347,-500,4,2,1,5,0,0
38422,-86.9565217391304,4,2,1,95,0,1
38647,-83.3333333333333,4,2,1,5,0,1
38722,-86.9565217391304,4,2,1,95,0,1
39847,-86.9565217391304,4,2,1,5,0,1
39922,-86.9565217391304,4,2,1,95,0,1
43072,-86.9565217391304,4,2,0,95,0,1
43222,-86.9565217391304,4,2,1,95,0,1
43447,-86.9565217391304,4,2,1,5,0,1
43522,-86.9565217391304,4,2,1,95,0,1
45847,-86.9565217391304,4,2,1,5,0,1
45922,-86.9565217391304,4,2,1,95,0,1
47422,-86.9565217391304,4,2,1,95,0,0
48022,-86.9565217391304,4,2,1,95,0,1
48247,-86.9565217391304,4,2,1,5,0,1
48322,-86.9565217391304,4,2,1,95,0,1
50647,-86.9565217391304,4,2,1,5,0,1
50722,-86.9565217391304,4,2,1,95,0,1
52672,-86.9565217391304,4,2,0,95,0,1
52822,-86.9565217391304,4,2,1,95,0,1
53047,-86.9565217391304,4,2,1,5,0,1
53122,-86.9565217391304,4,2,1,95,0,1
54247,-86.9565217391304,4,2,1,5,0,1
54322,-86.9565217391304,4,2,1,95,0,1
57622,-111.111111111111,4,2,1,80,0,0
62422,-86.9565217391304,4,2,1,95,0,1
63847,-86.9565217391304,4,2,1,5,0,1
63922,-86.9565217391304,4,2,1,95,0,1
67072,-86.9565217391304,4,2,0,95,0,1
67222,-86.9565217391304,4,2,1,95,0,1
67447,-86.9565217391304,4,2,1,5,0,1
67522,-86.9565217391304,4,2,1,95,0,1
71422,-86.9565217391304,4,2,1,90,0,0
72022,-83.3333333333333,4,2,1,95,0,1
81322,-83.3333333333333,4,2,2,95,0,1
81622,-111.111111111111,4,2,1,95,0,0
85072,-166.666666666667,4,2,1,65,0,0
85972,-200,4,2,1,65,0,0
86572,-200,4,2,1,5,0,0
86722,300,4,2,1,75,1,0
86722,-95.2380952380952,4,2,1,75,0,0
89347,-95.2380952380952,4,2,1,5,0,0
89422,-95.2380952380952,4,2,1,75,0,0
91747,-95.2380952380952,4,2,1,5,0,0
91822,-95.2380952380952,4,2,1,75,0,0
93847,-95.2380952380952,4,2,1,5,0,0
93922,-95.2380952380952,4,2,1,75,0,0
96322,-333.333333333333,4,2,1,65,0,0
96622,-333.333333333333,4,2,1,50,0,0
96922,-333.333333333333,4,2,1,35,0,0
97222,-333.333333333333,4,2,1,20,0,0
97522,-333.333333333333,4,2,1,5,0,0

[Colours]
Combo1 : 255,140,140
Combo2 : 145,185,220
Combo3 : 160,230,170
Combo4 : 150,150,210

[HitObjects]
256,192,22,12,0,4072,0:0:0:0:
404,83,4222,5,8,0:0:0:0:
406,113,4297,1,8,0:0:0:0:
410,144,4372,1,8,0:0:0:0:
413,175,4447,1,8,0:0:0:0:
433,204,4522,5,8,0:0:0:0:
429,234,4597,1,8,0:0:0:0:
427,265,4672,1,8,0:0:0:0:
422,295,4747,1,8,0:0:0:0:
404,315,4822,6,0,B|349:325|349:325|305:309,1,100.799996923828,4|0,3:2|3:2,0:0:0:0:
210,149,5122,5,12,0:3:0:0:
302,295,5272,1,0,0:0:0:0:
136,231,5422,1,0,3:0:0:0:
298,281,5572,1,0,3:0:0:0:
124,338,5722,1,12,0:3:0:0:
294,266,5872,1,0,0:0:0:0:
96,122,6022,6,0,B|64:113|32:127|32:127|15:112|-13:107,1,100.799996923828,0|0,3:0|3:0,0:0:0:0:
319,56,6322,2,0,B|351:46|383:61|383:61|399:49|428:41,1,100.799996923828,12|0,0:3|0:0,0:0:0:0:
129,49,6622,1,0,3:0:0:0:
129,49,6772,1,0,3:0:0:0:
73,278,6922,2,0,P|18:312|35:237,1,151.199995385742,12|0,0:3|3:0,0:0:0:0:
73,199,7222,6,0,B|89:199|105:194|105:194|124:203|136:213|136:213|154:208|187:211,1,100.799996923828,0|0,3:0|3:0,0:0:0:0:
231,339,7522,1,12,0:3:0:0:
231,339,7672,1,0,0:0:0:0:
351,140,7822,5,0,3:0:0:0:
351,140,7972,1,0,3:0:0:0:
502,204,8122,2,0,B|513:251|513:251|512:312,1,100.799996923828,12|0,0:3|0:0,0:0:0:0:
443,369,8422,5,0,3:0:0:0:
351,140,8572,1,0,3:0:0:0:
302,374,8722,1,12,0:3:0:0:
502,204,8872,1,0,0:0:0:0:
228,239,9022,2,0,B|206:230|185:232|185:232|161:248|127:240|127:240,1,100.799996923828,0|0,3:0|3:0,0:0:0:0:
351,140,9322,5,12,0:3:0:0:
391,135,9397,1,8,0:0:0:0:
431,130,9472,1,8,0:0:0:0:
471,125,9547,1,8,0:0:0:0:
510,134,9622,6,0,B|525:66|491:18|491:18|490:49|466:79,1,151.199995385742,4|0,3:2|0:0,0:0:0:0:
412,19,9922,1,12,0:3:0:0:
412,19,10072,1,0,0:0:0:0:
248,53,10222,2,0,B|218:59|201:69|201:69|175:60|130:65,1,100.799996923828,0|0,3:0|3:0,0:0:0:0:
251,216,10522,1,12,0:3:0:0:
251,216,10672,1,0,0:0:0:0:
134,157,10822,5,0,3:0:0:0:
252,372,10972,1,0,3:0:0:0:
402,178,11122,2,0,P|459:168|523:191,1,100.799996923828,12|0,0:3|0:0,0:0:0:0:
374,327,11422,5,0,3:0:0:0:
251,119,11572,1,0,3:0:0:0:
97,305,11722,2,0,P|40:315|-24:292,1,100.799996923828,12|0,0:3|0:0,0:0:0:0:
165,81,12022,6,0,B|211:79|251:119|251:119|272:88|314:80,1,165.600003158569,0|0,3:0|0:0,0:0:0:0:
321,161,12322,1,12,0:3:0:0:
321,161,12472,1,0,0:0:0:0:
108,177,12622,6,0,B|84:176|65:181|65:181|50:179|34:171|34:171|18:174|-9:173,1,110.400002105713,0|0,3:0|3:0,0:0:0:0:
290,357,12922,2,0,B|314:358|333:353|333:353|348:355|364:363|364:363|380:360|407:361,1,110.400002105713,12|0,0:0|0:0,0:0:0:0:
122,102,13222,5,12,0:0:0:0:
195,300,13372,1,0,3:0:0:0:
318,130,13522,1,0,3:0:0:0:
91,258,13672,5,12,0:0:0:0:
229,33,13822,1,0,3:0:0:0:
307,286,13972,1,0,3:0:0:0:
206,107,14122,5,8,0:0:0:0:
164,104,14197,1,8,0:0:0:0:
122,102,14272,1,8,0:0:0:0:
80,100,14347,1,8,0:0:0:0:
41,87,14422,6,0,B|22:123|22:123|19:194,1,96,4|0,3:2|3:0,0:0:0:0:
21,299,14722,1,10,0:0:0:0:
21,299,14872,1,2,0:0:0:0:
180,357,15022,2,0,P|225:315|158:326,1,163.200003112793,2|10,0:0|0:0,0:0:0:0:
180,357,15472,1,2,0:0:0:0:
273,227,15622,5,2,3:2:0:0:
353,316,15772,1,0,3:2:0:0:
433,228,15922,2,0,P|481:221|535:238,1,81.6000015563965,10|0,0:0|0:0,0:0:0:0:
306,98,16222,2,0,P|354:105|408:88,1,81.6000015563965,2|0,0:0|0:0,0:0:0:0:
193,227,16522,2,0,P|241:220|295:237,1,81.6000015563965,10|0,0:0|0:0,0:0:0:0:
116,57,16822,5,0,3:0:0:0:
116,57,16972,1,0,3:0:0:0:
24,148,17122,1,10,0:0:0:0:
115,240,17272,1,2,0:0:0:0:
207,148,17422,6,0,B|250:143|250:143|293:151,1,81.6000015563965,2|0,0:0|0:0,0:0:0:0:
432,303,17722,2,0,B|475:308|475:308|518:300,1,81.6000015563965,10|2,0:0|0:0,0:0:0:0:
411,34,18022,6,0,P|401:107|471:64,1,163.200003112793,2|10,3:2|0:0,0:0:0:0:
438,200,18472,1,0,0:0:0:0:
411,34,18622,2,0,P|357:31|318:49,1,81.6000015563965,2|0,3:2|3:0,0:0:0:0:
241,151,18922,2,0,P|187:154|148:136,1,81.6000015563965,10|0,0:0|0:0,0:0:0:0:
331,40,19222,5,0,3:0:0:0:
241,151,19372,1,0,3:0:0:0:
140,34,19522,2,0,P|94:29|59:35,1,81.6000015563965,10|2,0:0|0:0,0:0:0:0:
0,263,19822,2,0,B|-26:189|24:149|24:149|18:172|23:200,1,163.200003112793,2|10,0:0|0:0,0:0:0:0:
0,263,20272,1,0,0:0:0:0:
90,365,20422,5,2,3:2:0:0:
192,241,20572,1,0,3:2:0:0:
308,340,20722,2,0,P|266:351|212:331,1,81.6000015563965,10|0,0:0|0:0,0:0:0:0:
413,245,21022,2,0,P|371:234|317:254,1,81.6000015563965,2|0,0:0|0:0,0:0:0:0:
509,339,21322,2,0,P|467:350|413:330,1,81.6000015563965,10|0,0:0|0:0,0:0:0:0:
240,147,21622,5,0,3:0:0:0:
240,147,21772,1,0,3:0:0:0:
325,23,21922,2,0,P|370:14|420:28,1,81.6000015563965,10|2,0:0|0:0,0:0:0:0:
376,168,22222,6,0,P|334:117|327:16,1,163.200003112793,2|10,0:0|0:0,0:0:0:0:
325,22,22672,1,2,0:0:0:0:
240,147,22822,6,0,P|211:191|171:208,1,81.6000015563965,2|0,3:2|3:0,0:0:0:0:
399,242,23122,2,0,P|375:194|380:151,1,81.6000015563965,10|0,0:0|0:0,0:0:0:0:
228,341,23422,2,0,P|280:344|315:370,1,81.6000015563965,2|0,3:2|3:0,0:0:0:0:
50,269,23722,5,10,0:0:0:0:
47,228,23797,1,8,0:0:0:0:
43,187,23872,1,8,0:0:0:0:
39,146,23947,1,8,0:0:0:0:
59,110,24022,6,0,B|100:100|100:100|161:110,1,100.799996923828,4|0,3:2|3:0,0:0:0:0:
297,225,24322,1,10,0:0:0:0:
297,225,24472,1,2,0:0:0:0:
457,89,24622,2,0,B|465:42|465:42|454:-12,2,100.799996923828,2|0|10,3:2|3:0|0:0,0:0:0:0:
297,225,25072,1,2,0:0:0:0:
144,52,25222,6,0,B|109:45|109:45|97:48|97:48|38:43,1,100.799996923828,2|0,3:2|3:0,0:0:0:0:
208,237,25522,2,0,B|172:239|172:239|161:245|161:245|103:255,1,100.799996923828,10|0,0:0|0:0,0:0:0:0:
333,31,25822,6,0,B|298:24|298:24|286:27|286:27|227:22,1,100.799996923828,2|0,3:2|3:0,0:0:0:0:
397,216,26122,2,0,B|361:218|361:218|350:224|350:224|292:234,1,100.799996923828,10|0,0:0|0:0,0:0:0:0:
293,104,26422,5,0,3:0:0:0:
293,104,26572,1,0,3:0:0:0:
405,0,26722,1,10,0:0:0:0:
509,112,26872,1,2,0:0:0:0:
397,216,27022,2,0,L|293:235,1,100.799996923828,2|0,3:2|3:0,0:0:0:0:
238,27,27322,1,10,0:0:0:0:
238,27,27472,1,2,0:0:0:0:
30,48,27622,6,0,P|18:101|27:150,1,100.799996923828,2|0,3:2|3:0,0:0:0:0:
82,263,27922,2,0,P|94:316|85:365,1,100.799996923828,10|0,0:0|0:0,0:0:0:0:
82,263,28222,1,2,3:2:0:0:
200,100,28372,1,0,3:2:0:0:
300,309,28522,2,0,P|359:322|422:292,1,100.799996923828,10|0,0:0|0:0,0:0:0:0:
509,112,28822,6,0,B|486:181|541:202|509:256|509:256|502:225|489:208,1,201.599993847656,0|10,3:0|0:0,0:0:0:0:
489,208,29272,1,2,0:0:0:0:
376,93,29422,2,0,P|317:83|260:105,2,100.799996923828,2|0|10,3:2|3:0|0:0,0:0:0:0:
466,335,29872,1,0,0:0:0:0:
250,384,30022,6,0,P|237:328|249:271,1,100.799996923828,2|0,3:2|3:0,0:0:0:0:
369,191,30322,2,0,P|382:135|370:78,1,100.799996923828,10|0,0:0|0:0,0:0:0:0:
369,191,30622,1,2,3:2:0:0:
231,2,30772,1,0,3:0:0:0:
97,149,30922,2,0,B|46:155|46:155|-7:137,1,100.799996923828,10|0,0:0|0:0,0:0:0:0:
231,2,31222,6,0,B|248:45|304:57|304:57|341:1|423:8,1,201.599993847656,0|10,3:0|0:0,0:0:0:0:
393,7,31672,1,2,0:0:0:0:
504,173,31822,2,0,P|518:229|503:293,2,100.799996923828,2|0|10,3:2|3:0|0:0,0:0:0:0:
375,92,32272,1,2,0:0:0:0:
295,211,32422,1,2,3:2:0:0:
295,211,32572,1,0,3:0:0:0:
293,384,32722,1,14,0:0:0:0:
152,254,32872,5,14,3:2:0:0:
113,254,32947,1,8,0:0:0:0:
75,254,33022,1,8,0:0:0:0:
37,254,33097,1,8,0:0:0:0:
0,254,33172,1,0,3:0:0:0:
295,282,33322,5,8,3:0:0:0:
295,246,33397,1,8,0:0:0:0:
295,211,33472,1,8,0:0:0:0:
295,176,33547,1,8,0:0:0:0:
315,151,33622,6,0,P|360:142|392:155,1,81.6000015563965,4|0,3:2|3:0,0:0:0:0:
168,47,33922,2,0,P|213:56|245:43,1,81.6000015563965,2|0,3:2|3:0,0:0:0:0:
94,193,34222,1,8,0:0:0:0:
94,193,34372,1,0,3:0:0:0:
183,272,34522,6,0,P|197:322|180:369,1,81.6000015563965,2|0,3:2|3:0,0:0:0:0:
94,193,34822,2,0,P|83:144|96:95,1,81.6000015563965,0|8,3:0|0:0,0:0:0:0:
148,7,35122,2,0,P|197:18|238:6,1,81.6000015563965,2|0,3:2|3:0,0:0:0:0:
438,33,35422,6,0,B|335:15|384:96|282:78,1,163.200003112793,8|2,0:0|3:2,0:0:0:0:
187,149,35872,2,0,P|216:154|232:160,1,40.8000007781983,0|0,3:0|3:0,0:0:0:0:
382,248,36022,6,0,P|397:187|311:202,1,163.200003112793,4|2,3:2|3:2,0:0:0:0:
238,238,36472,1,0,3:0:0:0:
176,302,36622,2,0,P|126:311|77:297,1,81.6000015563965,10|0,0:0|3:0,0:0:0:0:
0,205,36922,1,2,3:2:0:0:
0,205,37072,1,0,3:2:0:0:
102,83,37222,6,0,B|161:49|211:81|211:81|194:152|110:152,1,230.39999296875,4|0,3:2|0:0,0:0:0:0:
399,131,37972,6,2,P|423:125|452:123,1,48,2|0,0:1|0:0,0:1:0:0:
343,196,38422,6,0,P|380:132|292:148,1,165.600003158569,6|0,3:2|0:0,0:0:0:0:
246,150,38722,2,0,L|116:161,1,110.400002105713,14|0,0:3|0:0,0:0:0:0:
2,117,39022,1,2,3:2:0:0:
2,117,39172,1,2,3:2:0:0:
144,266,39322,2,0,P|164:321|151:381,1,110.400002105713,14|2,0:3|3:2,0:0:0:0:
312,112,39622,6,0,B|370:105|370:105|403:125|403:125|476:114,1,165.600003158569,2|0,3:2|0:0,0:0:0:0:
470,114,39922,1,14,0:3:0:0:
312,112,40072,1,2,3:2:0:0:
418,265,40222,2,0,P|345:265|312:292,1,110.400002105713,2|0,3:2|3:0,0:0:0:0:
238,149,40522,2,0,P|167:130|142:95,1,110.400002105713,14|0,0:3|3:0,0:0:0:0:
145,202,40822,5,0,3:2:0:0:
145,202,40972,1,0,3:2:0:0:
223,65,41122,2,0,P|280:54|350:80,1,110.400002105713,14|0,0:3|3:0,0:0:0:0:
464,273,41422,5,2,3:2:0:0:
329,67,41572,1,0,3:0:0:0:
190,272,41722,2,0,P|131:282|81:253,1,110.400002105713,12|0,0:3|3:0,0:0:0:0:
26,93,42022,5,2,3:2:0:0:
145,202,42172,1,0,3:0:0:0:
105,29,42322,5,12,0:3:0:0:
146,188,42472,1,0,3:0:0:0:
203,22,42622,5,2,3:2:0:0:
148,175,42772,1,2,3:2:0:0:
280,133,42922,1,14,0:3:0:0:
34,39,43072,5,2,0:3:0:0:
34,39,43147,1,2,0:3:0:0:
34,39,43222,2,0,B|10:89|21:138|21:138|-3:115|0:79,1,165.600003158569,2|0,3:2|0:0,0:0:0:0:
34,39,43522,6,0,B|68:38|91:25|91:25|124:28|165:48,1,110.400002105713,14|2,0:3|3:2,0:0:0:0:
280,133,43822,1,2,3:2:0:0:
280,133,43972,1,2,3:2:0:0:
499,48,44122,2,0,P|517:102|512:157,1,110.400002105713,14|2,0:3|3:2,0:0:0:0:
377,285,44422,5,2,3:2:0:0:
287,140,44572,1,2,3:2:0:0:
287,140,44647,1,0,3:0:0:0:
287,140,44722,2,0,B|244:134|213:147|213:147|225:121|251:114,1,110.400002105713,14|0,0:3|3:2,0:0:0:0:
272,309,45022,5,2,3:2:0:0:
137,167,45172,1,0,3:2:0:0:
272,309,45322,1,14,0:3:0:0:
398,153,45472,5,8,0:0:0:0:
398,153,45547,1,8,0:0:0:0:
398,153,45622,2,0,B|432:95|386:32|386:32|387:56|375:76,1,165.600003158569,0|0,3:0|0:0,0:0:0:0:
310,38,45922,1,12,0:3:0:0:
310,38,46072,1,0,3:0:0:0:
272,309,46222,5,2,3:2:0:0:
190,73,46372,1,0,3:0:0:0:
272,309,46522,2,0,P|323:323|386:306,1,110.400002105713,12|0,0:3|3:0,0:0:0:0:
190,73,46822,5,2,3:2:0:0:
57,277,46972,1,0,3:2:0:0:
190,73,47122,2,0,B|237:86|276:79|276:79|250:105,1,110.400002105713,12|0,0:3|3:0,0:0:0:0:
57,277,47422,5,10,3:2:0:0:
69,322,47497,1,8,0:0:0:0:
104,354,47572,1,10,3:2:0:0:
151,362,47647,1,8,0:0:0:0:
195,344,47722,5,10,3:2:0:0:
243,323,47797,1,8,0:0:0:0:
295,322,47872,1,10,0:0:0:0:
344,340,47947,1,8,0:0:0:0:
383,376,48022,6,0,B|419:332|419:332|402:193,1,165.600003158569,6|0,3:2|0:0,0:0:0:0:
367,161,48322,2,0,B|331:150|314:129|314:129|281:132|241:127,1,110.400002105713,14|0,0:3|3:2,0:0:0:0:
74,226,48622,5,2,3:2:0:0:
262,145,48772,1,2,3:2:0:0:
152,307,48922,5,14,0:3:0:0:
258,157,49072,1,2,3:2:0:0:
121,55,49222,6,0,B|79:46|35:58|35:58|52:35|62:26,1,110.400002105713,2|2,3:2|3:2,0:0:0:0:
254,168,49522,1,14,0:3:0:0:
74,226,49672,6,0,P|11:221|5:167,1,110.400002105713,2|0,3:2|3:2,0:0:0:0:
248,179,49972,1,2,3:2:0:0:
156,358,50122,6,0,B|110:371|72:352|72:352|91:384,1,110.400002105713,14|0,0:3|3:0,0:0:0:0:
375,320,50422,6,0,B|395:259|395:259|361:140,1,165.600003158569,0|0,3:0|0:0,0:0:0:0:
303,103,50722,1,12,0:3:0:0:
303,103,50872,1,0,3:0:0:0:
27,285,51022,5,2,3:2:0:0:
131,72,51172,1,0,3:2:0:0:
210,296,51322,2,0,B|249:305|296:294|296:294|276:308,1,110.400002105713,12|0,0:3|3:0,0:0:0:0:
255,19,51622,5,2,3:2:0:0:
367,161,51772,1,0,3:0:0:0:
337,15,51922,5,12,0:3:0:0:
303,215,52072,1,0,3:0:0:0:
380,77,52222,5,2,3:2:0:0:
227,232,52372,1,2,3:2:0:0:
367,161,52522,1,14,0:3:0:0:
75,38,52672,5,2,0:3:0:0:
75,38,52747,1,2,0:3:0:0:
75,38,52822,2,0,B|43:110|43:110|56:219,1,165.600003158569,2|0,3:2|0:0,0:0:0:0:
120,255,53122,1,14,0:3:0:0:
276,25,53272,1,2,3:2:0:0:
377,269,53422,2,0,B|434:275|434:275|496:267,1,110.400002105713,2|2,3:2|3:2,0:0:0:0:
276,25,53722,2,0,B|219:19|219:19|157:27,1,110.400002105713,14|2,0:3|3:2,0:0:0:0:
177,307,54022,6,0,P|191:241|118:262,1,165.600003158569,2|0,3:2|0:0,0:0:0:0:
211,212,54322,2,0,B|234:200|263:200|263:200|287:217|321:220,1,110.400002105713,14|2,0:3|3:2,0:0:0:0:
428,95,54622,2,0,B|441:56|429:14|429:14|448:32|454:52,1,110.400002105713,2|0,3:2|3:0,0:0:0:0:
276,25,54922,1,14,0:3:0:0:
276,25,55072,1,0,3:0:0:0:
60,279,55222,5,0,3:0:0:0:
142,36,55372,1,0,3:0:0:0:
232,276,55522,2,0,P|290:289|352:267,1,110.400002105713,12|0,0:3|3:0,0:0:0:0:
142,36,55822,5,2,3:2:0:0:
232,276,55972,1,0,3:2:0:0:
82,166,56122,2,0,B|44:159|0:174|0:174|26:150,1,110.400002105713,12|0,0:3|3:0,0:0:0:0:
370,80,56422,5,2,3:2:0:0:
232,276,56572,1,0,3:0:0:0:
362,272,56722,1,12,0:3:0:0:
176,118,56872,1,8,3:2:0:0:
158,117,56947,1,8,0:0:0:0:
141,116,57022,1,8,3:2:0:0:
429,169,57172,6,0,L|489:169,1,55.2000010528565,10|8,3:2|0:0,0:0:0:0:
232,276,57322,2,0,L|202:327,1,55.2000010528565,10|8,3:2|0:0,0:0:0:0:
238,52,57472,2,0,L|208:0,1,55.2000010528565,10|8,3:2|0:0,0:0:0:0:
362,272,57622,5,6,3:2:0:0:
292,168,57772,1,0,3:0:0:0:
292,168,57847,1,0,3:0:0:0:
292,168,57922,1,2,3:2:0:0:
259,369,58072,1,2,3:2:0:0:
156,242,58222,2,0,P|107:234|58:247,1,86.3999973632813,8|2,0:0|3:2,0:0:0:0:
12,347,58522,1,0,3:0:0:0:
156,242,58672,6,0,P|166:196|146:147,1,86.3999973632813,2|0,3:2|3:0,0:0:0:0:
153,77,58972,2,0,P|142:118|154:159,1,86.3999973632813,10|0,0:0|3:0,0:0:0:0:
315,213,59272,1,2,3:2:0:0:
293,28,59422,2,0,P|247:22|204:32,1,86.3999973632813,8|2,0:0|3:2,0:0:0:0:
87,200,59722,1,0,3:0:0:0:
315,213,59872,5,0,3:0:0:0:
319,218,59947,1,0,3:0:0:0:
323,223,60022,2,0,B|366:231|366:231|446:208,1,86.3999973632813,6|0,3:2|3:0,0:0:0:0:
208,31,60322,1,2,3:2:0:0:
360,146,60472,1,2,3:2:0:0:
293,28,60622,2,0,B|250:19|250:19|170:42,1,86.3999973632813,8|2,0:0|3:2,0:0:0:0:
122,164,60922,1,0,3:0:0:0:
174,252,61072,6,0,B|182:295|182:295|159:375,1,86.3999973632813,6|0,3:2|3:0,0:0:0:0:
16,273,61372,1,8,0:0:0:0:
7,271,61447,1,8,0:0:0:0:
0,269,61522,1,8,0:0:0:0:
122,164,61672,5,0,3:0:0:0:
161,200,61747,1,0,3:0:0:0:
174,252,61822,1,8,0:0:0:0:
280,103,61972,5,10,0:0:0:0:
424,334,62122,1,10,0:0:0:0:
512,49,62272,1,10,0:0:0:0:
235,239,62422,6,0,B|196:247|155:231|155:231|162:249|181:254,1,110.400002105713,6|0,3:2|3:0,0:0:0:0:
383,140,62722,1,14,0:3:0:0:
162,22,62872,2,0,B|142:73|142:73|148:136,1,110.400002105713,2|0,3:2|3:0,0:0:0:0:
49,359,63172,1,2,3:2:0:0:
174,252,63322,2,0,B|194:303|194:303|188:366,1,110.400002105713,14|2,0:3|3:0,0:0:0:0:
49,359,63622,6,0,P|104:343|40:286,1,165.600003158569,2|0,3:2|0:0,0:0:0:0:
2,227,63922,2,0,P|-12:169|17:93,1,110.400002105713,14|2,0:3|3:2,0:0:0:0:
83,36,64222,1,2,3:2:0:0:
83,36,64372,1,2,3:2:0:0:
206,173,64522,2,0,B|246:187|291:172|291:172|270:191,1,110.400002105713,14|0,0:3|3:0,0:0:0:0:
457,50,64822,5,0,3:0:0:0:
364,269,64972,1,0,3:0:0:0:
265,52,65122,2,0,P|214:44|152:64,1,110.400002105713,12|0,0:3|3:0,0:0:0:0:
50,277,65422,5,2,3:2:0:0:
158,60,65572,1,0,3:0:0:0:
257,277,65722,2,0,P|308:285|370:265,1,110.400002105713,12|0,0:3|3:0,0:0:0:0:
105,139,66022,5,2,3:2:0:0:
316,158,66172,1,0,3:0:0:0:
116,220,66322,5,12,0:3:0:0:
272,76,66472,1,0,3:0:0:0:
180,281,66622,5,2,3:2:0:0:
187,54,66772,1,0,3:0:0:0:
260,316,66922,1,14,0:3:0:0:
434,151,67072,5,2,0:3:0:0:
434,151,67147,1,2,0:3:0:0:
434,151,67222,2,0,B|333:123|369:215|241:169,1,165.600003158569,2|0,3:2|0:0,0:0:0:0:
212,127,67522,1,14,0:3:0:0:
212,127,67672,1,0,3:0:0:0:
108,350,67822,2,0,B|50:360|50:360|-2:348,1,110.400002105713,2|2,3:2|3:2,0:0:0:0:
212,127,68122,1,12,0:3:0:0:
351,368,68272,1,2,3:2:0:0:
512,171,68422,6,0,B|531:130|511:88|511:88|499:118,1,110.400002105713,2|2,3:2|3:2,0:0:0:0:
351,368,68722,1,12,0:3:0:0:
212,127,68872,2,0,B|173:119|134:141|134:141|154:105,1,110.400002105713,2|0,3:2|3:0,0:0:0:0:
349,48,69172,1,2,3:2:0:0:
414,256,69322,1,12,0:3:0:0:
219,134,69472,5,8,0:0:0:0:
219,133,69547,1,8,0:0:0:0:
219,133,69622,1,0,3:0:0:0:
171,374,69772,1,0,3:0:0:0:
306,253,69922,2,0,B|352:244|352:244|426:259,1,110.400002105713,12|0,0:3|3:0,0:0:0:0:
149,297,70222,2,0,B|103:306|103:306|29:291,1,110.400002105713,2|2,3:2|3:2,0:0:0:0:
191,58,70522,1,12,0:3:0:0:
191,58,70672,1,0,3:0:0:0:
407,150,70822,6,0,P|423:211|407:271,1,110.400002105713,2|0,3:2|3:0,0:0:0:0:
302,362,71122,1,12,0:3:0:0:
191,207,71272,1,8,0:0:0:0:
191,207,71347,1,8,0:0:0:0:
191,207,71422,1,14,3:2:0:0:
35,20,71572,5,10,3:2:0:0:
50,59,71647,1,8,0:0:0:0:
52,101,71722,1,10,3:2:0:0:
39,140,71797,1,8,0:0:0:0:
23,179,71872,1,10,0:0:0:0:
19,221,71947,1,8,0:0:0:0:
31,263,72022,5,6,3:2:0:0:
128,117,72172,1,0,3:0:0:0:
112,323,72322,5,10,0:0:0:0:
208,133,72472,1,2,3:2:0:0:
220,361,72622,5,10,0:0:0:0:
291,154,72772,1,2,3:2:0:0:
337,384,72922,5,10,0:0:0:0:
380,168,73072,1,2,3:2:0:0:
388,150,73147,1,0,3:2:0:0:
401,134,73222,2,0,P|452:120|524:134,1,115.199996484375,10|0,0:0|3:0,0:0:0:0:
471,252,73522,5,10,0:0:0:0:
360,22,73672,1,2,3:2:0:0:
290,271,73822,2,0,P|226:288|152:269,1,115.199996484375,10|2,0:0|3:2,0:0:0:0:
0,183,74122,1,10,0:0:0:0:
161,27,74272,5,0,3:0:0:0:
172,24,74347,1,0,3:0:0:0:
183,21,74422,5,8,0:0:0:0:
338,197,74572,1,0,3:0:0:0:
124,117,74722,5,8,0:0:0:0:
351,98,74872,1,0,3:0:0:0:
148,216,75022,5,10,0:0:0:0:
285,25,75172,1,0,3:0:0:0:
244,266,75322,5,8,0:0:0:0:
192,43,75472,1,0,3:0:0:0:
188,32,75547,1,0,3:0:0:0:
183,21,75622,6,0,P|127:6|65:26,1,115.199996484375,10|0,0:0|3:0,0:0:0:0:
25,225,75922,1,8,0:0:0:0:
286,95,76072,1,0,3:0:0:0:
76,116,76222,5,10,0:0:0:0:
209,355,76372,1,2,3:2:0:0:
286,95,76522,1,10,0:0:0:0:
124,285,76672,1,2,3:2:0:0:
107,299,76747,1,0,3:2:0:0:
91,305,76822,5,10,0:0:0:0:
208,95,76972,1,0,3:2:0:0:
209,355,77122,5,10,0:0:0:0:
301,109,77272,1,0,3:2:0:0:
316,372,77422,5,10,0:0:0:0:
395,127,77572,1,2,3:2:0:0:
428,384,77722,5,10,0:0:0:0:
498,142,77872,1,2,3:2:0:0:
496,123,77947,1,0,3:2:0:0:
492,104,78022,2,0,P|459:53|401:25,1,115.199996484375,10|0,0:0|3:0,0:0:0:0:
187,204,78322,5,10,0:0:0:0:
446,239,78472,2,0,P|486:194|498:131,1,115.199996484375,2|8,3:2|0:0,0:0:0:0:
339,67,78772,1,2,3:2:0:0:
216,342,78922,1,10,0:0:0:0:
180,58,79072,1,0,3:2:0:0:
169,42,79147,1,0,3:2:0:0:
154,30,79222,5,8,0:0:0:0:
289,300,79372,1,0,3:2:0:0:
266,43,79522,5,8,0:0:0:0:
362,257,79672,1,0,3:2:0:0:
354,31,79822,5,10,0:0:0:0:
437,200,79972,1,0,3:2:0:0:
440,14,80122,5,8,0:0:0:0:
505,142,80272,1,0,3:2:0:0:
369,177,80422,5,10,0:0:0:0:
496,240,80572,1,0,3:2:0:0:
340,269,80722,5,8,0:0:0:0:
447,317,80872,1,0,3:2:0:0:
453,323,80947,1,0,3:2:0:0:
460,328,81022,2,0,B|492:347|534:334|534:334|502:363,1,115.199996484375,10|0,0:0|0:0,0:0:0:0:
251,356,81322,5,8,3:0:0:0:
172,363,81422,1,8,3:0:0:0:
107,324,81522,1,8,3:0:0:0:
78,250,81622,2,0,P|41:226|-12:228,1,86.3999973632813,6|0,3:2|3:0,0:0:0:0:
123,47,81922,5,2,3:2:0:0:
123,47,82072,2,0,B|228:12|186:109|317:83,1,172.799994726563,2|2,3:2|3:2,0:0:0:0:
349,27,82522,1,0,3:0:0:0:
464,77,82672,6,0,P|451:121|468:177,1,86.3999973632813,2|0,3:2|3:0,0:0:0:0:
477,261,82972,2,0,P|484:303|471:344,1,86.3999973632813,10|0,0:0|3:0,0:0:0:0:
338,356,83272,1,2,3:2:0:0:
338,356,83347,1,0,3:0:0:0:
338,356,83422,2,0,B|302:354|273:369|273:369|282:351,1,86.3999973632813,8|2,0:0|3:2,0:0:0:0:
372,233,83722,1,0,3:0:0:0:
255,113,83872,1,0,3:0:0:0:
224,112,83947,1,0,3:0:0:0:
193,114,84022,6,0,B|186:163|186:163|191:218,1,86.3999973632813,6|0,3:2|3:0,0:0:0:0:
213,321,84322,1,2,3:2:0:0:
140,371,84472,2,0,P|90:379|39:365,1,86.3999973632813,2|8,3:2|0:0,0:0:0:0:
0,291,84772,1,2,3:2:0:0:
0,291,84922,1,0,3:0:0:0:
11,168,85072,6,0,L|76:161,1,57.5999982421876,2|0,0:0|0:0,0:0:0:0:
190,199,85372,2,0,L|118:204,1,57.5999982421876,2|0,0:0|0:0,0:0:0:0:
11,168,85672,1,2,0:0:0:0:
11,168,85972,6,0,B|70:162|70:162|130:203|130:203|198:198,1,192,2|0,0:0|0:0,0:0:0:0:
346,40,86722,5,4,3:2:0:0:
346,40,86872,1,0,3:2:0:0:
258,181,87022,2,0,B|222:198|177:186|177:186|200:209,1,100.799996923828,12|0,0:3|0:0,0:0:0:0:
346,40,87322,5,0,3:0:0:0:
346,40,87472,1,0,3:0:0:0:
430,210,87622,2,0,P|492:202|512:170,1,100.799996923828,12|0,0:3|0:0,0:0:0:0:
346,40,87922,5,0,3:0:0:0:
258,181,88072,1,0,3:0:0:0:
160,51,88222,2,0,P|98:52|60:80,1,100.799996923828,12|0,0:3|0:0,0:0:0:0:
134,337,88522,5,0,3:0:0:0:
258,181,88672,1,0,3:0:0:0:
365,352,88822,2,0,P|426:363|490:332,1,100.799996923828,12|0,0:3|0:0,0:0:0:0:
433,44,89122,6,0,P|405:89|488:79,1,151.199995385742,0|0,3:0|0:0,0:0:0:0:
368,109,89422,2,0,B|335:107|306:123|306:123|289:110|259:104,1,100.799996923828,12|0,0:3|0:0,0:0:0:0:
359,202,89722,1,0,3:0:0:0:
359,202,89872,1,0,3:0:0:0:
253,312,90022,2,0,B|220:310|191:326|191:326|174:315|148:310,1,100.799996923828,12|0,0:3|0:0,0:0:0:0:
0,201,90322,5,0,3:0:0:0:
150,294,90472,1,0,3:0:0:0:
55,113,90622,1,12,0:3:0:0:
142,277,90772,1,0,0:0:0:0:
156,75,90922,1,0,3:0:0:0:
136,259,91072,1,0,3:0:0:0:
295,137,91222,5,12,0:3:0:0:
333,133,91297,1,8,0:0:0:0:
371,131,91372,1,8,0:0:0:0:
409,129,91447,1,8,0:0:0:0:
444,143,91522,6,0,B|466:194|466:194|460:305,1,151.199995385742,4|0,3:2|0:0,0:0:0:0:
387,331,91822,2,0,B|334:321|334:321|283:327,1,100.799996923828,12|0,0:3|0:0,0:0:0:0:
156,173,92122,1,0,3:0:0:0:
156,173,92272,1,0,3:0:0:0:
41,302,92422,2,0,B|23:330|18:363|18:363|10:342|11:314,1,100.799996923828,12|0,0:3|0:0,0:0:0:0:
156,173,92722,5,0,3:0:0:0:
142,371,92872,1,0,3:0:0:0:
251,229,93022,2,0,P|304:217|384:247,1,100.799996923828,12|0,0:3|0:0,0:0:0:0:
468,343,93322,5,0,3:0:0:0:
462,113,93472,1,0,3:0:0:0:
468,343,93622,2,0,B|409:332|371:363|371:363|353:344|324:333,1,151.199995385742,12|0,0:3|3:0,0:0:0:0:
253,357,93922,5,0,3:0:0:0:
253,357,94072,1,0,3:0:0:0:
161,288,94222,2,0,B|126:282|126:282|85:287|85:287|105:268,1,100.799996923828,12|0,0:3|0:0,0:0:0:0:
385,69,94522,5,0,3:0:0:0:
276,278,94672,1,0,3:0:0:0:
182,62,94822,2,0,P|126:53|76:80,1,100.799996923828,12|0,0:0|3:0,0:0:0:0:
161,288,95122,5,12,0:0:0:0:
284,64,95272,1,0,3:0:0:0:
395,295,95422,1,0,3:0:0:0:
141,130,95572,5,12,0:0:0:0:
269,364,95722,1,0,3:0:0:0:
420,144,95872,1,0,3:0:0:0:
215,278,96022,5,8,0:0:0:0:
161,288,96097,5,8,0:0:0:0:
135,240,96172,5,8,0:0:0:0:
172,200,96247,5,8,0:0:0:0:
223,223,96322,6,0,B|261:214|298:230|298:230|307:256|334:278|334:278|379:262|428:277,1,230.39999296875,2|0,0:0|0:0,0:0:0:0:
