osu file format v14

[General]
AudioFilename: audio.mp3
AudioLeadIn: 0
PreviewTime: 37897
Countdown: 0
SampleSet: Soft
StackLeniency: 0.7
Mode: 0
LetterboxInBreaks: 0
WidescreenStoryboard: 1

[Editor]
DistanceSpacing: 1.1
BeatDivisor: 2
GridSize: 32
TimelineZoom: 2.3

[Metadata]
Title:STRUGGLES
TitleUnicode:STRUGGLES
Artist:Primary
ArtistUnicode:Primary
Creator:keeVY
Version:Normal
Source:
Tags:Lafayla NeKroMan4ik yuiko 10th single c88 meis clauson yuikonnu cut version ver female vocalist japanese rock pop
BeatmapID:2458089
BeatmapSetID:1159351

[Difficulty]
HPDrainRate:3
CircleSize:3
OverallDifficulty:4
ApproachRate:5.5
SliderMultiplier:1.1
SliderTickRate:1

[Events]
//Background and Video events
0,0,"bg.jpg",0,0
//Break Periods
//Storyboard Layer 0 (Background)
//Storyboard Layer 1 (Fail)
//Storyboard Layer 2 (Pass)
//Storyboard Layer 3 (Foreground)
//Storyboard Layer 4 (Overlay)
//Storyboard Sound Samples

[TimingPoints]
22,300,4,2,1,5,1,0
22,-100,4,2,1,5,0,0
622,-100,4,2,1,15,0,0
1222,-100,4,2,1,25,0,0
1822,-100,4,2,1,35,0,0
2422,-100,4,2,1,45,0,0
3022,-100,4,2,1,55,0,0
3622,-100,4,2,1,65,0,0
4822,-100,4,2,1,75,0,0
13222,-100,4,2,1,85,0,0
14422,-100,4,2,1,65,0,0
23722,-100,4,2,1,70,0,0
24022,-100,4,2,1,75,0,0
33322,-100,4,2,2,75,0,0
33622,-100,4,2,1,70,0,0
37222,-100,4,2,1,65,0,0
38422,-100,4,2,1,95,0,1
47422,-100,4,2,1,95,0,0
48022,-100,4,2,1,95,0,1
57622,-100,4,2,1,80,0,0
62422,-100,4,2,1,95,0,1
71422,-100,4,2,1,90,0,0
72022,-100,4,2,1,95,0,1
81322,-100,4,2,2,95,0,1
81622,-100,4,2,1,95,0,0
86722,300,4,2,1,75,1,0
86722,-100,4,2,1,75,0,0
96322,-166.666666666667,4,2,1,65,0,0
96622,-166.666666666667,4,2,1,50,0,0
96922,-166.666666666667,4,2,1,35,0,0
97222,-166.666666666667,4,2,1,20,0,0
97522,-166.666666666667,4,2,1,5,0,0

[Colours]
Combo1 : 255,140,140
Combo2 : 145,185,220
Combo3 : 160,230,170
Combo4 : 150,150,210

[HitObjects]
106,52,4222,6,0,L|182:61,2,55,8|8|8,0:0|0:0|0:0,0:0:0:0:
60,90,4672,1,8,0:0:0:0:
60,90,4822,2,0,B|44:143|99:146|56:224,1,110,4|12,3:2|0:3,0:0:0:0:
97,314,5422,2,0,P|134:331|178:332,1,55,0|0,3:0|3:0,0:0:0:0:
205,315,5722,1,12,0:3:0:0:
309,254,6022,2,0,P|291:222|289:193,1,55,0|0,3:0|3:0,0:0:0:0:
329,158,6322,2,0,P|342:130|345:106,1,55,12|0,0:3|0:0,0:0:0:0:
330,47,6622,2,0,P|301:34|272:34,2,55,0|0|12,3:0|3:0|0:3,0:0:0:0:
439,103,7222,6,0,B|447:154|447:154|444:160|444:160|450:221,1,110,0|12,3:0|0:3,0:0:0:0:
484,266,7672,1,0,0:0:0:0:
484,266,7822,2,0,P|466:330|420:358,1,110,0|12,3:0|0:3,0:0:0:0:
323,301,8422,2,0,P|282:302|255:308,1,55,0|0,3:0|3:0,0:0:0:0:
238,357,8722,1,12,0:3:0:0:
133,326,9022,2,0,L|118:266,2,55,0|0|12,3:0|3:0|0:3,0:0:0:0:
16,359,9622,6,0,P|-12:296|33:234,1,110,4|12,3:2|0:3,0:0:0:0:
45,219,10072,1,0,0:0:0:0:
45,219,10222,2,0,B|61:173|61:173|40:90,1,110,0|12,3:0|0:3,0:0:0:0:
115,14,10822,2,0,L|188:8,1,55,0|0,3:0|3:0,0:0:0:0:
224,36,11122,2,0,L|292:46,1,55,12|0,0:3|0:0,0:0:0:0:
334,20,11422,2,0,L|402:15,2,55,0|0|12,3:0|3:0|0:3,0:0:0:0:
272,124,12022,6,0,P|248:176|263:250,1,110,0|12,3:0|0:3,0:0:0:0:
342,308,12622,2,0,L|415:306,1,55,0|0,3:0|3:0,0:0:0:0:
453,285,12922,1,12,0:0:0:0:
462,164,13222,6,0,B|435:75|511:93|463:-25,2,165,12|12|8,0:0|0:0|0:0,0:0:0:0:
453,285,14422,6,0,L|514:300,2,55,4|0|10,3:2|3:0|0:0,0:0:0:0:
342,336,15022,1,2,0:0:0:0:
250,257,15322,2,0,P|244:223|259:187,1,55,10|2,0:0|0:0,0:0:0:0:
300,170,15622,2,0,L|364:167,2,55,2|0|10,3:2|3:0|0:0,0:0:0:0:
251,58,16222,1,2,0:0:0:0:
130,45,16522,1,10,0:0:0:0:
54,139,16822,6,0,L|-2:145,2,55,0|0|10,3:2|3:2|0:0,0:0:0:0:
108,247,17422,1,2,0:0:0:0:
228,241,17722,2,0,P|259:268|275:298,1,55,10|2,0:0|0:0,0:0:0:0:
284,337,18022,2,0,L|254:382,2,55,2|0|10,3:2|3:2|0:0,0:0:0:0:
404,316,18622,2,0,L|423:368,2,55,2|0|10,3:2|3:0|0:0,0:0:0:0:
450,204,19222,6,0,L|524:220,2,55,0|0|10,3:0|3:0|0:0,0:0:0:0:
361,121,19822,1,2,0:0:0:0:
250,170,20122,2,0,P|233:140|214:118,1,55,10|0,0:0|0:0,0:0:0:0:
193,69,20422,2,0,L|211:2,2,55,2|0|10,3:2|3:2|0:0,0:0:0:0:
74,43,21022,1,2,0:0:0:0:
0,124,21322,1,10,0:0:0:0:
81,213,21622,6,0,P|110:202|159:189,2,55,0|0|10,3:0|3:0|0:0,0:0:0:0:
12,312,22222,1,2,0:0:0:0:
114,376,22522,2,0,L|174:362,1,55,10|2,0:0|0:0,0:0:0:0:
227,353,22822,2,0,L|296:367,2,55,2|0|8,3:2|3:2|0:0,0:0:0:0:
203,233,23422,1,2,3:2:0:0:
188,112,23722,1,10,0:0:0:0:
304,74,24022,6,0,B|318:125|318:125|323:128|323:128|341:198,1,110,4|10,3:2|0:0,0:0:0:0:
385,221,24472,1,2,0:0:0:0:
385,221,24622,2,0,P|444:213|481:273,1,110,2|10,3:2|0:0,0:0:0:0:
441,346,25222,2,0,P|395:366|368:365,1,55,2|0,3:2|3:0,0:0:0:0:
339,334,25522,2,0,P|298:323|271:326,1,55,10|0,0:0|0:0,0:0:0:0:
233,353,25822,2,0,P|201:364|173:367,2,55,2|0|10,3:2|3:0|0:0,0:0:0:0:
270,238,26422,6,0,P|260:164|199:135,1,110,0|10,3:0|0:0,0:0:0:0:
176,155,26872,1,2,0:0:0:0:
176,155,27022,2,0,P|106:169|62:132,1,110,2|10,3:2|0:0,0:0:0:0:
41,34,27622,2,0,P|72:21|107:19,1,55,2|0,3:2|3:0,0:0:0:0:
148,41,27922,2,0,P|182:53|213:54,1,55,10|0,0:0|0:0,0:0:0:0:
250,20,28222,2,0,P|315:9|376:45,1,110,2|10,3:2|0:0,0:0:0:0:
443,106,28822,6,0,P|398:149|382:204,1,110,0|10,3:0|0:0,0:0:0:0:
384,258,29272,1,2,0:0:0:0:
384,258,29422,2,0,P|339:284|276:264,1,110,2|10,3:2|0:0,0:0:0:0:
212,174,30022,2,0,P|181:172|138:189,1,55,2|0,3:2|3:0,0:0:0:0:
97,177,30322,2,0,P|72:196|56:226,1,55,10|0,0:0|0:0,0:0:0:0:
12,254,30622,2,0,P|4:294|10:321,2,55,2|0|10,3:2|3:0|0:0,0:0:0:0:
3,133,31222,6,0,P|18:60|88:40,1,110,0|10,3:0|0:0,0:0:0:0:
106,61,31672,1,2,0:0:0:0:
106,61,31822,2,0,L|229:62,1,110,2|10,3:2|0:0,0:0:0:0:
273,37,32272,1,2,0:0:0:0:
273,37,32422,1,2,3:2:0:0:
388,74,32722,1,14,0:0:0:0:
445,180,33022,2,0,L|437:243,1,55,8|0,0:3|3:0,0:0:0:0:
446,294,33322,1,4,0:3:0:0:
347,355,33622,6,0,P|297:339|261:259,1,110,4|2,3:2|3:2,0:0:0:0:
291,239,34072,1,0,3:0:0:0:
291,239,34222,2,0,P|321:163|304:99,1,110,8|2,0:0|3:2,0:0:0:0:
220,65,34822,6,0,B|157:56|170:97|95:84,1,110,0|2,3:0|3:2,0:0:0:0:
63,64,35272,1,0,3:0:0:0:
63,64,35422,2,0,B|39:106|39:106|50:197,1,110,8|2,0:0|3:2,0:0:0:0:
120,263,36022,6,0,B|174:266|174:266|183:272|183:272|268:281,1,110,4|2,3:2|3:2,0:0:0:0:
281,248,36472,1,0,3:0:0:0:
281,248,36622,2,0,P|281:183|331:133,1,110,10|2,0:0|3:2,0:0:0:0:
425,125,37222,1,4,3:2:0:0:
13,134,38422,6,0,P|57:191|66:248,1,110,6|14,3:2|0:3,0:0:0:0:
123,333,39022,2,0,P|160:312|208:303,1,55,2|2,3:2|3:2,0:0:0:0:
228,329,39322,2,0,P|262:348|304:346,1,55,14|2,0:3|3:2,0:0:0:0:
326,314,39622,2,0,P|392:291|401:222,1,110,2|14,3:2|0:3,0:0:0:0:
374,212,40072,1,2,3:2:0:0:
374,212,40222,2,0,P|358:173|366:104,1,110,2|14,3:2|0:3,0:0:0:0:
274,25,40822,1,0,3:2:0:0:
153,20,41122,1,14,0:3:0:0:
68,106,41422,6,0,B|55:184|55:184|68:232|68:232|53:330,2,220,2|2|2,3:2|3:2|3:2,0:0:0:0:
46,55,42772,1,2,3:2:0:0:
46,55,42922,1,14,0:3:0:0:
159,12,43222,6,0,P|223:40|238:105,1,110,2|14,3:2|0:3,0:0:0:0:
227,133,43672,1,2,3:2:0:0:
227,133,43822,2,0,P|212:161|210:194,1,55,2|2,3:2|3:2,0:0:0:0:
230,240,44122,2,0,P|262:266|287:276,1,55,14|2,0:3|3:2,0:0:0:0:
334,278,44422,1,2,3:2:0:0:
454,264,44722,1,14,0:3:0:0:
478,145,45022,2,0,P|436:76|387:60,1,110,2|14,3:2|0:3,0:0:0:0:
292,81,45622,6,0,L|215:70,2,55,0|0|12,3:0|3:0|0:3,0:0:0:0:
327,130,46072,1,0,3:0:0:0:
327,130,46222,2,0,P|353:190|333:265,1,110,2|12,3:2|0:3,0:0:0:0:
306,346,46822,1,2,3:2:0:0:
187,368,47122,1,12,0:3:0:0:
108,283,47422,5,10,3:2:0:0:
108,283,47572,2,0,P|136:257|172:239,2,55,10|10|10,3:2|3:2|0:0,0:0:0:0:
59,246,48022,2,0,P|49:174|106:132,1,110,6|14,3:2|0:3,0:0:0:0:
153,60,48622,2,0,P|190:78|234:74,1,55,2|2,3:2|3:2,0:0:0:0:
256,51,48922,2,0,P|288:41|317:39,1,55,14|2,0:3|3:2,0:0:0:0:
369,37,49222,2,0,P|418:96|414:165,1,110,2|14,3:2|0:3,0:0:0:0:
437,185,49672,1,2,3:2:0:0:
392,300,49972,1,2,3:2:0:0:
392,300,50122,2,0,P|346:293|315:297,1,55,14|0,0:3|3:0,0:0:0:0:
281,317,50422,6,0,P|273:254|222:204,1,110,0|12,3:0|0:3,0:0:0:0:
188,221,50872,1,0,3:0:0:0:
188,221,51022,2,0,P|148:253|88:262,1,110,2|12,3:2|0:3,0:0:0:0:
19,164,51622,2,0,P|31:99|80:63,1,110,2|12,3:2|0:3,0:0:0:0:
181,89,52222,2,0,P|207:103|257:106,1,55,2|2,3:2|3:2,0:0:0:0:
286,82,52522,2,0,P|306:67|343:62,1,55,14|2,0:3|0:3,0:0:0:0:
391,83,52822,6,0,L|391:233,1,110,2|14,3:2|0:3,0:0:0:0:
365,249,53272,1,2,3:2:0:0:
365,249,53422,1,2,3:2:0:0:
412,360,53722,1,14,0:3:0:0:
291,367,54022,2,0,P|217:335|199:282,1,110,2|14,3:2|0:3,0:0:0:0:
233,259,54472,1,2,3:2:0:0:
233,259,54622,2,0,P|246:220|251:189,1,55,2|0,3:2|3:0,0:0:0:0:
233,147,54922,1,14,0:3:0:0:
133,77,55222,6,0,L|103:1,2,55,0|0|12,3:0|3:0|0:3,0:0:0:0:
148,135,55672,1,0,3:0:0:0:
148,135,55822,2,0,P|97:168|72:216,1,110,2|12,3:2|0:3,0:0:0:0:
95,329,56422,2,0,P|153:352|227:331,1,110,2|12,3:2|0:3,0:0:0:0:
318,365,57022,6,0,P|347:369|384:360,2,55,8|10|10,3:2|0:0|3:2,0:0:0:0:
278,318,57472,1,10,0:0:0:0:
278,318,57622,2,0,P|273:238|373:197,1,165,6|2,3:2|3:2,0:0:0:0:
390,221,58222,1,8,0:0:0:0:
389,48,58672,6,0,L|270:35,1,110,2|10,3:2|0:0,0:0:0:0:
161,9,59272,1,2,3:2:0:0:
94,111,59572,2,0,L|23:93,2,55,2|0|0,3:2|3:0|3:0,0:0:0:0:
112,168,60022,6,0,B|220:149|172:221|305:199,1,165,6|2,3:2|3:2,0:0:0:0:
321,174,60622,1,8,0:0:0:0:
423,247,60922,1,0,3:0:0:0:
423,247,61072,2,0,P|442:311|385:360,1,110,6|8,3:2|0:0,0:0:0:0:
362,358,61522,1,8,0:0:0:0:
247,318,61822,2,0,P|206:304|171:303,1,55,8|10,0:0|0:0,0:0:0:0:
141,332,62122,2,0,P|105:340|64:340,1,55,10|10,0:0|0:0,0:0:0:0:
34,310,62422,6,0,L|12:179,1,110,6|14,3:2|0:3,0:0:0:0:
22,141,62872,1,2,3:2:0:0:
116,64,63172,1,2,3:2:0:0:
116,64,63322,2,0,P|148:53|187:61,1,55,14|2,0:3|3:0,0:0:0:0:
223,80,63622,2,0,P|245:115|332:127,1,110,2|14,3:2|0:3,0:0:0:0:
423,95,64222,2,0,P|446:126|462:185,1,55,2|2,3:2|3:2,0:0:0:0:
446,202,64522,2,0,P|430:249|427:285,1,55,14|0,0:3|3:0,0:0:0:0:
391,302,64822,6,0,B|338:295|338:295|332:301|332:301|247:294,1,110,0|12,3:0|0:3,0:0:0:0:
177,239,65422,2,0,P|145:248|115:267,2,55,2|0|12,3:2|3:0|0:3,0:0:0:0:
229,207,65872,1,0,3:0:0:0:
229,207,66022,2,0,L|235:74,1,110,2|12,3:2|0:3,0:0:0:0:
138,22,66622,2,0,P|110:14|79:18,1,55,2|0,3:2|3:0,0:0:0:0:
38,55,66922,2,0,P|22:73|12:106,1,55,14|2,0:3|0:3,0:0:0:0:
54,145,67222,5,2,3:2:0:0:
51,265,67522,2,0,L|-15:285,2,55,14|0|2,0:3|3:0|3:2,0:0:0:0:
113,285,67972,1,2,3:2:0:0:
113,285,68122,2,0,L|203:303,1,55,12|2,0:3|3:2,0:0:0:0:
204,343,68422,1,2,3:2:0:0:
318,305,68722,1,12,0:3:0:0:
318,305,68872,2,0,P|355:281|389:282,1,55,2|0,3:2|3:0,0:0:0:0:
429,284,69172,1,2,3:2:0:0:
429,284,69322,2,0,P|450:226|444:189,1,55,12|0,0:3|3:0,0:0:0:0:
471,177,69622,6,0,P|432:109|362:106,1,110,0|12,3:0|0:3,0:0:0:0:
284,105,70222,2,0,L|221:87,2,55,2|2|12,3:2|3:2|0:3,0:0:0:0:
313,158,70672,1,0,3:0:0:0:
313,158,70822,2,0,P|316:226|288:280,1,110,2|12,3:2|0:3,0:0:0:0:
201,333,71422,2,0,P|155:319|134:320,1,55,14|10,3:2|3:2,0:0:0:0:
93,345,71722,2,0,P|51:343|29:333,1,55,10|10,3:2|0:0,0:0:0:0:
1,291,72022,6,0,L|8:202,1,55,6|0,3:2|3:0,0:0:0:0:
31,181,72322,1,10,0:0:0:0:
146,217,72622,1,10,0:0:0:0:
241,142,72922,2,0,P|277:136|314:147,1,55,10|2,0:0|3:2,0:0:0:0:
327,190,73222,6,0,P|360:223|421:226,1,110,10|10,0:0|0:0,0:0:0:0:
478,200,73672,1,2,3:2:0:0:
478,200,73822,2,0,L|492:140,1,55,10|2,0:0|3:2,0:0:0:0:
460,93,74122,1,10,0:0:0:0:
354,34,74422,6,0,B|302:37|302:37|295:43|295:43|221:47,1,110,8|8,0:0|0:0,0:0:0:0:
191,34,74872,1,0,3:0:0:0:
191,34,75022,2,0,P|157:19|125:19,1,55,10|0,0:0|3:0,0:0:0:0:
85,45,75322,1,8,0:0:0:0:
27,151,75622,1,10,0:0:0:0:
136,202,75922,1,8,0:0:0:0:
185,312,76222,1,10,0:0:0:0:
305,301,76522,1,10,0:0:0:0:
416,347,76822,6,0,P|475:325|476:246,1,110,10|10,0:0|0:0,0:0:0:0:
456,239,77272,1,0,3:2:0:0:
456,239,77422,2,0,P|440:187|440:157,1,55,10|2,0:0|3:2,0:0:0:0:
471,135,77722,1,10,0:0:0:0:
419,25,78022,5,10,0:0:0:0:
298,21,78322,1,10,0:0:0:0:
258,137,78622,1,8,0:0:0:0:
352,212,78922,1,10,0:0:0:0:
304,323,79222,6,0,P|273:336|234:335,1,55,8|0,0:0|3:2,0:0:0:0:
202,302,79522,2,0,P|168:293|127:294,1,55,8|0,0:0|3:2,0:0:0:0:
100,329,79822,2,0,P|64:335|39:331,2,55,10|0|8,0:0|3:2|0:0,0:0:0:0:
133,212,80422,2,0,P|170:135|233:101,1,110,10|8,0:0|0:0,0:0:0:0:
246,134,80872,1,0,3:2:0:0:
246,134,81022,1,10,0:0:0:0:
346,200,81322,2,0,P|376:208|413:204,1,55,8|0,3:0|0:0,0:0:0:0:
454,179,81622,6,0,P|476:100|391:24,1,165,6|2,3:2|3:2,0:0:0:0:
370,37,82222,2,0,P|312:53|233:16,1,110,8|0,0:0|3:0,0:0:0:0:
209,16,82672,1,2,3:2:0:0:
96,51,82972,1,10,0:0:0:0:
96,51,83122,2,0,L|84:116,1,55,0|2,3:0|3:2,0:0:0:0:
106,163,83422,2,0,L|121:298,1,110,8|0,0:0|3:0,0:0:0:0:
224,330,84022,6,0,B|328:293|282:387|418:354,1,165,6|2,3:2|3:2,0:0:0:0:
430,331,84622,2,0,P|446:271|404:216,1,110,8|0,0:0|3:0,0:0:0:0:
365,218,85072,1,2,0:0:0:0:
288,32,86722,6,0,L|213:19,2,55,4|0|12,3:2|3:2|0:3,0:0:0:0:
398,82,87322,2,0,L|461:75,2,55,0|0|12,3:0|3:0|0:3,0:0:0:0:
286,127,87922,2,0,P|277:159|278:186,1,55,0|0,3:0|3:0,0:0:0:0:
267,240,88222,2,0,P|289:269|317:279,1,55,12|0,0:3|0:0,0:0:0:0:
348,319,88522,2,0,P|387:327|417:326,2,55,0|0|12,3:0|3:0|0:3,0:0:0:0:
237,367,89122,6,0,B|167:346|185:391|77:357,1,110,0|12,3:0|0:3,0:0:0:0:
82,329,89572,1,0,0:0:0:0:
82,329,89722,2,0,L|68:211,1,110,0|12,3:0|0:3,0:0:0:0:
54,99,90322,2,0,L|-22:87,2,55,0|0|12,3:0|3:0|0:3,0:0:0:0:
113,127,90772,1,0,0:0:0:0:
113,127,90922,2,0,L|182:121,1,55,0|0,3:0|3:0,0:0:0:0:
211,81,91222,1,12,0:3:0:0:
321,130,91522,6,0,B|337:178|288:191|316:259,1,110,4|12,3:2|0:3,0:0:0:0:
385,330,92122,2,0,L|374:386,2,55,0|0|12,3:0|3:0|0:3,0:0:0:0:
492,275,92722,2,0,P|482:231|481:198,1,55,0|0,3:0|3:0,0:0:0:0:
512,169,93022,2,0,P|513:130|509:101,1,55,12|0,0:3|0:0,0:0:0:0:
472,68,93322,2,0,P|471:33|476:14,2,55,0|0|12,3:0|3:0|0:3,0:0:0:0:
390,158,93922,6,0,P|331:195|256:175,1,110,0|12,3:0|0:3,0:0:0:0:
218,98,94522,2,0,P|153:79|131:77,1,55,0|0,3:0|3:0,0:0:0:0:
106,96,94822,1,12,0:0:0:0:
23,184,95122,6,0,L|12:311,1,110,12|0,0:0|3:0,0:0:0:0:
60,332,95572,2,0,P|108:360|179:340,1,110,12|0,0:0|3:0,0:0:0:0:
201,309,96022,2,0,P|232:298|264:299,1,55,8|8,0:0|0:0,0:0:0:0:
298,319,96322,6,0,B|348:358|418:328|418:328|410:237|337:227|337:227,1,263.99999194336,2|0,0:0|0:0,0:0:0:0:
