osu file format v14

[General]
AudioFilename: audio.mp3
AudioLeadIn: 0
PreviewTime: 37897
Countdown: 0
SampleSet: Soft
StackLeniency: 0.2
Mode: 0
LetterboxInBreaks: 0
WidescreenStoryboard: 1

[Editor]
Bookmarks: 14422,90997
DistanceSpacing: 1.1
BeatDivisor: 6
GridSize: 32
TimelineZoom: 2.3

[Metadata]
Title:STRUGGLES
TitleUnicode:STRUGGLES
Artist:Primary
ArtistUnicode:Primary
Creator:keeVY
Version:NeKro's Expert
Source:
Tags:Lafayla NeKroMan4ik yuiko 10th single c88 meis clauson yuikonnu cut version ver female vocalist japanese rock pop
BeatmapID:2474809
BeatmapSetID:1159351

[Difficulty]
HPDrainRate:5.2
CircleSize:4
OverallDifficulty:8.5
ApproachRate:9.2
SliderMultiplier:1.74
SliderTickRate:1

[Events]
//Background and Video events
0,0,"bg.jpg",0,0
//Break Periods
//Storyboard Layer 0 (Background)
//Storyboard Layer 1 (Fail)
//Storyboard Layer 2 (Pass)
//Storyboard Layer 3 (Foreground)
//Storyboard Layer 4 (Overlay)
//Storyboard Sound Samples

[TimingPoints]
22,300,4,2,1,5,1,0
622,-100,4,2,1,15,0,0
1222,-100,4,2,1,25,0,0
1822,-100,4,2,1,35,0,0
2422,-100,4,2,1,45,0,0
3022,-100,4,2,1,55,0,0
3622,-100,4,2,1,65,0,0
4072,-100,4,2,1,5,0,0
4222,-100,4,2,1,65,0,0
4822,-100,4,2,1,75,0,0
7147,-100,4,2,1,5,0,0
7222,-100,4,2,1,75,0,0
7447,-100,4,2,1,5,0,0
7522,-100,4,2,1,75,0,0
9847,-100,4,2,1,5,0,0
9922,-100,4,2,1,75,0,0
12247,-100,4,2,1,5,0,0
12322,-100,4,2,1,75,0,0
13147,-100,4,2,1,5,0,0
13222,-100,4,2,1,85,0,0
14422,-100,4,2,1,65,0,0
14722,-117.647058823529,4,2,1,65,0,0
23722,-117.647058823529,4,2,1,70,0,0
24022,-100,4,2,1,75,0,0
33172,-100,4,2,2,75,0,0
33622,-111.111111111111,4,2,1,70,0,0
37222,-166.666666666667,4,2,1,65,0,0
38347,-166.666666666667,4,2,1,5,0,0
38422,-90.9090909090909,4,2,1,95,0,1
38647,-90.9090909090909,4,2,1,5,0,1
38722,-90.9090909090909,4,2,1,95,0,1
39847,-90.9090909090909,4,2,1,5,0,1
39922,-90.9090909090909,4,2,1,95,0,1
43072,-90.9090909090909,4,2,0,95,0,1
43222,-90.9090909090909,4,2,1,95,0,1
43447,-90.9090909090909,4,2,1,5,0,1
43522,-90.9090909090909,4,2,1,95,0,1
45847,-90.9090909090909,4,2,1,5,0,1
45922,-90.9090909090909,4,2,1,95,0,1
47422,-90.9090909090909,4,2,1,95,0,0
48022,-90.9090909090909,4,2,1,95,0,1
48247,-90.9090909090909,4,2,1,5,0,1
48322,-90.9090909090909,4,2,1,95,0,1
50647,-90.9090909090909,4,2,1,5,0,1
50722,-90.9090909090909,4,2,1,95,0,1
52672,-90.9090909090909,4,2,0,95,0,1
52822,-90.9090909090909,4,2,1,95,0,1
53047,-90.9090909090909,4,2,1,5,0,1
53122,-90.9090909090909,4,2,1,95,0,1
54247,-90.9090909090909,4,2,1,5,0,1
54322,-90.9090909090909,4,2,1,95,0,1
57622,-111.111111111111,4,2,1,80,0,0
62422,-90.9090909090909,4,2,1,95,0,1
62647,-90.9090909090909,4,2,1,5,0,1
62722,-90.9090909090909,4,2,1,95,0,1
63847,-90.9090909090909,4,2,1,5,0,1
63922,-90.9090909090909,4,2,1,95,0,1
67072,-90.9090909090909,4,2,0,95,0,1
67222,-90.9090909090909,4,2,1,95,0,1
67447,-90.9090909090909,4,2,1,5,0,1
67522,-90.9090909090909,4,2,1,95,0,1
71422,-90.9090909090909,4,2,1,90,0,0
72022,-90.9090909090909,4,2,1,95,0,1
81322,-111.111111111111,4,2,2,95,0,1
81622,-111.111111111111,4,2,1,95,0,0
85072,-111.111111111111,4,2,1,65,0,0
86572,-111.111111111111,4,2,1,5,0,0
86722,300,4,2,1,75,1,0
89347,-100,4,2,1,5,0,0
89422,-100,4,2,1,75,0,0
91747,-100,4,2,1,5,0,0
91822,-100,4,2,1,75,0,0
93847,-100,4,2,1,5,0,0
93922,-100,4,2,1,75,0,0
95047,-100,4,2,1,5,0,0
95122,-100,4,2,1,75,0,0
96322,-100,4,2,1,65,0,0

[Colours]
Combo1 : 255,140,140
Combo2 : 145,185,220
Combo3 : 160,230,170
Combo4 : 150,150,210

[HitObjects]
305,121,4222,5,8,0:0:0:0:
296,130,4297,1,8,0:0:0:0:
287,139,4372,2,0,P|259:131|225:112,1,43.5,8|8,0:0|0:0,0:0:0:0:
170,31,4522,5,8,0:0:0:0:
161,22,4597,1,8,0:0:0:0:
152,13,4672,2,0,P|124:21|90:40,1,43.5,8|8,0:0|0:0,0:0:0:0:
0,152,4822,6,0,P|39:165|110:177,1,87,4|0,3:2|3:2,0:0:0:0:
203,115,5122,1,12,0:3:0:0:
46,276,5272,1,0,0:0:0:0:
158,384,5422,2,0,L|177:285,1,87,0|0,3:0|3:0,0:0:0:0:
310,135,5722,2,0,P|345:166|330:232,1,87,12|0,0:3|0:0,0:0:0:0:
180,181,6022,6,0,P|120:170|62:151,1,87,0|0,3:0|3:0,0:0:0:0:
286,337,6322,2,0,P|346:326|404:307,1,87,12|0,0:3|0:0,0:0:0:0:
480,131,6622,1,0,3:0:0:0:
319,244,6772,1,0,3:0:0:0:
494,301,6922,1,12,0:3:0:0:
352,147,7072,1,0,0:0:0:0:
512,3,7222,6,0,L|494:107,1,87,0|0,3:0|3:0,0:0:0:0:
411,222,7522,1,12,0:3:0:0:
321,46,7672,1,0,0:0:0:0:
177,116,7822,2,0,P|220:121|262:130,1,87,0|0,3:0|3:0,0:0:0:0:
85,13,8122,2,0,L|0:28,1,87,12|0,0:3|0:0,0:0:0:0:
8,159,8422,5,0,3:0:0:0:
73,189,8572,1,0,3:0:0:0:
97,323,8722,2,0,P|51:313|12:308,1,87,12|0,0:3|0:0,0:0:0:0:
227,217,9022,2,0,L|312:202,1,87,0|0,3:0|3:0,0:0:0:0:
160,64,9322,2,0,P|129:110|145:148,1,87,12|0,0:3|0:0,0:0:0:0:
279,384,9622,6,0,P|286:339|294:299,1,87,4|0,3:2|3:0,0:0:0:0:
245,130,9922,1,12,0:3:0:0:
445,277,10072,1,0,0:0:0:0:
510,195,10222,6,0,L|425:180,1,87,0|0,3:0|3:0,0:0:0:0:
225,30,10522,2,0,P|261:7|303:13,1,87,12|0,0:3|0:0,0:0:0:0:
289,241,10822,6,0,P|281:198|271:155,1,87,0|0,3:0|3:0,0:0:0:0:
457,5,11122,2,0,P|464:47|474:90,1,87,12|0,0:3|0:0,0:0:0:0:
445,277,11422,1,0,3:0:0:0:
362,103,11572,1,0,3:0:0:0:
512,199,11722,1,12,0:3:0:0:
346,315,11872,1,0,0:0:0:0:
189,232,12022,6,0,P|231:214|290:201,1,87,0|0,3:0|3:0,0:0:0:0:
121,343,12322,1,12,0:3:0:0:
0,223,12472,1,0,0:0:0:0:
95,88,12622,2,0,L|82:174,1,87,0|0,3:0|3:0,0:0:0:0:
282,82,12922,6,0,P|224:63|232:3,1,130.5,12|0,0:0|0:0,0:0:0:0:
256,0,13222,5,12,0:0:0:0:
391,109,13372,1,0,3:0:0:0:
351,171,13522,1,0,3:0:0:0:
512,304,13672,5,12,0:0:0:0:
437,181,13822,1,0,3:0:0:0:
512,111,13972,1,0,3:0:0:0:
376,297,14122,6,0,P|346:282|306:275,1,43.5,8|8,0:0|0:0,0:0:0:0:
235,179,14272,2,0,P|205:194|165:201,1,43.5,8|8,0:0|0:0,0:0:0:0:
76,325,14422,6,0,P|129:335|170:350,1,87,4|0,3:2|3:0,0:0:0:0:
37,255,14722,1,10,0:0:0:0:
37,255,14872,1,2,0:0:0:0:
86,159,15022,2,0,B|61:67|61:67|-3:60,1,147.900002820969,2|10,0:0|0:0,0:0:0:0:
0,138,15472,1,2,0:0:0:0:
147,39,15622,6,0,P|183:47|234:54,1,73.9500014104843,2|0,3:2|3:2,0:0:0:0:
312,126,15922,2,0,L|399:111,1,73.9500014104843,10|0,0:0|0:0,0:0:0:0:
512,0,16222,2,0,P|482:32|479:80,1,73.9500014104843,2|0,0:0|0:0,0:0:0:0:
512,236,16522,2,0,P|499:194|459:167,1,73.9500014104843,10|0,0:0|0:0,0:0:0:0:
336,222,16822,5,0,3:0:0:0:
447,340,16972,1,0,3:0:0:0:
343,384,17122,2,0,L|329:293,1,73.9500014104843,10|2,0:0|0:0,0:0:0:0:
220,198,17422,2,0,P|211:256|117:269,1,147.900002820969,2|10,0:0|0:0,0:0:0:0:
0,193,17872,1,2,0:0:0:0:
72,112,18022,6,0,L|87:200,1,73.9500014104843,2|0,3:2|3:0,0:0:0:0:
203,72,18322,2,0,L|215:0,1,73.9500014104843,10|0,0:0|0:0,0:0:0:0:
347,131,18622,2,0,P|297:152|255:129,1,73.9500014104843,2|0,3:2|3:0,0:0:0:0:
418,42,18922,2,0,L|490:54,1,73.9500014104843,10|0,0:0|0:0,0:0:0:0:
469,191,19222,5,0,3:0:0:0:
410,236,19372,1,0,3:0:0:0:
512,336,19522,2,0,P|461:320|408:312,1,73.9500014104843,10|2,0:0|0:0,0:0:0:0:
332,203,19822,2,0,B|306:189|277:202|277:202|255:306,1,147.900002820969,2|10,0:0|0:0,0:0:0:0:
141,384,20272,1,0,0:0:0:0:
87,334,20422,6,0,L|71:244,1,73.9500014104843,2|0,3:2|3:2,0:0:0:0:
171,179,20722,2,0,L|187:89,1,73.9500014104843,10|0,0:0|0:0,0:0:0:0:
87,139,21022,2,0,P|42:154|-2:157,1,73.9500014104843,2|0,0:0|0:0,0:0:0:0:
176,10,21322,2,0,L|266:26,1,73.9500014104843,10|0,0:0|0:0,0:0:0:0:
362,126,21622,6,0,P|314:140|296:188,1,73.9500014104843,0|0,3:0|3:0,0:0:0:0:
322,333,21922,1,10,0:0:0:0:
322,333,22072,1,2,0:0:0:0:
452,290,22222,2,0,B|377:293|384:241|295:253,1,147.900002820969,2|10,0:0|0:0,0:0:0:0:
172,366,22672,1,2,0:0:0:0:
109,314,22822,6,0,P|147:287|194:294,1,73.9500014104843,2|0,3:2|3:0,0:0:0:0:
73,188,23122,2,0,L|-12:176,1,73.9500014104843,10|0,0:0|0:0,0:0:0:0:
138,67,23422,2,0,P|159:96|194:108,1,73.9500014104843,2|0,3:2|3:0,0:0:0:0:
342,52,23722,1,10,0:0:0:0:
361,20,23797,1,8,0:0:0:0:
394,5,23872,1,8,0:0:0:0:
430,10,23947,1,8,0:0:0:0:
457,35,24022,6,0,L|444:127,1,87,4|0,3:2|3:0,0:0:0:0:
367,173,24322,1,10,0:0:0:0:
476,313,24472,1,2,0:0:0:0:
363,384,24622,2,0,P|357:340|348:293,1,87,2|0,3:2|3:0,0:0:0:0:
191,189,24922,1,10,0:0:0:0:
191,189,25072,1,2,0:0:0:0:
134,257,25222,6,0,P|168:283|229:254,1,87,2|0,3:2|3:0,0:0:0:0:
362,102,25522,2,0,L|276:117,1,87,10|0,0:0|0:0,0:0:0:0:
467,252,25822,2,0,P|493:218|465:156,1,87,2|0,3:2|3:0,0:0:0:0:
362,296,26122,2,0,P|368:340|376:385,1,87,10|0,0:0|0:0,0:0:0:0:
233,232,26422,5,0,3:0:0:0:
233,232,26572,1,0,3:0:0:0:
120,384,26722,1,10,0:0:0:0:
256,317,26872,1,2,0:0:0:0:
131,162,27022,2,0,L|147:250,1,87,2|0,3:2|3:0,0:0:0:0:
56,224,27322,1,10,0:0:0:0:
193,100,27472,1,2,0:0:0:0:
44,0,27622,6,0,L|28:88,1,87,2|0,3:2|3:0,0:0:0:0:
146,247,27922,2,0,P|169:207|150:156,1,87,10|0,0:0|0:0,0:0:0:0:
0,343,28222,2,0,P|61:352|108:367,1,87,2|0,3:2|3:2,0:0:0:0:
327,236,28522,2,0,L|241:251,1,87,10|0,0:0|0:0,0:0:0:0:
426,362,28822,5,0,3:0:0:0:
426,362,28972,1,0,3:0:0:0:
485,248,29122,1,10,0:0:0:0:
439,190,29272,1,2,0:0:0:0:
473,37,29422,2,0,P|513:73|498:123,1,87,2|0,3:2|3:0,0:0:0:0:
327,236,29722,2,0,L|340:144,1,87,10|0,0:0|0:0,0:0:0:0:
282,10,30022,6,0,P|240:14|216:49,1,87,2|0,3:2|3:0,0:0:0:0:
146,112,30322,2,0,L|53:132,1,87,10|0,0:0|0:0,0:0:0:0:
241,217,30622,2,0,L|334:237,1,87,2|0,3:2|3:0,0:0:0:0:
148,367,30922,2,0,P|133:327|159:284,1,87,10|0,0:0|0:0,0:0:0:0:
311,144,31222,5,0,3:0:0:0:
311,144,31372,1,0,3:0:0:0:
225,330,31522,1,10,0:0:0:0:
407,212,31672,1,2,0:0:0:0:
226,71,31822,2,0,L|208:181,1,87,2|0,3:2|3:0,0:0:0:0:
147,222,32122,1,10,0:0:0:0:
234,379,32272,1,2,0:0:0:0:
234,379,32422,6,0,P|274:358|333:373,1,87,2|0,3:2|3:0,0:0:0:0:
483,250,32722,2,0,L|382:231,1,87,14|14,0:0|3:2,0:0:0:0:
343,182,32947,1,8,0:0:0:0:
335,175,33022,5,8,0:0:0:0:
512,98,33172,1,8,0:3:0:0:
384,0,33322,1,4,0:3:0:0:
255,289,33622,6,0,P|213:280|152:271,1,78.2999976104737,4|0,3:2|3:0,0:0:0:0:
18,195,33922,2,0,P|60:186|121:177,1,78.2999976104737,2|0,3:2|3:0,0:0:0:0:
181,87,34222,1,8,0:0:0:0:
240,42,34372,1,0,3:0:0:0:
323,88,34522,1,2,3:2:0:0:
254,62,34672,1,0,3:0:0:0:
396,6,34822,6,0,P|418:42|474:50,1,78.2999976104737,0|8,3:0|0:0,0:0:0:0:
494,161,35122,2,0,P|443:171|397:188,1,78.2999976104737,2|0,3:2|3:0,0:0:0:0:
333,286,35422,1,8,0:0:0:0:
270,253,35572,1,0,3:0:0:0:
345,304,35722,1,2,3:2:0:0:
264,346,35872,1,0,3:0:0:0:
264,346,35947,1,0,3:0:0:0:
264,346,36022,6,0,P|221:337|165:313,1,78.2999976104737,4|0,3:2|3:0,0:0:0:0:
53,247,36322,2,0,P|96:238|152:214,1,78.2999976104737,2|0,3:2|3:0,0:0:0:0:
213,144,36622,2,0,P|197:109|218:70,1,78.2999976104737,10|0,0:0|3:0,0:0:0:0:
95,0,36922,2,0,P|89:41|81:93,1,78.2999976104737,2|0,3:2|3:2,0:0:0:0:
0,164,37222,5,4,3:2:0:0:
140,68,38422,6,0,L|167:223,1,143.550004380798,6|0,3:2|0:0,0:0:0:0:
155,227,38722,2,0,P|122:186|136:145,1,95.7000029205323,14|0,0:3|0:0,0:0:0:0:
293,94,39022,1,2,3:2:0:0:
82,268,39172,1,2,3:2:0:0:
335,335,39322,1,14,0:3:0:0:
229,193,39472,1,2,3:2:0:0:
398,4,39622,6,0,L|417:102,1,95.7000029205323,2|0,3:2|3:0,0:0:0:0:
367,170,39922,1,14,0:3:0:0:
507,291,40072,1,2,3:2:0:0:
381,379,40222,2,0,P|332:364|252:360,1,95.7000029205323,2|0,3:2|3:0,0:0:0:0:
135,212,40522,2,0,L|228:192,1,95.7000029205323,14|0,0:3|3:0,0:0:0:0:
372,56,40822,5,0,3:2:0:0:
372,56,40972,1,0,3:2:0:0:
465,219,41122,2,0,L|484:125,1,95.7000029205323,14|0,0:3|3:0,0:0:0:0:
329,220,41422,5,2,3:2:0:0:
329,220,41572,1,0,3:0:0:0:
236,383,41722,2,0,P|227:335|217:289,1,95.7000029205323,12|0,0:3|3:0,0:0:0:0:
106,213,42022,5,2,3:2:0:0:
273,81,42172,1,0,3:0:0:0:
158,0,42322,2,0,L|143:121,1,95.7000029205323,12|0,0:3|3:0,0:0:0:0:
192,168,42622,5,2,3:2:0:0:
373,237,42772,1,2,3:2:0:0:
236,383,42922,2,0,P|215:344|244:287,1,95.7000029205323,14|2,0:3|0:3,0:0:0:0:
293,229,43147,1,2,0:3:0:0:
301,238,43222,6,0,L|328:393,1,143.550004380798,2|0,3:2|0:0,0:0:0:0:
349,384,43522,1,14,0:3:0:0:
508,272,43672,1,2,3:2:0:0:
452,225,43822,1,2,3:2:0:0:
351,90,43972,1,2,3:2:0:0:
414,40,44122,2,0,B|437:83|437:83|422:127,1,95.7000029205323,14|2,0:3|3:2,0:0:0:0:
269,275,44422,6,0,L|252:173,1,95.7000029205323,2|2,3:2|3:2,0:0:0:0:
207,120,44647,1,0,3:0:0:0:
198,113,44722,2,0,P|151:100|104:95,1,95.7000029205323,14|0,0:3|3:2,0:0:0:0:
346,220,45022,2,0,L|446:239,1,95.7000029205323,2|0,3:2|3:2,0:0:0:0:
195,348,45322,2,0,P|150:335|101:365,1,95.7000029205323,14|0,0:3|3:0,0:0:0:0:
232,214,45622,5,0,3:0:0:0:
232,214,45772,1,0,3:0:0:0:
122,69,45922,2,0,L|104:182,1,95.7000029205323,12|0,0:3|3:0,0:0:0:0:
303,163,46222,5,2,3:2:0:0:
303,163,46372,1,0,3:0:0:0:
413,18,46522,2,0,L|431:131,1,95.7000029205323,12|0,0:3|3:0,0:0:0:0:
333,267,46822,5,2,3:2:0:0:
263,63,46972,1,0,3:2:0:0:
512,179,47122,2,0,P|473:215|426:206,1,95.7000029205323,12|0,0:3|3:0,0:0:0:0:
303,163,47422,5,10,3:2:0:0:
281,145,47497,1,8,0:0:0:0:
253,137,47572,1,10,3:2:0:0:
224,141,47647,1,8,0:0:0:0:
215,149,47722,5,10,3:2:0:0:
219,101,47797,1,8,0:0:0:0:
189,73,47872,1,10,0:0:0:0:
141,72,47947,1,8,0:0:0:0:
132,80,48022,6,0,B|95:108|95:108|127:215,1,143.550004380798,6|0,3:2|0:0,0:0:0:0:
109,216,48322,2,0,L|80:116,1,95.7000029205323,14|0,0:3|3:2,0:0:0:0:
188,147,48622,1,2,3:2:0:0:
0,258,48772,1,2,3:2:0:0:
255,347,48922,1,14,0:3:0:0:
109,216,49072,1,2,3:2:0:0:
286,48,49222,6,0,P|309:93|284:143,1,95.7000029205323,2|2,3:2|3:2,0:0:0:0:
200,243,49522,1,14,0:3:0:0:
352,384,49672,2,0,L|368:277,1,95.7000029205323,2|0,3:2|3:2,0:0:0:0:
512,159,49972,1,2,3:2:0:0:
512,159,50122,2,0,P|469:180|418:155,1,95.7000029205323,14|0,0:3|3:0,0:0:0:0:
255,12,50422,5,0,3:0:0:0:
255,12,50572,1,0,3:0:0:0:
223,103,50722,2,0,L|318:88,1,95.7000029205323,12|0,0:3|3:0,0:0:0:0:
103,270,51022,5,2,3:2:0:0:
103,270,51172,1,0,3:2:0:0:
71,179,51322,2,0,L|166:194,1,95.7000029205323,12|0,0:3|3:0,0:0:0:0:
267,384,51622,5,2,3:2:0:0:
103,270,51772,1,0,3:0:0:0:
258,107,51922,2,0,P|282:153|261:197,1,95.7000029205323,12|0,0:3|3:0,0:0:0:0:
314,260,52222,5,2,3:2:0:0:
512,198,52372,1,2,3:2:0:0:
444,384,52522,2,0,P|437:337|428:285,1,95.7000029205323,14|2,0:3|0:3,0:0:0:0:
385,228,52747,1,2,0:3:0:0:
375,223,52822,6,0,B|458:210|426:171|522:155,1,143.550004380798,2|0,3:2|0:0,0:0:0:0:
512,138,53122,1,14,0:3:0:0:
371,38,53272,1,2,3:2:0:0:
315,86,53422,1,2,3:2:0:0:
375,223,53572,1,2,3:2:0:0:
307,301,53722,2,0,P|255:285|196:277,1,95.7000029205323,14|2,0:3|3:2,0:0:0:0:
20,174,54022,6,0,P|67:165|112:151,1,95.7000029205323,2|0,3:2|3:0,0:0:0:0:
215,8,54322,1,14,0:3:0:0:
305,165,54472,1,2,3:2:0:0:
447,32,54622,2,0,P|416:5|352:12,1,95.7000029205323,2|0,3:2|3:0,0:0:0:0:
440,180,54922,2,0,L|535:193,1,95.7000029205323,14|0,0:3|3:0,0:0:0:0:
468,279,55222,5,0,3:0:0:0:
498,104,55372,1,0,3:0:0:0:
459,290,55522,2,0,L|359:306,1,95.7000029205323,12|0,0:3|3:0,0:0:0:0:
181,155,55822,5,2,3:2:0:0:
151,330,55972,1,0,3:2:0:0:
190,144,56122,2,0,P|241:138|290:128,1,95.7000029205323,12|0,0:3|3:0,0:0:0:0:
487,75,56422,5,2,3:2:0:0:
338,0,56572,1,0,3:0:0:0:
371,175,56722,2,0,L|387:275,1,95.7000029205323,12|8,0:3|3:2,0:0:0:0:
377,285,56947,1,8,0:0:0:0:
370,295,57022,5,8,3:2:0:0:
307,345,57172,1,10,0:0:0:0:
212,288,57322,1,10,3:2:0:0:
132,377,57472,1,10,0:0:0:0:
0,277,57622,6,0,P|37:256|76:247,1,78.2999976104737,6|0,3:2|3:0,0:0:0:0:
145,153,57922,1,2,3:2:0:0:
145,153,58072,2,0,P|182:174|221:183,1,78.2999976104737,2|8,3:2|0:0,0:0:0:0:
294,243,58372,2,0,P|335:231|368:210,1,78.2999976104737,2|0,3:2|3:0,0:0:0:0:
487,131,58672,6,0,L|403:112,1,78.2999976104737,2|0,3:2|3:0,0:0:0:0:
303,76,58972,2,0,P|296:38|284:-8,1,78.2999976104737,10|0,0:0|3:0,0:0:0:0:
189,112,59272,2,0,L|177:191,1,78.2999976104737,2|8,3:2|0:0,0:0:0:0:
42,273,59572,2,0,P|27:229|54:188,1,78.2999976104737,2|0,3:2|3:0,0:0:0:0:
150,313,59872,1,0,3:0:0:0:
150,313,59947,1,0,3:0:0:0:
150,313,60022,6,0,L|227:299,1,78.2999976104737,6|0,3:2|3:0,0:0:0:0:
308,230,60322,1,2,3:2:0:0:
308,230,60472,2,0,P|348:239|385:244,1,78.2999976104737,2|8,3:2|0:0,0:0:0:0:
477,191,60772,2,0,P|469:152|501:108,1,78.2999976104737,2|0,3:2|3:0,0:0:0:0:
360,26,61072,6,0,L|343:130,1,78.2999976104737,6|0,3:2|3:0,0:0:0:0:
271,189,61372,1,8,0:0:0:0:
378,316,61522,1,8,0:0:0:0:
215,384,61672,1,0,3:0:0:0:
215,384,61747,1,0,3:0:0:0:
215,384,61822,1,8,0:0:0:0:
390,309,61972,5,10,0:0:0:0:
278,176,62122,1,10,0:0:0:0:
145,283,62272,1,10,0:0:0:0:
19,133,62422,6,0,P|89:146|174:160,1,143.550004380798,6|0,3:2|0:0,0:0:0:0:
178,148,62722,2,0,P|137:115|96:129,1,95.7000029205323,14|2,0:3|3:2,0:0:0:0:
52,284,63022,1,0,3:0:0:0:
226,73,63172,1,2,3:2:0:0:
293,326,63322,1,14,0:3:0:0:
151,220,63472,1,2,3:0:0:0:
326,21,63622,6,0,L|347:134,1,95.7000029205323,2|0,3:2|3:0,0:0:0:0:
491,256,63922,2,0,P|505:209|474:162,1,95.7000029205323,14|2,0:3|3:2,0:0:0:0:
354,362,64222,1,2,3:2:0:0:
207,202,64372,1,2,3:2:0:0:
173,289,64522,2,0,L|267:271,1,95.7000029205323,14|0,0:3|3:0,0:0:0:0:
402,142,64822,5,0,3:0:0:0:
402,142,64972,1,0,3:0:0:0:
313,12,65121,2,0,L|298:112,1,95.7000029205323,12|0,0:3|3:0,0:0:0:0:
105,254,65422,5,2,3:2:0:0:
105,254,65572,1,0,3:0:0:0:
194,124,65722,2,0,L|209:224,1,95.7000029205323,12|0,0:3|3:0,0:0:0:0:
406,328,66022,5,2,3:2:0:0:
292,164,66172,1,0,3:0:0:0:
127,327,66322,2,0,P|173:351|217:330,1,95.7000029205323,12|0,0:3|3:0,0:0:0:0:
281,261,66622,5,2,3:2:0:0:
452,143,66772,1,0,3:0:0:0:
512,220,66922,2,0,P|465:227|413:236,1,95.7000029205323,14|2,0:3|0:3,0:0:0:0:
360,188,67147,1,2,0:3:0:0:
350,180,67222,6,0,P|376:117|319:67,1,143.550004380798,2|0,3:2|0:0,0:0:0:0:
253,4,67522,2,0,L|239:108,1,95.7000029205323,14|0,0:3|3:0,0:0:0:0:
105,176,67822,1,2,3:2:0:0:
207,337,67972,1,2,3:2:0:0:
126,384,68123,2,0,P|105:341|123:300,1,95.7000029205323,12|2,0:3|3:2,0:0:0:0:
289,125,68422,6,0,L|304:219,1,95.7000029205323,2|2,3:2|3:2,0:0:0:0:
362,280,68647,1,0,3:0:0:0:
369,289,68722,1,12,0:3:0:0:
184,183,68872,1,2,3:2:0:0:
381,64,69022,1,0,3:0:0:0:
172,187,69172,1,2,3:2:0:0:
369,289,69322,2,0,P|422:277|480:268,1,95.7000029205323,12|0,0:3|3:0,0:0:0:0:
338,180,69622,5,0,3:0:0:0:
338,180,69772,1,0,3:0:0:0:
457,34,69922,2,0,L|436:145,1,95.7000029205323,12|0,0:3|3:0,0:0:0:0:
258,236,70222,5,2,3:2:0:0:
258,236,70372,1,2,3:2:0:0:
139,90,70522,2,0,L|160:201,1,95.7000029205323,12|0,0:3|3:0,0:0:0:0:
212,358,70822,5,2,3:2:0:0:
274,113,70972,1,0,3:0:0:0:
87,255,71122,2,0,P|55:224|70:156,1,95.7000029205323,12|0,0:3|3:2,0:0:0:0:
177,14,71422,5,14,3:2:0:0:
184,23,71497,1,8,0:0:0:0:
190,33,71572,2,0,P|217:43|248:62,1,47.8500014602662,10|8,3:2|0:0,0:0:0:0:
374,125,71722,5,10,3:2:0:0:
367,134,71797,1,8,0:0:0:0:
361,144,71872,2,0,P|338:151|317:163,1,47.8500014602662,10|8,0:0|0:0,0:0:0:0:
316,259,72022,5,6,3:2:0:0:
413,298,72172,1,0,3:0:0:0:
437,105,72322,5,10,0:0:0:0:
245,205,72472,1,2,3:2:0:0:
335,350,72622,5,10,0:0:0:0:
391,209,72772,1,2,3:2:0:0:
244,117,72922,5,10,0:0:0:0:
316,259,73072,1,2,3:2:0:0:
316,39,73222,6,0,P|269:27|221:13,1,95.7000029205323,10|0,0:0|3:0,0:0:0:0:
92,156,73522,5,10,0:0:0:0:
67,78,73672,1,2,3:2:0:0:
245,205,73822,5,10,0:0:0:0:
220,283,73972,1,2,3:2:0:0:
216,102,74122,5,10,0:0:0:0:
294,77,74272,1,0,3:0:0:0:
113,261,74422,5,8,0:0:0:0:
35,236,74572,1,0,3:0:0:0:
200,45,74722,5,8,0:0:0:0:
225,123,74872,1,0,3:0:0:0:
54,98,75022,6,0,L|70:-3,1,95.7000029205323,10|0,0:0|3:0,0:0:0:0:
245,205,75322,2,0,L|259:299,1,95.7000029205323,8|0,0:0|3:0,0:0:0:0:
120,273,75622,6,0,P|75:263|25:258,1,95.7000029205323,10|0,0:0|3:0,0:0:0:0:
240,40,75922,2,0,P|284:49|334:54,1,95.7000029205323,8|0,0:0|3:0,0:0:0:0:
512,277,76222,6,0,B|526:244|508:219|508:219|365:241,1,191.400005841065,10|10,0:0|0:0,0:0:0:0:
260,361,76672,1,2,3:2:0:0:
260,361,76747,1,0,3:2:0:0:
260,361,76822,5,10,0:0:0:0:
212,296,76972,1,0,3:2:0:0:
90,238,77122,5,10,0:0:0:0:
68,384,77272,1,0,3:2:0:0:
192,200,77422,5,10,0:0:0:0:
259,167,77572,1,2,3:2:0:0:
376,240,77722,5,10,0:0:0:0:
443,273,77872,1,2,3:2:0:0:
467,80,78022,6,0,L|449:179,1,95.7000029205323,10|0,0:0|3:0,0:0:0:0:
359,66,78322,5,10,0:0:0:0:
292,33,78472,1,2,3:2:0:0:
185,106,78622,5,8,0:0:0:0:
118,139,78772,1,2,3:2:0:0:
213,227,78922,5,10,0:0:0:0:
377,293,79072,1,0,3:2:0:0:
230,384,79222,5,8,0:0:0:0:
334,213,79372,1,0,3:2:0:0:
469,88,79522,5,8,0:0:0:0:
498,196,79672,1,0,3:2:0:0:
326,94,79822,6,0,P|316:47|310:0,1,95.7000029205323,10|0,0:0|3:2,0:0:0:0:
183,213,80122,2,0,P|192:259|198:307,1,95.7000029205323,8|0,0:0|3:2,0:0:0:0:
312,242,80422,6,0,L|408:225,1,95.7000029205323,10|0,0:0|3:2,0:0:0:0:
169,78,80722,2,0,L|73:61,1,95.7000029205323,8|0,0:0|3:2,0:0:0:0:
8,115,80947,1,0,3:2:0:0:
0,124,81022,2,0,P|11:174|17:220,1,95.7000029205323,10|0,0:0|0:0,0:0:0:0:
118,318,81322,6,0,P|107:344|79:363,2,52.1999984069825,8|8|8,3:0|3:0|3:0,0:0:0:0:
150,225,81622,6,0,P|134:264|145:298,1,78.2999976104737,6|0,3:2|3:0,0:0:0:0:
233,357,81922,1,2,3:2:0:0:
233,357,82072,2,0,P|270:344|330:338,1,78.2999976104737,2|8,3:2|0:0,0:0:0:0:
336,226,82372,2,0,P|373:239|433:245,1,78.2999976104737,2|0,3:2|3:0,0:0:0:0:
486,174,82672,6,0,L|468:89,1,78.2999976104737,2|0,3:2|3:0,0:0:0:0:
346,0,82972,2,0,P|362:39|330:83,1,78.2999976104737,10|0,0:0|3:0,0:0:0:0:
261,123,83272,2,0,P|222:129|166:143,1,78.2999976104737,2|8,3:2|0:0,0:0:0:0:
109,61,83572,2,0,P|70:55|14:41,1,78.2999976104737,2|0,3:2|3:0,0:0:0:0:
13,166,83872,1,0,3:0:0:0:
13,166,83947,1,0,3:0:0:0:
13,166,84022,6,0,L|33:261,1,78.2999976104737,6|0,3:2|3:0,0:0:0:0:
140,312,84322,1,2,3:2:0:0:
140,312,84472,2,0,P|150:277|156:235,1,78.2999976104737,2|8,3:2|0:0,0:0:0:0:
258,164,84772,2,0,P|248:129|242:87,1,78.2999976104737,2|0,3:2|3:0,0:0:0:0:
512,232,86722,6,0,P|473:219|402:207,1,87,4|0,3:2|3:2,0:0:0:0:
309,269,87022,1,12,0:3:0:0:
466,108,87172,1,0,0:0:0:0:
334,0,87322,2,0,B|313:36|313:36|329:78,1,87,0|0,3:0|3:0,0:0:0:0:
203,248,87622,2,0,L|185:155,1,87,12|0,0:3|0:0,0:0:0:0:
330,204,87922,6,0,P|390:215|448:234,1,87,0|0,3:0|3:0,0:0:0:0:
215,50,88222,2,0,P|155:61|97:80,1,87,12|0,0:3|0:0,0:0:0:0:
17,254,88522,1,0,3:0:0:0:
189,148,88672,1,0,3:0:0:0:
5,79,88822,1,12,0:3:0:0:
181,245,88972,1,0,0:0:0:0:
321,50,89122,6,0,P|363:63|418:77,1,87,0|0,3:0|3:0,0:0:0:0:
281,161,89422,1,12,0:3:0:0:
432,318,89572,1,0,0:0:0:0:
494,248,89722,2,0,L|392:228,1,87,0|0,3:0|3:0,0:0:0:0:
291,363,90022,2,0,L|189:383,1,87,12|0,0:3|0:0,0:0:0:0:
119,323,90322,5,0,3:0:0:0:
186,119,90472,1,0,3:0:0:0:
0,190,90622,2,0,P|47:197|95:208,1,87,12|0,0:3|0:0,0:0:0:0:
258,71,90922,2,0,P|227:36|161:51,1,87,0|0,3:0|3:0,0:0:0:0:
215,214,91222,2,0,L|238:330,1,87,12|0,0:3|0:0,0:0:0:0:
403,117,91522,6,0,L|419:31,1,87,4|0,3:2|3:0,0:0:0:0:
313,171,91822,1,12,0:3:0:0:
451,310,91972,1,0,0:0:0:0:
360,384,92122,2,0,L|343:298,1,87,0|0,3:0|3:0,0:0:0:0:
224,199,92422,2,0,P|174:222|123:232,1,87,12|0,0:3|0:0,0:0:0:0:
363,78,92722,6,0,P|404:89|443:108,1,87,0|0,3:0|3:0,0:0:0:0:
228,0,93022,2,0,L|213:89,1,87,12|0,0:3|0:0,0:0:0:0:
143,229,93322,1,0,3:0:0:0:
54,64,93472,1,0,3:0:0:0:
246,176,93622,1,12,0:3:0:0:
43,273,93772,1,0,0:0:0:0:
187,384,93922,6,0,P|195:335|212:272,1,87,0|0,3:0|3:0,0:0:0:0:
336,205,94222,1,12,0:3:0:0:
215,69,94372,1,0,0:0:0:0:
299,0,94522,2,0,P|307:49|324:112,1,87,0|0,3:0|3:0,0:0:0:0:
512,209,94822,6,0,B|474:203|434:190|434:190|403:214|425:251,1,130.5,12|0,0:0|0:0,0:0:0:0:
430,255,95122,5,12,0:0:0:0:
341,325,95272,1,0,3:0:0:0:
431,384,95422,1,0,3:0:0:0:
161,356,95572,5,12,0:0:0:0:
251,297,95722,1,0,3:0:0:0:
162,227,95872,1,0,3:0:0:0:
285,67,96022,6,0,P|295:100|313:128,1,43.5,8|8,0:0|0:0,0:0:0:0:
442,183,96172,2,0,P|408:175|375:176,1,43.5,8|8,0:0|0:0,0:0:0:0:
294,219,96322,1,2,0:0:0:0:
