osu file format v14

[General]
AudioFilename: audio.mp3
AudioLeadIn: 0
PreviewTime: 37897
Countdown: 0
SampleSet: Soft
StackLeniency: 0.6
Mode: 0
LetterboxInBreaks: 0
WidescreenStoryboard: 1

[Editor]
Bookmarks: 4822,14422,24022,33622,96322
DistanceSpacing: 1.1
BeatDivisor: 4
GridSize: 32
TimelineZoom: 1.6

[Metadata]
Title:STRUGGLES
TitleUnicode:STRUGGLES
Artist:Primary
ArtistUnicode:Primary
Creator:keeVY
Version:Lafa's Insane
Source:
Tags:Lafayla NeKroMan4ik yuiko 10th single c88 meis clauson yuikonnu cut version ver female vocalist japanese rock pop
BeatmapID:2474860
BeatmapSetID:1159351

[Difficulty]
HPDrainRate:5
CircleSize:4.4
OverallDifficulty:8
ApproachRate:9
SliderMultiplier:1.8
SliderTickRate:1

[Events]
//Background and Video events
0,0,"bg.jpg",0,0
//Break Periods
//Storyboard Layer 0 (Background)
//Storyboard Layer 1 (Fail)
//Storyboard Layer 2 (Pass)
//Storyboard Layer 3 (Foreground)
//Storyboard Layer 4 (Overlay)
//Storyboard Sound Samples

[TimingPoints]
22,300,4,2,1,5,1,0
622,-100,4,2,1,15,0,0
1222,-100,4,2,1,25,0,0
1822,-100,4,2,1,35,0,0
2422,-100,4,2,1,45,0,0
3022,-100,4,2,1,55,0,0
3622,-100,4,2,1,65,0,0
4222,-100,4,2,1,65,0,0
4822,-100,4,2,1,75,0,0
9847,-100,4,2,1,5,0,0
9922,-100,4,2,1,75,0,0
12247,-100,4,2,1,5,0,0
12322,-100,4,2,1,75,0,0
13147,-100,4,2,1,5,0,0
13222,-100,4,2,1,85,0,0
14422,-125,4,2,1,65,0,0
23722,-125,4,2,1,70,0,0
24022,-111.111111111111,4,2,1,75,0,0
33322,-111.111111111111,4,2,2,75,0,0
33622,-111.111111111111,4,2,1,70,0,0
37222,-153.846153846154,4,2,1,65,0,0
38122,-285.714285714284,4,2,1,65,0,0
38347,-285.714285714284,4,2,1,5,0,0
38422,-95.2380952380952,4,2,1,95,0,1
38647,-95.2380952380952,4,2,1,5,0,1
38722,-95.2380952380952,4,2,1,95,0,1
39847,-95.2380952380952,4,2,1,5,0,1
39922,-95.2380952380952,4,2,1,95,0,1
43072,-95.2380952380952,4,2,0,95,0,1
43222,-95.2380952380952,4,2,1,95,0,1
43447,-95.2380952380952,4,2,1,5,0,1
43522,-95.2380952380952,4,2,1,95,0,1
45847,-95.2380952380952,4,2,1,5,0,1
45922,-95.2380952380952,4,2,1,95,0,1
47422,-95.2380952380952,4,2,1,95,0,0
48022,-95.2380952380952,4,2,1,95,0,1
48247,-95.2380952380952,4,2,1,5,0,1
48322,-95.2380952380952,4,2,1,95,0,1
50647,-95.2380952380952,4,2,1,5,0,1
50722,-95.2380952380952,4,2,1,95,0,1
52672,-95.2380952380952,4,2,0,95,0,1
52822,-95.2380952380952,4,2,1,95,0,1
53047,-95.2380952380952,4,2,1,5,0,1
53122,-95.2380952380952,4,2,1,95,0,1
54247,-95.2380952380952,4,2,1,5,0,1
54322,-95.2380952380952,4,2,1,95,0,1
57622,-111.111111111111,4,2,1,80,0,0
61847,-111.111111111111,4,2,1,80,0,0
62422,-95.2380952380952,4,2,1,95,0,1
62647,-95.2380952380952,4,2,1,5,0,1
62722,-95.2380952380952,4,2,1,95,0,1
63847,-95.2380952380952,4,2,1,5,0,1
63922,-95.2380952380952,4,2,1,95,0,1
67072,-95.2380952380952,4,2,0,95,0,1
67222,-95.2380952380952,4,2,1,95,0,1
67447,-95.2380952380952,4,2,1,5,0,1
67522,-95.2380952380952,4,2,1,95,0,1
71422,-95.2380952380952,4,2,1,90,0,0
72022,-95.2380952380952,4,2,1,95,0,1
81322,-95.2380952380952,4,2,2,95,0,1
81622,-111.111111111111,4,2,1,95,0,0
85072,-95.2380952380952,4,2,1,65,0,0
86572,-95.2380952380952,4,2,1,5,0,0
86722,300,4,2,1,75,1,0
86722,-100,4,2,1,75,0,0
89347,-100,4,2,1,5,0,0
89422,-100,4,2,1,75,0,0
91747,-100,4,2,1,5,0,0
91822,-100,4,2,1,75,0,0
95122,-100,4,2,1,65,0,0

[Colours]
Combo1 : 250,190,230
Combo2 : 130,200,230
Combo3 : 206,186,239
Combo4 : 170,245,170

[HitObjects]
401,240,4072,6,0,P|392:214|387:194,1,45,2|0,0:0|0:0,0:0:0:0:
394,340,4222,1,8,0:0:0:0:
375,325,4297,1,8,0:0:0:0:
353,321,4372,1,8,0:0:0:0:
331,323,4447,1,8,0:0:0:0:
312,334,4522,2,0,P|288:343|265:341,3,45,8|8|8|8,0:0|0:0|0:0|0:0,0:0:0:0:
235,341,4822,6,0,P|210:291|227:244,1,90,4|0,3:2|3:2,0:0:0:0:
394,145,5122,2,0,B|363:170|320:182|320:182|268:175|228:146,1,180,12|0,0:3|3:0,0:0:0:0:
231,148,5572,1,0,3:0:0:0:
154,54,5722,2,0,P|192:31|236:32,1,90,12|0,0:3|0:0,0:0:0:0:
96,153,6022,5,0,3:0:0:0:
0,98,6172,1,0,3:0:0:0:
74,258,6322,2,0,B|167:286|153:194|268:240,1,180,12|0,0:3|3:0,0:0:0:0:
378,311,6772,1,0,3:0:0:0:
378,311,6922,2,0,P|381:250|419:226,1,90,12|0,0:3|3:0,0:0:0:0:
435,214,7147,1,0,3:0:0:0:
435,214,7222,6,0,P|431:153|394:129,1,90,0|0,3:0|3:0,0:0:0:0:
215,40,7522,2,0,B|291:41|313:113|313:113|319:77|353:61,1,180,12|0,0:3|3:0,0:0:0:0:
335,72,7972,1,0,3:0:0:0:
210,148,8122,2,0,P|200:191|222:229,1,90,12|0,0:3|0:0,0:0:0:0:
390,320,8422,5,0,3:0:0:0:
331,228,8572,1,0,3:0:0:0:
511,148,8722,2,0,B|463:139|428:171|428:171|402:123|351:122,1,180,12|0,0:3|3:0,0:0:0:0:
224,129,9172,1,0,3:0:0:0:
129,280,9322,1,12,0:3:0:0:
26,298,9472,1,0,3:0:0:0:
26,298,9547,1,0,3:0:0:0:
26,298,9622,6,0,P|3:260|10:217,1,90,4|0,3:2|0:0,0:0:0:0:
177,110,9922,2,0,B|157:145|97:148|97:148|66:103|16:107,1,180,12|0,0:3|3:0,0:0:0:0:
24,106,10372,1,0,3:0:0:0:
136,22,10522,2,0,P|179:9|221:23,1,90,12|0,0:3|0:0,0:0:0:0:
364,148,10822,5,0,3:0:0:0:
407,43,10972,1,0,3:0:0:0:
250,122,11122,2,0,P|223:192|303:273,1,180,12|0,0:3|3:0,0:0:0:0:
395,346,11572,1,0,3:0:0:0:
395,346,11722,2,0,P|412:304|420:260,1,90,12|0,0:3|3:0,0:0:0:0:
449,214,11947,1,0,3:0:0:0:
449,214,12022,6,0,P|457:258|474:299,1,90,0|0,3:0|3:0,0:0:0:0:
468,111,12322,2,0,B|405:89|360:148|360:148|315:149|290:112,1,180,12|0,0:3|3:0,0:0:0:0:
307,131,12772,1,0,3:0:0:0:
186,35,12922,2,0,P|224:21|273:33,1,90,12|0,0:0|0:0,0:0:0:0:
468,111,13222,5,12,0:0:0:0:
433,213,13372,1,0,3:0:0:0:
433,213,13522,1,0,3:0:0:0:
306,312,13672,5,12,0:0:0:0:
242,211,13822,1,0,3:0:0:0:
242,211,13972,1,0,3:0:0:0:
92,221,14122,2,0,L|81:264,3,45,8|8|8|8,0:0|0:0|0:0|0:0,0:0:0:0:
77,290,14422,6,0,P|118:275|156:286,1,72,4|0,3:2|3:0,0:0:0:0:
285,331,14722,1,10,0:0:0:0:
285,331,14872,1,2,0:0:0:0:
375,270,15022,2,0,P|368:198|279:187,1,144,2|10,0:0|0:0,0:0:0:0:
307,175,15472,1,2,0:0:0:0:
202,202,15622,6,0,P|166:197|136:179,1,72,2|0,3:2|3:2,0:0:0:0:
46,75,15922,2,0,L|23:233,2,144,10|2|10,0:0|0:0|0:0,0:0:0:0:
46,75,16822,6,0,P|76:56|112:51,1,72,0|0,3:0|3:0,0:0:0:0:
271,60,17122,1,10,0:0:0:0:
271,60,17272,1,2,0:0:0:0:
199,142,17422,2,0,B|176:177|171:222|171:222|183:257|202:280,1,144,2|10,0:0|0:0,0:0:0:0:
197,273,17872,1,2,0:0:0:0:
307,353,18022,6,0,L|237:370,2,72,2|0|10,3:2|3:0|0:0,0:0:0:0:
449,271,18622,2,0,L|379:253,2,72,2|0|10,3:2|3:0|0:0,0:0:0:0:
449,271,19222,6,0,P|464:236|449:190,1,72,0|0,3:0|3:0,0:0:0:0:
389,87,19522,1,10,0:0:0:0:
389,87,19672,1,2,0:0:0:0:
299,128,19822,2,0,B|248:161|189:127|189:127|217:115|235:132,1,144,2|10,0:0|0:0,0:0:0:0:
215,122,20272,1,0,0:0:0:0:
247,236,20422,6,0,P|248:271|226:299,1,72,2|0,3:2|3:2,0:0:0:0:
140,383,20722,2,0,P|141:347|119:319,1,72,10|0,0:0|0:0,0:0:0:0:
22,223,21022,2,0,B|70:237|113:200|113:200|144:211|155:240,1,144,2|10,0:0|0:0,0:0:0:0:
148,227,21622,6,0,P|149:174|165:156,1,72,0|0,3:0|3:0,0:0:0:0:
260,69,21922,1,10,0:0:0:0:
260,69,22072,1,2,0:0:0:0:
363,72,22222,2,0,B|402:79|419:113|419:113|453:84|489:93,1,144,2|10,0:0|0:0,0:0:0:0:
485,92,22672,1,2,0:0:0:0:
340,160,22822,6,0,L|327:232,1,72,2|0,3:2|3:0,0:0:0:0:
457,272,23122,2,0,L|470:344,1,72,10|0,0:0|0:0,0:0:0:0:
512,171,23422,1,2,3:2:0:0:
438,103,23572,1,8,3:0:0:0:
427,111,23647,1,8,3:0:0:0:
410,92,23722,1,10,0:0:0:0:
393,73,23797,1,8,0:0:0:0:
370,60,23872,1,8,0:0:0:0:
348,53,23947,1,8,0:0:0:0:
331,52,24022,6,0,P|281:66|257:104,1,80.9999975280763,4|0,3:2|3:0,0:0:0:0:
94,89,24322,2,0,P|133:96|161:124,1,80.9999975280763,10|2,0:0|0:0,0:0:0:0:
209,270,24622,1,2,3:2:0:0:
115,329,24772,1,0,3:0:0:0:
115,329,24922,2,0,P|94:291|93:247,1,80.9999975280763,10|2,0:0|0:0,0:0:0:0:
23,150,25222,6,0,P|19:190|0:224,1,80.9999975280763,2|0,3:2|3:0,0:0:0:0:
1,55,25522,2,0,B|93:35|68:107|156:87,1,161.999995056153,10|2,0:0|3:2,0:0:0:0:
152,87,25972,1,0,3:0:0:0:
284,34,26122,2,0,P|323:30|357:50,1,80.9999975280763,10|0,0:0|0:0,0:0:0:0:
433,184,26422,5,0,3:0:0:0:
354,260,26572,1,0,3:0:0:0:
354,260,26722,2,0,L|273:270,2,80.9999975280763,10|2|2,0:0|0:0|3:2,0:0:0:0:
433,159,27172,1,0,3:0:0:0:
433,159,27322,2,0,L|352:148,1,80.9999975280763,10|2,0:0|0:0,0:0:0:0:
237,163,27622,6,0,P|260:130|260:90,1,80.9999975280763,2|0,3:2|3:0,0:0:0:0:
131,172,27922,2,0,P|131:211|155:243,1,80.9999975280763,10|0,0:0|0:0,0:0:0:0:
275,281,28222,2,0,P|314:281|347:304,1,80.9999975280763,2|0,3:2|3:2,0:0:0:0:
211,381,28522,2,0,P|171:380|138:357,1,80.9999975280763,10|0,0:0|0:0,0:0:0:0:
31,231,28822,5,0,3:0:0:0:
124,138,28972,1,0,3:0:0:0:
124,138,29122,2,0,L|138:216,1,80.9999975280763,10|2,0:0|0:0,0:0:0:0:
213,354,29422,2,0,L|227:275,1,80.9999975280763,2|0,3:2|3:0,0:0:0:0:
302,138,29722,2,0,L|316:217,1,80.9999975280763,10|0,0:0|0:0,0:0:0:0:
404,337,30022,6,0,P|369:316|330:322,1,80.9999975280763,2|0,3:2|3:0,0:0:0:0:
502,376,30322,2,0,B|533:343|529:300|529:300|483:264|493:210,1,161.999995056153,10|2,0:0|3:2,0:0:0:0:
491,233,30772,1,0,3:0:0:0:
417,109,30922,2,0,P|418:149|399:184,1,80.9999975280763,10|0,0:0|0:0,0:0:0:0:
276,269,31222,5,0,3:0:0:0:
206,205,31372,1,0,3:0:0:0:
206,205,31522,2,0,P|161:184|123:192,1,80.9999975280763,10|2,0:0|0:0,0:0:0:0:
0,255,31822,2,0,P|39:252|74:271,1,80.9999975280763,2|0,3:2|3:0,0:0:0:0:
182,383,32122,1,10,0:0:0:0:
282,324,32272,1,2,0:0:0:0:
282,324,32422,6,0,P|288:283|267:249,1,80.9999975280763,2|0,3:2|3:0,0:0:0:0:
118,147,32722,1,14,0:0:0:0:
212,58,32872,1,14,3:2:0:0:
212,58,32947,1,8,0:0:0:0:
212,58,33022,5,8,0:0:0:0:
304,149,33172,1,0,3:0:0:0:
445,146,33322,5,8,0:3:0:0:
479,51,33472,1,4,0:3:0:0:
479,51,33622,6,0,P|432:29|393:35,1,80.9999975280763,4|0,3:2|3:0,0:0:0:0:
290,114,33922,1,2,3:2:0:0:
357,197,34072,1,0,3:0:0:0:
357,197,34222,2,0,P|396:203|430:183,1,80.9999975280763,8|0,0:0|3:0,0:0:0:0:
290,114,34522,2,0,B|230:103|194:159|194:159|152:154|137:129,1,161.999995056153,2|0,3:2|3:0,0:0:0:0:
10,104,34972,1,8,0:0:0:0:
10,104,35122,6,0,P|37:133|43:172,1,80.9999975280763,2|0,3:2|3:0,0:0:0:0:
139,254,35422,2,0,P|111:283|105:322,1,80.9999975280763,8|0,0:0|3:0,0:0:0:0:
227,179,35722,1,2,3:2:0:0:
157,86,35872,1,0,3:0:0:0:
157,86,35947,1,0,3:0:0:0:
157,86,36022,5,4,3:2:0:0:
285,28,36172,1,0,3:0:0:0:
285,28,36322,2,0,P|324:28|355:53,1,80.9999975280763,2|0,3:2|3:0,0:0:0:0:
287,214,36622,2,0,P|294:174|326:150,1,80.9999975280763,10|0,0:0|3:0,0:0:0:0:
512,90,36922,2,0,P|474:102|452:135,1,80.9999975280763,2|0,3:2|3:2,0:0:0:0:
459,327,37222,6,0,B|492:338|514:319|514:319|443:252|336:314,1,233.999989288331,4|0,3:2|0:0,0:0:0:0:
261,368,37972,1,2,0:0:0:0:
261,368,38122,2,0,P|231:368|207:351,1,47.2499985580445,2|0,0:0|0:0,0:0:0:0:
168,363,38422,6,0,P|205:312|199:260,1,94.499997116089,6|0,3:2|0:0,0:0:0:0:
78,231,38722,2,0,P|41:180|47:128,1,94.499997116089,14|0,0:3|0:0,0:0:0:0:
123,0,39022,5,2,3:2:0:0:
230,21,39172,1,2,3:2:0:0:
230,21,39322,2,0,L|242:114,1,94.499997116089,14|2,0:3|3:2,0:0:0:0:
359,238,39622,2,0,L|371:144,1,94.499997116089,2|0,3:2|3:0,0:0:0:0:
456,292,39922,5,14,0:3:0:0:
456,292,40072,1,2,3:2:0:0:
367,347,40222,2,0,P|320:347|285:317,1,94.499997116089,2|0,3:2|3:0,0:0:0:0:
142,277,40522,2,0,P|168:239|213:227,1,94.499997116089,14|0,0:3|3:0,0:0:0:0:
417,268,40822,5,0,3:2:0:0:
512,218,40972,1,0,3:2:0:0:
512,218,41122,2,0,P|522:173|496:120,1,94.499997116089,14|0,0:3|3:0,0:0:0:0:
305,26,41422,6,0,B|365:17|408:74|408:74|428:21|501:30,1,188.999994232178,2|12,3:2|0:3,0:0:0:0:
457,30,41872,1,0,3:0:0:0:
320,124,42022,6,0,P|308:167|340:209,1,94.499997116089,2|0,3:2|3:0,0:0:0:0:
480,239,42322,2,0,P|491:282|459:324,1,94.499997116089,12|0,0:3|3:0,0:0:0:0:
287,362,42622,5,2,3:2:0:0:
198,275,42772,1,2,3:2:0:0:
320,124,42922,5,14,0:3:0:0:
233,50,43072,1,2,0:3:0:0:
233,50,43147,1,2,0:3:0:0:
233,50,43222,6,0,P|187:42|147:66,1,94.499997116089,2|0,3:2|3:0,0:0:0:0:
85,196,43522,2,0,P|68:152|28:130,1,94.499997116089,14|2,0:3|3:2,0:0:0:0:
61,318,43822,5,2,3:2:0:0:
174,335,43972,1,2,3:2:0:0:
174,335,44122,2,0,L|187:239,1,94.499997116089,14|2,0:3|3:2,0:0:0:0:
151,69,44422,5,2,3:2:0:0:
151,69,44572,1,2,3:2:0:0:
267,8,44722,2,0,P|315:2|363:47,1,94.499997116089,14|0,0:3|3:2,0:0:0:0:
503,55,45022,2,0,P|460:72|438:113,1,94.499997116089,2|0,3:2|3:2,0:0:0:0:
272,132,45322,2,0,P|317:142|344:179,1,94.499997116089,14|0,0:3|3:0,0:0:0:0:
374,375,45622,5,0,3:0:0:0:
272,350,45772,1,0,3:0:0:0:
272,350,45923,2,0,P|260:306|292:261,1,94.499997116089,12|0,0:3|3:0,0:0:0:0:
465,148,46222,6,0,B|400:143|371:194|371:194|313:200|278:135,1,188.999994232178,2|12,3:2|0:3,0:0:0:0:
300,167,46672,1,0,3:0:0:0:
217,73,46822,6,0,P|171:68|134:96,1,94.499997116089,2|0,3:2|3:2,0:0:0:0:
0,171,47122,2,0,P|36:198|82:194,1,94.499997116089,12|0,0:3|3:0,0:0:0:0:
226,104,47422,5,10,3:2:0:0:
327,181,47572,2,0,P|328:157|336:135,1,47.2499985580445,10|8,3:2|0:0,0:0:0:0:
441,245,47722,2,0,P|439:221|431:199,1,47.2499985580445,10|8,3:2|0:0,0:0:0:0:
360,304,47872,1,10,0:0:0:0:
342,299,47947,1,8,0:0:0:0:
322,299,48022,6,0,P|277:315|253:364,1,94.499997116089,6|0,3:2|3:0,0:0:0:0:
145,265,48322,2,0,P|114:228|118:173,1,94.499997116089,14|0,0:3|3:2,0:0:0:0:
227,45,48622,5,2,3:2:0:0:
313,132,48772,1,2,3:2:0:0:
313,132,48922,2,0,P|268:149|221:141,1,94.499997116089,14|2,0:3|3:2,0:0:0:0:
65,55,49222,6,0,L|78:150,1,94.499997116089,2|2,3:2|3:2,0:0:0:0:
169,263,49522,1,14,0:3:0:0:
205,147,49672,2,0,L|191:242,1,94.499997116089,2|0,3:2|3:2,0:0:0:0:
101,355,49972,1,2,3:2:0:0:
65,239,50122,2,0,L|78:334,1,94.499997116089,14|0,0:3|3:0,0:0:0:0:
223,226,50422,5,0,3:0:0:0:
326,241,50572,1,0,3:0:0:0:
326,241,50722,2,0,P|355:279|348:327,1,94.499997116089,12|0,0:3|3:0,0:0:0:0:
385,144,51022,6,0,B|455:105|519:151|519:151|493:165|459:150,1,188.999994232178,2|12,3:2|0:3,0:0:0:0:
474,155,51472,1,0,3:0:0:0:
344,51,51622,6,0,P|295:47|262:80,1,94.499997116089,2|0,3:2|3:0,0:0:0:0:
164,174,51922,2,0,P|118:166|92:127,1,94.499997116089,12|0,0:3|3:0,0:0:0:0:
274,150,52222,5,2,3:2:0:0:
316,269,52372,1,2,3:2:0:0:
187,368,52522,5,14,0:3:0:0:
94,289,52672,1,2,0:3:0:0:
94,289,52747,1,2,0:3:0:0:
94,289,52822,6,0,P|131:262|176:270,1,94.499997116089,2|0,3:2|3:0,0:0:0:0:
332,210,53122,2,0,P|286:218|249:191,1,94.499997116089,14|2,0:3|3:2,0:0:0:0:
149,54,53422,5,2,3:2:0:0:
34,60,53572,1,2,3:2:0:0:
34,60,53722,2,0,L|21:155,1,94.499997116089,14|2,0:3|3:2,0:0:0:0:
144,271,54022,6,0,L|131:178,1,94.499997116089,2|0,3:2|3:0,0:0:0:0:
50,347,54322,1,14,0:3:0:0:
50,347,54472,1,2,3:2:0:0:
160,379,54622,2,0,P|217:372|244:334,1,94.499997116089,2|0,3:2|3:0,0:0:0:0:
385,290,54922,2,0,P|338:286|305:254,1,94.499997116089,14|0,0:3|3:0,0:0:0:0:
270,80,55222,5,0,3:0:0:0:
379,87,55372,1,0,3:0:0:0:
379,87,55523,2,0,P|397:135|366:183,1,94.499997116089,12|0,0:3|3:0,0:0:0:0:
208,298,55822,6,0,B|185:288|173:267|173:267|234:211|323:265,1,188.999994232178,2|12,3:2|0:3,0:0:0:0:
304,254,56272,1,0,3:0:0:0:
432,374,56422,6,0,P|404:337|411:291,1,94.499997116089,2|0,3:2|3:0,0:0:0:0:
512,198,56722,2,0,P|519:154|492:116,1,94.499997116089,12|8,0:3|3:2,0:0:0:0:
466,102,56947,1,8,0:0:0:0:
466,102,57022,1,8,3:2:0:0:
352,160,57172,5,10,0:0:0:0:
253,57,57322,1,10,3:2:0:0:
236,47,57397,1,8,0:0:0:0:
217,41,57472,1,10,0:0:0:0:
198,40,57547,1,8,0:0:0:0:
179,44,57622,6,0,B|125:65|116:100|116:100|161:137|144:197,1,161.999995056153,6|2,3:2|3:2,0:0:0:0:
110,295,58072,1,0,3:2:0:0:
233,377,58222,1,8,0:0:0:0:
233,377,58372,2,0,P|247:335|231:294,1,80.9999975280763,2|0,3:2|3:0,0:0:0:0:
148,164,58672,6,0,P|179:194|248:180,1,80.9999975280763,2|0,3:2|3:0,0:0:0:0:
302,108,58972,2,0,P|333:78|402:92,1,80.9999975280763,10|0,0:0|3:0,0:0:0:0:
496,164,59272,1,2,3:2:0:0:
482,283,59422,1,8,0:0:0:0:
482,283,59572,2,0,L|389:270,1,80.9999975280763,2|0,3:2|3:0,0:0:0:0:
258,170,59872,1,0,3:0:0:0:
258,170,59947,1,0,3:0:0:0:
258,170,60022,6,0,B|290:211|299:256|299:256|283:318|254:339,1,161.999995056153,6|2,3:2|3:2,0:0:0:0:
274,316,60472,1,2,3:2:0:0:
124,290,60622,2,0,P|104:255|95:211,1,80.9999975280763,8|2,0:0|3:2,0:0:0:0:
96,49,60922,1,0,3:0:0:0:
96,49,61072,1,6,3:2:0:0:
245,42,61222,5,0,3:0:0:0:
245,42,61372,2,0,P|236:83|216:120,1,80.9999975280763,8|8,0:0|0:0,0:0:0:0:
87,287,61672,1,0,3:0:0:0:
87,287,61747,1,0,3:0:0:0:
87,287,61822,5,8,0:0:0:0:
0,179,61972,1,10,0:0:0:0:
190,116,62122,5,10,0:0:0:0:
315,150,62272,1,10,0:0:0:0:
315,150,62422,6,0,P|342:187|343:234,1,94.499997116089,6|0,3:2|3:0,0:0:0:0:
422,381,62722,1,14,0:3:0:0:
422,381,62872,2,0,P|422:334|450:296,1,94.499997116089,2|0,3:2|3:0,0:0:0:0:
299,356,63172,5,2,3:2:0:0:
299,356,63322,2,0,P|260:330|215:318,1,94.499997116089,14|2,0:3|3:2,0:0:0:0:
62,257,63622,2,0,P|101:231|146:219,1,94.499997116089,2|0,3:2|3:0,0:0:0:0:
311,227,63922,5,14,0:3:0:0:
311,227,64072,1,2,3:2:0:0:
403,178,64222,2,0,P|418:136|415:86,1,94.499997116089,2|2,3:2|3:2,0:0:0:0:
277,0,64522,2,0,P|273:46|289:91,1,94.499997116089,14|0,0:3|3:0,0:0:0:0:
423,207,64822,5,0,3:0:0:0:
374,293,64972,1,0,3:0:0:0:
374,293,65122,2,0,P|328:312|276:277,1,94.499997116089,12|0,0:3|3:0,0:0:0:0:
92,218,65422,6,0,B|145:209|180:241|180:241|206:193|257:192,1,188.999994232178,2|12,3:2|0:3,0:0:0:0:
255,192,65872,1,0,3:0:0:0:
380,140,66022,6,0,P|334:129|295:86,1,94.499997116089,2|0,3:2|3:0,0:0:0:0:
162,43,66322,2,0,P|195:10|240:0,1,94.499997116089,12|0,0:3|3:0,0:0:0:0:
206,165,66622,5,2,3:2:0:0:
90,124,66772,1,2,3:2:0:0:
171,277,66922,5,14,0:3:0:0:
298,248,67072,1,2,0:3:0:0:
298,248,67147,1,2,0:3:0:0:
298,248,67222,6,0,P|344:240|394:279,1,94.499997116089,2|0,3:2|3:0,0:0:0:0:
512,183,67522,2,0,P|466:191|416:152,1,94.499997116089,14|0,0:3|3:0,0:0:0:0:
315,45,67822,5,2,3:2:0:0:
212,40,67972,1,2,3:2:0:0:
212,40,68122,2,0,L|199:136,1,94.499997116089,12|2,0:3|3:2,0:0:0:0:
184,289,68422,6,0,P|170:242|123:217,1,94.499997116089,2|2,3:2|3:2,0:0:0:0:
77,318,68722,1,12,0:3:0:0:
20,194,68872,2,0,P|33:147|80:122,1,94.499997116089,2|0,3:2|3:0,0:0:0:0:
133,218,69172,1,2,3:2:0:0:
192,113,69322,2,0,P|178:66|131:41,1,94.499997116089,12|0,0:3|3:0,0:0:0:0:
255,197,69622,5,0,3:0:0:0:
356,165,69772,1,0,3:0:0:0:
356,165,69923,2,0,L|367:69,1,94.499997116089,12|0,0:3|3:0,0:0:0:0:
512,230,70222,6,0,B|400:200|435:298|314:260,1,188.999994232178,2|12,3:2|0:3,0:0:0:0:
335,265,70672,1,0,3:0:0:0:
237,171,70822,6,0,P|273:143|319:148,1,94.499997116089,2|0,3:2|3:0,0:0:0:0:
227,289,71122,2,0,P|181:293|143:266,1,94.499997116089,12|0,0:3|3:2,0:0:0:0:
52,121,71422,5,14,3:2:0:0:
134,8,71572,2,0,L|143:54,1,47.2499985580445,10|8,3:2|0:0,0:0:0:0:
237,171,71722,2,0,L|246:124,1,47.2499985580445,10|8,3:2|0:0,0:0:0:0:
377,15,71872,1,10,0:0:0:0:
377,15,71947,1,8,0:0:0:0:
377,15,72022,6,0,B|302:-23|253:27|253:27|296:28|325:74,1,188.999994232178,6|10,3:2|0:0,0:0:0:0:
369,145,72472,1,2,3:2:0:0:
512,50,72622,5,10,0:0:0:0:
476,152,72772,1,2,3:2:0:0:
476,152,72922,2,0,P|470:198|491:240,1,94.499997116089,10|2,0:0|3:2,0:0:0:0:
344,175,73222,6,0,P|297:178|259:206,1,94.499997116089,10|0,0:0|3:0,0:0:0:0:
312,354,73522,2,0,P|274:326|227:322,1,94.499997116089,10|2,0:0|3:2,0:0:0:0:
83,370,73822,5,10,0:0:0:0:
8,306,73972,1,2,3:2:0:0:
8,306,74122,2,0,P|-1:260|26:223,1,94.499997116089,10|0,0:0|3:0,0:0:0:0:
218,199,74422,6,0,P|127:183|137:90,1,188.999994232178,8|8,0:0|0:0,0:0:0:0:
126,101,74872,1,0,3:0:0:0:
292,105,75022,6,0,P|382:89|373:-4,1,188.999994232178,10|8,0:0|0:0,0:0:0:0:
382,6,75472,1,0,3:0:0:0:
292,105,75622,6,0,P|286:139|325:188,1,94.499997116089,10|0,0:0|3:0,0:0:0:0:
479,237,75922,2,0,P|484:271|446:320,1,94.499997116089,8|0,0:0|3:0,0:0:0:0:
287,375,76222,5,10,0:0:0:0:
210,289,76372,1,2,3:2:0:0:
210,289,76522,2,0,P|260:268|305:285,1,94.499997116089,10|2,0:0|3:2,0:0:0:0:
106,319,76822,6,0,B|78:284|65:237|65:237|73:180|104:136,1,188.999994232178,10|10,0:0|0:0,0:0:0:0:
175,51,77272,1,0,3:2:0:0:
345,126,77422,5,10,0:0:0:0:
398,48,77572,1,2,3:2:0:0:
398,48,77722,2,0,P|348:27|303:44,1,94.499997116089,10|2,0:0|3:2,0:0:0:0:
197,172,78022,6,0,P|189:123|168:79,1,94.499997116089,10|0,0:0|3:0,0:0:0:0:
103,228,78322,1,10,0:0:0:0:
0,227,78472,2,0,P|8:178|28:134,1,94.499997116089,2|8,3:2|0:0,0:0:0:0:
109,265,78772,1,2,3:2:0:0:
225,284,78922,2,0,P|217:235|196:191,1,94.499997116089,10|0,0:0|3:2,0:0:0:0:
192,375,79222,6,0,B|304:405|269:307|390:345,1,188.999994232178,8|8,0:0|0:0,0:0:0:0:
368,339,79672,1,0,3:2:0:0:
512,255,79822,6,0,B|400:285|435:187|314:225,1,188.999994232178,10|8,0:0|0:0,0:0:0:0:
335,219,80272,1,0,3:2:0:0:
446,137,80422,6,0,P|466:95|451:52,1,94.499997116089,10|0,0:0|3:2,0:0:0:0:
306,0,80722,2,0,P|291:42|312:84,1,94.499997116089,8|0,0:0|3:2,0:0:0:0:
479,144,81022,1,10,0:0:0:0:
416,46,81172,5,0,3:0:0:0:
339,222,81322,1,8,3:0:0:0:
352,246,81422,1,8,3:0:0:0:
368,227,81522,1,8,3:0:0:0:
379,252,81622,6,0,B|451:285|500:248|500:248|476:242|451:261,1,161.999995056153,6|2,3:2|3:2,0:0:0:0:
368,353,82072,1,2,3:2:0:0:
245,323,82222,1,8,0:0:0:0:
245,323,82372,2,0,P|231:281|247:240,1,80.9999975280763,2|0,3:2|3:0,0:0:0:0:
325,124,82672,6,0,L|244:135,1,80.9999975280763,2|0,3:2|3:0,0:0:0:0:
134,222,82972,2,0,L|53:210,1,80.9999975280763,10|0,0:0|3:0,0:0:0:0:
121,90,83272,1,2,3:2:0:0:
248,139,83422,1,8,0:0:0:0:
248,139,83572,2,0,P|270:178|250:230,1,80.9999975280763,2|0,3:2|3:0,0:0:0:0:
104,300,83872,1,0,3:0:0:0:
104,300,83947,1,0,3:0:0:0:
104,300,84022,6,0,B|131:275|180:278|180:278|207:318|252:314,1,161.999995056153,6|2,3:2|3:2,0:0:0:0:
247,314,84472,1,2,3:2:0:0:
389,256,84622,2,0,P|363:287|360:335,1,80.9999975280763,8|2,0:0|3:2,0:0:0:0:
298,190,84922,1,0,3:0:0:0:
298,190,85072,5,2,0:0:0:0:
338,131,85372,1,2,0:0:0:0:
403,100,85672,1,2,0:0:0:0:
475,105,85972,1,2,0:0:0:0:
475,105,86722,6,0,P|496:143|485:185,1,90,4|0,3:2|3:2,0:0:0:0:
409,342,87022,2,0,P|398:260|305:248,1,180,12|0,0:3|3:0,0:0:0:0:
314,244,87472,1,0,3:0:0:0:
195,329,87622,2,0,P|235:341|283:341,1,90,12|0,0:3|0:0,0:0:0:0:
156,229,87922,5,0,3:0:0:0:
66,294,88072,1,0,3:0:0:0:
125,139,88222,2,0,B|223:100|208:209|323:147,1,180,12|0,0:3|3:0,0:0:0:0:
367,53,88672,1,0,3:0:0:0:
367,53,88822,2,0,P|397:102|445:104,1,90,12|0,0:3|3:0,0:0:0:0:
481,107,89047,1,0,3:0:0:0:
481,107,89122,6,0,P|440:122|423:163,1,90,0|0,3:0|3:0,0:0:0:0:
489,319,89422,2,0,B|506:317|517:295|517:295|457:248|385:294,1,180,12|0,0:3|3:0,0:0:0:0:
385,293,89872,1,0,3:0:0:0:
274,377,90022,2,0,L|260:281,1,90,12|0,0:3|0:0,0:0:0:0:
249,119,90322,5,0,3:0:0:0:
335,194,90472,1,0,3:0:0:0:
441,44,90622,2,0,B|389:61|379:107|379:107|432:134|426:193,1,180,12|0,0:3|3:0,0:0:0:0:
366,296,91072,1,0,3:0:0:0:
248,155,91222,1,12,0:3:0:0:
152,136,91372,1,0,3:0:0:0:
152,136,91447,1,0,3:0:0:0:
152,136,91522,6,0,P|109:123|70:142,1,90,4|0,3:2|3:0,0:0:0:0:
14,301,91822,2,0,B|79:309|115:240|115:240|118:276|152:306,1,180,12|0,0:3|3:0,0:0:0:0:
135,288,92272,1,0,3:0:0:0:
244,382,92422,2,0,P|261:340|257:296,1,90,12|0,0:3|0:0,0:0:0:0:
180,116,92722,5,0,3:0:0:0:
95,213,92872,1,0,3:0:0:0:
282,185,93022,2,0,B|328:182|359:228|359:228|416:243|448:196,1,180,12|0,0:3|3:0,0:0:0:0:
508,99,93472,1,0,3:0:0:0:
508,99,93622,2,0,L|412:85,1,90,12|0,0:3|3:0,0:0:0:0:
369,64,93847,1,0,3:0:0:0:
369,64,93922,6,0,L|458:51,1,90,0|0,3:0|3:0,0:0:0:0:
268,19,94222,2,0,B|243:50|231:93|231:93|238:145|267:185,1,180,12|0,0:3|3:0,0:0:0:0:
265,182,94672,1,0,3:0:0:0:
415,270,94822,2,0,P|369:262|328:279,1,90,12|0,0:0|3:0,0:0:0:0:
170,378,95122,5,12,0:0:0:0:
231,280,95272,1,0,3:0:0:0:
231,280,95422,1,0,3:0:0:0:
61,231,95572,5,12,0:0:0:0:
0,133,95722,1,0,3:0:0:0:
0,133,95872,1,0,3:0:0:0:
131,72,96022,1,8,0:0:0:0:
157,77,96097,1,8,0:0:0:0:
179,92,96172,1,8,0:0:0:0:
205,94,96247,1,8,0:0:0:0:
230,86,96322,1,2,0:0:0:0:
