osu file format v14

[General]
AudioFilename: audio.mp3
AudioLeadIn: 0
PreviewTime: 37897
Countdown: 0
SampleSet: Soft
StackLeniency: 0.7
Mode: 0
LetterboxInBreaks: 0
WidescreenStoryboard: 1

[Editor]
Bookmarks: 4522,14422
DistanceSpacing: 0.3
BeatDivisor: 4
GridSize: 32
TimelineZoom: 2.3

[Metadata]
Title:STRUGGLES
TitleUnicode:STRUGGLES
Artist:Primary
ArtistUnicode:Primary
Creator:keeVY
Version:Hard
Source:
Tags:Lafayla NeKroMan4ik yuiko 10th single c88 meis clauson yuikonnu cut version ver female vocalist japanese rock pop
BeatmapID:2458578
BeatmapSetID:1159351

[Difficulty]
HPDrainRate:4
CircleSize:3.5
OverallDifficulty:6
ApproachRate:8
SliderMultiplier:1.4
SliderTickRate:1

[Events]
//Background and Video events
0,0,"bg.jpg",0,0
//Break Periods
//Storyboard Layer 0 (Background)
//Storyboard Layer 1 (Fail)
//Storyboard Layer 2 (Pass)
//Storyboard Layer 3 (Foreground)
//Storyboard Layer 4 (Overlay)
//Storyboard Sound Samples

[TimingPoints]
22,300,4,2,1,5,1,0
22,-100,4,2,1,5,0,0
622,-100,4,2,1,15,0,0
1222,-100,4,2,1,25,0,0
1822,-100,4,2,1,35,0,0
2422,-100,4,2,1,45,0,0
3022,-100,4,2,1,55,0,0
3622,-100,4,2,1,65,0,0
4822,-86.9565217391304,4,2,1,75,0,0
13222,-86.9565217391304,4,2,1,85,0,0
14422,-111.111111111111,4,2,1,65,0,0
23722,-100,4,2,1,70,0,0
24022,-100,4,2,1,75,0,0
33322,-100,4,2,2,75,0,0
33622,-111.111111111111,4,2,1,70,0,0
37222,-100,4,2,1,65,0,0
38422,-83.3333333333333,4,2,1,95,0,1
43072,-83.3333333333333,4,2,0,95,0,1
43222,-83.3333333333333,4,2,1,95,0,1
47422,-90.9090909090909,4,2,1,95,0,0
48022,-83.3333333333333,4,2,1,95,0,1
52672,-90.9090909090909,4,2,0,95,0,1
52822,-90.9090909090909,4,2,1,95,0,1
57622,-100,4,2,1,80,0,0
62422,-83.3333333333333,4,2,1,95,0,1
67072,-83.3333333333333,4,2,0,95,0,1
67222,-83.3333333333333,4,2,1,95,0,1
71422,-90.9090909090909,4,2,1,90,0,0
72022,-83.3333333333333,4,2,1,95,0,1
81322,-100,4,2,0,95,0,1
81622,-100,4,2,1,95,0,0
85072,-133.333333333333,4,2,1,65,0,0
86722,300,4,2,1,75,1,0
86722,-90.9090909090909,4,2,1,75,0,0
96322,-133.333333333333,4,2,1,65,0,0
96622,-133.333333333333,4,2,1,50,0,0
96922,-133.333333333333,4,2,1,35,0,0
97222,-133.333333333333,4,2,1,20,0,0
97522,-133.333333333333,4,2,1,5,0,0

[Colours]
Combo1 : 255,140,140
Combo2 : 145,185,220
Combo3 : 160,230,170
Combo4 : 150,150,210

[HitObjects]
74,309,4222,6,0,L|129:315,3,35,8|8|8|8,0:0|0:0|0:0|0:0,0:0:0:0:
157,305,4522,2,0,L|212:299,3,35,8|8|8|8,0:0|0:0|0:0|0:0,0:0:0:0:
238,320,4822,6,0,P|249:279|359:252,1,161.000003070831,4|12,3:2|0:3,0:0:0:0:
424,298,5272,1,0,0:0:0:0:
499,249,5422,2,0,P|515:198|514:167,1,80.5000015354157,0|0,3:0|3:0,0:0:0:0:
461,101,5722,1,12,0:3:0:0:
267,131,6022,5,0,3:0:0:0:
177,130,6172,1,0,3:0:0:0:
128,55,6322,2,0,P|90:40|33:42,1,80.5000015354157,12|0,0:3|0:0,0:0:0:0:
0,110,6622,1,0,3:0:0:0:
0,110,6772,1,0,3:0:0:0:
49,179,6922,2,0,P|62:210|69:263,1,80.5000015354157,12|0,0:3|0:0,0:0:0:0:
37,349,7222,6,0,B|126:328|105:394|206:380,1,161.000003070831,0|12,3:0|0:3,0:0:0:0:
246,313,7672,1,0,0:0:0:0:
329,348,7822,2,0,P|365:358|416:351,1,80.5000015354157,0|0,3:0|3:0,0:0:0:0:
472,288,8122,2,0,P|450:248|413:221,1,80.5000015354157,12|0,0:3|0:0,0:0:0:0:
318,227,8422,5,0,3:0:0:0:
318,227,8572,1,0,3:0:0:0:
262,153,8722,2,0,P|257:106|270:64,1,80.5000015354157,12|0,0:3|0:0,0:0:0:0:
336,9,9022,2,0,P|386:11|433:33,1,80.5000015354157,0|0,3:0|3:0,0:0:0:0:
469,98,9322,1,12,0:3:0:0:
262,153,9622,6,0,P|171:161|91:124,1,161.000003070831,4|12,3:2|0:3,0:0:0:0:
136,52,10072,1,0,0:0:0:0:
221,84,10222,2,0,P|246:117|266:177,1,80.5000015354157,0|0,3:0|3:0,0:0:0:0:
252,243,10522,1,12,0:3:0:0:
420,354,10822,6,0,P|446:313|448:271,1,80.5000015354157,0|0,3:0|3:0,0:0:0:0:
398,206,11122,2,0,P|385:163|386:116,1,80.5000015354157,12|0,0:3|0:0,0:0:0:0:
451,63,11422,1,0,3:0:0:0:
451,63,11572,1,0,3:0:0:0:
379,0,11722,2,0,P|325:-2|287:9,1,80.5000015354157,12|0,0:3|0:0,0:0:0:0:
212,52,12022,6,0,B|216:126|216:126|221:133|221:133|224:217,1,161.000003070831,0|12,3:0|0:3,0:0:0:0:
167,285,12472,1,0,0:0:0:0:
77,288,12622,2,0,P|38:243|30:200,1,80.5000015354157,0|0,3:0|3:0,0:0:0:0:
51,134,12922,2,0,P|51:89|66:53,1,80.5000015354157,12|0,0:0|0:0,0:0:0:0:
152,0,13222,6,0,B|240:-16|203:46|315:34,1,161.000003070831,12|0,0:0|3:0,0:0:0:0:
390,11,13672,2,0,P|443:0|464:93,1,161.000003070831,12|0,0:0|3:0,0:0:0:0:
398,134,14122,2,0,L|355:130,2,40.2500007677078,8|8|8,0:0|0:0|0:0,0:0:0:0:
475,196,14422,5,4,3:2:0:0:
475,196,14572,1,0,3:0:0:0:
481,279,14722,2,0,P|466:307|425:324,1,62.9999980773926,10|2,0:0|0:0,0:0:0:0:
364,285,15022,2,0,P|305:266|246:327,1,125.999996154785,2|10,0:0|0:0,0:0:0:0:
189,346,15472,5,2,0:0:0:0:
189,346,15622,1,2,3:2:0:0:
73,275,15922,1,10,0:0:0:0:
30,146,16222,1,2,0:0:0:0:
109,34,16522,1,10,0:0:0:0:
242,84,16822,5,0,3:0:0:0:
242,84,16972,1,0,3:0:0:0:
322,41,17122,2,0,P|376:45|391:67,1,62.9999980773926,10|2,0:0|0:0,0:0:0:0:
443,114,17422,2,0,P|444:200|401:229,1,125.999996154785,2|10,0:0|0:0,0:0:0:0:
333,253,17872,5,2,0:0:0:0:
333,253,18022,1,2,3:2:0:0:
191,263,18322,1,10,0:0:0:0:
254,141,18622,1,2,3:2:0:0:
333,253,18922,1,10,0:0:0:0:
411,366,19222,5,0,3:0:0:0:
411,366,19372,1,0,3:0:0:0:
482,315,19522,2,0,P|497:288|501:248,1,62.9999980773926,10|2,0:0|0:0,0:0:0:0:
506,173,19822,2,0,P|497:126|419:97,1,125.999996154785,2|10,0:0|0:0,0:0:0:0:
358,138,20272,5,0,0:0:0:0:
358,138,20422,1,2,3:2:0:0:
218,160,20722,1,10,0:0:0:0:
111,79,21022,1,2,0:0:0:0:
2,155,21322,1,10,0:0:0:0:
16,292,21622,5,0,3:0:0:0:
16,292,21772,1,0,3:0:0:0:
87,336,21922,2,0,P|127:342|163:332,1,62.9999980773926,10|2,0:0|0:0,0:0:0:0:
193,266,22222,2,0,P|173:222|216:138,1,125.999996154785,2|10,0:0|0:0,0:0:0:0:
281,121,22672,5,2,0:0:0:0:
281,121,22822,1,2,3:2:0:0:
367,236,23122,1,10,0:0:0:0:
254,319,23422,1,2,3:2:0:0:
89,247,23722,6,0,L|41:247,2,35,10|8|8,0:0|0:0|0:0,0:0:0:0:
161,193,24022,2,0,B|188:131|122:126|164:37,1,140,4|10,3:2|0:0,0:0:0:0:
222,0,24472,1,2,0:0:0:0:
293,54,24622,2,0,P|327:66|367:62,1,70,2|0,3:2|3:0,0:0:0:0:
435,15,24922,1,10,0:0:0:0:
435,15,25072,1,2,0:0:0:0:
498,80,25222,6,0,P|510:127|507:157,1,70,2|0,3:2|3:0,0:0:0:0:
444,201,25522,2,0,P|434:234|440:276,1,70,10|0,0:0|0:0,0:0:0:0:
474,351,25822,1,2,3:2:0:0:
474,351,25972,1,0,3:0:0:0:
389,367,26122,2,0,P|349:339|310:332,1,70,10|0,0:0|0:0,0:0:0:0:
237,375,26422,6,0,P|192:368|187:287,1,140,0|10,3:0|0:0,0:0:0:0:
241,226,26872,1,2,0:0:0:0:
324,222,27022,2,0,P|349:186|348:140,1,70,2|0,3:2|3:0,0:0:0:0:
349,73,27322,1,10,0:0:0:0:
349,73,27472,1,2,0:0:0:0:
269,18,27622,6,0,P|233:47|214:87,1,70,2|0,3:2|3:0,0:0:0:0:
204,150,27922,2,0,P|203:193|189:222,1,70,10|0,0:0|0:0,0:0:0:0:
128,278,28222,1,2,3:2:0:0:
42,255,28372,1,0,3:2:0:0:
10,172,28522,2,0,P|12:124|33:87,1,70,10|0,0:0|0:0,0:0:0:0:
89,31,28822,6,0,B|169:20|145:78|242:64,1,140,0|10,3:0|0:0,0:0:0:0:
309,73,29272,1,2,0:0:0:0:
376,12,29422,2,0,P|425:26|444:60,1,70,2|0,3:2|3:0,0:0:0:0:
470,117,29722,1,10,0:0:0:0:
470,117,29872,1,0,0:0:0:0:
404,183,30022,6,0,P|360:192|325:181,1,70,2|0,3:2|3:0,0:0:0:0:
256,147,30322,2,0,P|210:154|181:187,1,70,10|0,0:0|0:0,0:0:0:0:
162,254,30622,1,2,3:2:0:0:
162,254,30772,1,0,3:0:0:0:
205,330,30922,2,0,P|242:347|279:352,1,70,10|0,0:0|0:0,0:0:0:0:
365,384,31222,6,0,B|412:349|412:349|401:245,1,140,0|10,3:0|0:0,0:0:0:0:
331,217,31672,1,2,0:0:0:0:
360,137,31822,2,0,P|392:113|445:104,1,70,2|0,3:2|3:0,0:0:0:0:
505,111,32122,1,10,0:0:0:0:
507,27,32272,1,2,0:0:0:0:
422,21,32422,2,0,P|379:22|349:31,1,70,2|0,3:2|3:0,0:0:0:0:
293,87,32722,1,14,0:0:0:0:
120,53,33022,6,0,L|74:59,2,35,8|8|0,0:0|0:0|3:0,0:0:0:0:
189,117,33322,1,8,0:3:0:0:
189,117,33472,1,4,0:3:0:0:
107,167,33622,6,0,P|84:198|73:296,1,125.999996154785,4|2,3:2|3:2,0:0:0:0:
134,341,34072,1,0,3:0:0:0:
212,312,34222,2,0,P|253:308|282:317,1,62.9999980773926,8|0,0:0|3:0,0:0:0:0:
352,353,34522,1,2,3:2:0:0:
352,353,34672,1,0,3:0:0:0:
438,317,34822,6,0,P|440:273|426:236,1,62.9999980773926,0|8,3:0|0:0,0:0:0:0:
384,185,35122,2,0,P|337:185|317:195,1,62.9999980773926,2|0,3:2|3:0,0:0:0:0:
246,222,35422,2,0,P|191:207|154:127,1,125.999996154785,8|2,0:0|3:2,0:0:0:0:
162,71,35872,1,0,3:0:0:0:
242,17,36022,6,0,B|314:-3|309:44|382:31,1,125.999996154785,4|2,3:2|3:2,0:0:0:0:
445,17,36472,1,0,3:0:0:0:
497,79,36622,2,0,P|505:119|502:144,1,62.9999980773926,10|0,0:0|3:0,0:0:0:0:
445,198,36922,1,2,3:2:0:0:
256,192,37222,5,4,3:2:0:0:
87,361,38422,6,0,P|30:326|86:247,1,167.999994873047,6|14,3:2|0:3,0:0:0:0:
155,266,38872,1,0,0:0:0:0:
234,229,39022,2,0,P|247:186|246:147,1,83.9999974365235,2|2,3:2|3:2,0:0:0:0:
193,78,39322,1,14,0:3:0:0:
193,78,39472,1,2,3:2:0:0:
267,11,39622,6,0,B|344:7|344:7|354:14|354:14|436:10,1,167.999994873047,2|14,3:2|0:3,0:0:0:0:
511,61,40072,1,2,3:2:0:0:
475,139,40222,2,0,L|378:155,1,83.9999974365235,2|0,3:2|3:0,0:0:0:0:
350,239,40522,2,0,L|439:263,1,83.9999974365235,14|0,0:3|3:0,0:0:0:0:
509,323,40822,1,0,3:2:0:0:
509,323,40972,1,0,3:2:0:0:
433,372,41122,2,0,L|331:382,1,83.9999974365235,14|0,0:3|3:0,0:0:0:0:
256,352,41422,6,0,P|214:308|242:213,1,167.999994873047,2|12,3:2|0:3,0:0:0:0:
321,183,41872,1,0,3:0:0:0:
386,126,42022,2,0,P|371:62|258:32,1,167.999994873047,2|12,3:2|0:3,0:0:0:0:
204,64,42472,1,0,3:0:0:0:
121,22,42622,2,0,P|73:13|17:29,1,83.9999974365235,2|2,3:2|3:2,0:0:0:0:
0,101,42922,1,14,0:3:0:0:
0,101,43072,1,2,0:3:0:0:
87,159,43222,6,0,B|182:153|150:214|258:214,1,167.999994873047,2|14,3:2|0:3,0:0:0:0:
323,183,43672,1,2,3:2:0:0:
382,247,43822,2,0,P|373:301|344:331,1,83.9999974365235,2|2,3:2|3:2,0:0:0:0:
268,330,44122,2,0,P|216:315|161:324,1,83.9999974365235,14|2,0:3|3:2,0:0:0:0:
106,369,44422,6,0,P|26:368|36:271,1,167.999994873047,2|14,3:2|0:3,0:0:0:0:
86,241,44872,1,0,3:2:0:0:
86,241,45022,2,0,P|95:194|87:155,1,83.9999974365235,2|0,3:2|3:2,0:0:0:0:
8,116,45322,2,0,P|1:57|20:20,1,83.9999974365235,14|0,0:3|3:0,0:0:0:0:
102,0,45622,1,0,3:0:0:0:
102,0,45772,1,0,3:0:0:0:
153,78,45922,2,0,P|177:113|234:143,1,83.9999974365235,12|0,0:3|3:0,0:0:0:0:
305,145,46222,6,0,B|322:188|368:194|368:194|401:155|454:151,1,167.999994873047,2|12,3:2|0:3,0:0:0:0:
508,100,46672,1,0,3:0:0:0:
455,19,46822,2,0,B|438:62|392:68|392:68|359:29|306:25,1,167.999994873047,2|12,3:2|0:3,0:0:0:0:
235,40,47272,1,0,3:0:0:0:
176,113,47422,6,0,L|171:157,3,38.5000011749268,10|8|10|8,3:2|0:0|3:2|0:0,0:0:0:0:
203,190,47722,2,0,L|207:230,3,38.5000011749268,10|8|10|8,3:2|0:0|0:0|0:0,0:0:0:0:
186,274,48022,6,0,P|128:311|50:249,1,167.999994873047,6|14,3:2|0:3,0:0:0:0:
22,89,48622,2,0,P|58:56|120:46,1,83.9999974365235,2|2,3:2|3:2,0:0:0:0:
163,101,48922,1,14,0:3:0:0:
163,101,49072,1,2,3:2:0:0:
235,39,49222,6,0,P|289:19|389:70,1,167.999994873047,2|14,3:2|0:3,0:0:0:0:
422,150,49672,2,0,P|411:195|305:247,1,167.999994873047,2|2,3:2|3:2,0:0:0:0:
236,185,50122,2,0,P|189:172|144:175,1,83.9999974365235,14|0,0:3|3:0,0:0:0:0:
80,230,50422,1,0,3:0:0:0:
80,230,50572,1,0,3:0:0:0:
85,317,50722,2,0,P|127:346|175:355,1,83.9999974365235,12|0,0:3|3:0,0:0:0:0:
253,319,51022,6,0,P|297:292|397:331,1,167.999994873047,2|12,3:2|0:3,0:0:0:0:
477,369,51472,1,0,3:0:0:0:
512,285,51622,2,0,B|498:210|498:210|494:204|494:204|477:122,1,167.999994873047,2|12,3:2|0:3,0:0:0:0:
443,35,52072,1,0,3:0:0:0:
386,111,52222,2,0,P|346:132|301:127,1,83.9999974365235,2|2,3:2|3:2,0:0:0:0:
239,69,52522,1,14,0:3:0:0:
239,69,52672,1,2,0:3:0:0:
158,120,52822,6,0,L|144:286,1,154.000004699707,2|14,3:2|0:3,0:0:0:0:
99,354,53272,1,2,3:2:0:0:
24,302,53422,2,0,P|0:250|5:201,1,77.0000023498536,2|2,3:2|3:2,0:0:0:0:
38,152,53722,1,14,0:3:0:0:
14,68,53872,1,2,3:2:0:0:
93,11,54022,6,0,B|171:0|157:57|245:47,1,154.000004699707,2|14,3:2|0:3,0:0:0:0:
316,83,54472,1,2,3:2:0:0:
337,165,54622,2,0,P|318:202|288:232,1,77.0000023498536,2|0,3:2|3:0,0:0:0:0:
228,290,54922,1,14,0:3:0:0:
228,290,55072,1,0,3:0:0:0:
281,358,55222,2,0,P|328:370|371:367,1,77.0000023498536,0|0,3:0|3:0,0:0:0:0:
418,309,55522,2,0,P|416:266|429:221,1,77.0000023498536,12|0,0:3|3:0,0:0:0:0:
503,180,55822,6,0,P|517:129|437:46,1,154.000004699707,2|12,3:2|0:3,0:0:0:0:
376,72,56272,1,0,3:0:0:0:
294,40,56422,2,0,P|234:84|231:159,1,154.000004699707,2|12,3:2|0:3,0:0:0:0:
286,241,56872,2,0,L|327:246,2,38.5000011749268,8|8|8,3:2|0:0|3:2,0:0:0:0:
208,311,57172,5,10,0:0:0:0:
208,311,57322,2,0,P|165:324|115:317,1,77.0000023498536,10|10,3:2|0:0,0:0:0:0:
51,276,57622,6,0,P|12:209|33:139,1,140,6|2,3:2|3:2,0:0:0:0:
87,93,58072,1,2,3:2:0:0:
87,93,58222,2,0,L|163:83,1,70,8|2,0:0|3:2,0:0:0:0:
233,118,58522,2,0,L|305:130,1,70,0|2,3:0|3:2,0:0:0:0:
390,95,58822,5,0,3:0:0:0:
458,150,58972,2,0,B|484:200|484:200|478:288,1,140,10|2,0:0|3:2,0:0:0:0:
424,355,59422,2,0,L|341:363,1,70,8|2,0:0|3:2,0:0:0:0:
281,326,59722,1,0,3:0:0:0:
281,326,59872,1,0,3:0:0:0:
200,373,60022,6,0,P|141:379|110:289,1,140,6|2,3:2|3:2,0:0:0:0:
166,257,60472,1,2,3:2:0:0:
166,257,60622,2,0,P|171:208|166:167,1,70,8|2,0:0|3:2,0:0:0:0:
116,124,60922,1,0,3:0:0:0:
168,47,61072,6,0,B|225:45|225:45|249:69|249:69|324:69,1,140,6|8,3:2|0:0,0:0:0:0:
368,24,61522,1,8,0:0:0:0:
368,24,61672,1,0,3:0:0:0:
431,77,61822,2,0,P|448:119|446:154,1,70,8|10,0:0|0:0,0:0:0:0:
386,202,62122,2,0,P|378:244|388:288,1,70,10|10,0:0|0:0,0:0:0:0:
317,343,62422,6,0,P|298:295|199:217,1,167.999994873047,6|14,3:2|0:3,0:0:0:0:
134,282,62872,2,0,P|84:286|37:267,1,83.9999974365235,2|0,3:2|3:0,0:0:0:0:
0,202,63172,1,2,3:2:0:0:
27,118,63322,2,0,P|67:98|116:94,1,83.9999974365235,14|2,0:3|3:0,0:0:0:0:
192,139,63622,5,2,3:2:0:0:
286,138,63772,1,0,3:0:0:0:
348,69,63922,2,0,P|390:82|430:123,1,83.9999974365235,14|2,0:3|3:2,0:0:0:0:
442,195,64222,2,0,P|390:210|352:228,1,83.9999974365235,2|2,3:2|3:2,0:0:0:0:
296,278,64522,1,14,0:3:0:0:
296,278,64672,1,0,3:0:0:0:
224,218,64822,2,0,P|164:218|125:243,1,83.9999974365235,0|0,3:0|3:0,0:0:0:0:
124,316,65122,2,0,P|154:346|200:357,1,83.9999974365235,12|0,0:3|3:0,0:0:0:0:
291,363,65422,6,0,B|359:342|359:342|459:374,1,167.999994873047,2|12,3:2|0:3,0:0:0:0:
511,304,65872,1,0,3:0:0:0:
483,223,66022,2,0,B|415:202|415:202|315:234,1,167.999994873047,2|12,3:2|0:3,0:0:0:0:
255,289,66472,1,0,3:0:0:0:
181,237,66622,2,0,L|168:147,1,83.9999974365235,2|0,3:2|3:0,0:0:0:0:
187,66,66922,1,14,0:3:0:0:
121,8,67072,1,2,0:3:0:0:
22,34,67222,6,0,B|-5:85|-5:85|0:198,1,167.999994873047,2|14,3:2|0:3,0:0:0:0:
0,283,67672,1,0,3:0:0:0:
71,338,67822,2,0,P|112:355|156:358,1,83.9999974365235,2|2,3:2|3:2,0:0:0:0:
200,284,68122,2,0,P|249:268|295:265,1,83.9999974365235,12|2,0:3|3:2,0:0:0:0:
379,289,68422,6,0,P|393:246|389:196,1,83.9999974365235,2|2,3:2|3:2,0:0:0:0:
324,151,68722,1,12,0:3:0:0:
308,68,68872,2,0,P|341:35|383:25,1,83.9999974365235,2|0,3:2|3:0,0:0:0:0:
476,30,69172,1,2,3:2:0:0:
476,30,69322,2,0,P|502:72|514:113,1,83.9999974365235,12|0,0:3|3:0,0:0:0:0:
488,198,69622,1,0,3:0:0:0:
488,198,69772,1,0,3:0:0:0:
404,142,69922,2,0,P|357:138|304:165,1,83.9999974365235,12|0,0:3|3:0,0:0:0:0:
261,225,70222,6,0,B|175:203|183:273|79:236,1,167.999994873047,2|12,3:2|0:3,0:0:0:0:
41,174,70672,1,0,3:0:0:0:
79,91,70822,2,0,B|164:69|156:139|260:102,1,167.999994873047,2|12,3:2|0:3,0:0:0:0:
304,47,71272,1,0,3:2:0:0:
395,88,71422,6,0,L|408:136,3,38.5000011749268,14|8|10|8,3:2|0:0|3:2|0:0,0:0:0:0:
384,171,71722,2,0,L|378:220,3,38.5000011749268,10|8|10|8,3:2|0:0|0:0|0:0,0:0:0:0:
407,256,72022,6,0,L|425:355,1,83.9999974365235,6|0,3:2|3:0,0:0:0:0:
341,384,72322,1,10,0:0:0:0:
341,384,72472,1,2,3:2:0:0:
271,319,72622,2,0,P|220:311|187:316,1,83.9999974365235,10|2,0:0|3:2,0:0:0:0:
111,363,72922,1,10,0:0:0:0:
31,332,73072,1,2,3:2:0:0:
32,241,73222,6,0,B|110:226|110:226|116:233|116:233|197:220,1,167.999994873047,10|10,0:0|0:0,0:0:0:0:
277,189,73672,1,2,3:2:0:0:
260,101,73822,2,0,P|256:53|281:15,1,83.9999974365235,10|2,0:0|3:2,0:0:0:0:
356,0,74122,2,0,P|406:2|450:32,1,83.9999974365235,10|0,0:0|3:0,0:0:0:0:
486,103,74422,1,8,0:0:0:0:
486,103,74572,1,0,3:0:0:0:
408,152,74722,2,0,P|391:199|402:257,1,83.9999974365235,8|0,0:0|3:0,0:0:0:0:
455,306,75022,6,0,P|436:361|326:324,1,167.999994873047,10|8,0:0|0:0,0:0:0:0:
294,282,75472,1,0,3:0:0:0:
213,317,75622,2,0,P|163:314|114:272,1,83.9999974365235,10|0,0:0|3:0,0:0:0:0:
141,213,75922,2,0,P|172:180|185:139,1,83.9999974365235,8|0,0:0|3:0,0:0:0:0:
183,60,76222,1,10,0:0:0:0:
110,10,76372,1,2,3:2:0:0:
28,40,76522,2,0,P|9:77|2:133,1,83.9999974365235,10|2,0:0|3:2,0:0:0:0:
51,198,76822,6,0,B|143:175|121:240|221:221,1,167.999994873047,10|10,0:0|0:0,0:0:0:0:
258,147,77272,1,0,3:2:0:0:
340,115,77422,2,0,P|388:124|409:151,1,83.9999974365235,10|2,0:0|3:2,0:0:0:0:
446,223,77722,2,0,P|412:252|403:299,1,83.9999974365235,10|2,0:0|3:2,0:0:0:0:
321,340,78022,6,0,P|294:282|201:219,1,167.999994873047,10|10,0:0|0:0,0:0:0:0:
140,274,78472,2,0,P|78:294|38:284,1,83.9999974365235,2|8,3:2|0:0,0:0:0:0:
0,229,78772,1,2,3:2:0:0:
66,172,78922,2,0,P|78:130|75:84,1,83.9999974365235,10|0,0:0|3:2,0:0:0:0:
21,24,79222,1,8,0:0:0:0:
21,24,79372,1,0,3:2:0:0:
112,0,79522,2,0,L|203:6,1,83.9999974365235,8|0,0:0|3:2,0:0:0:0:
296,0,79822,6,0,P|260:52|254:165,1,167.999994873047,10|8,0:0|0:0,0:0:0:0:
305,227,80272,1,0,3:2:0:0:
394,225,80422,2,0,L|486:212,1,83.9999974365235,10|0,0:0|3:2,0:0:0:0:
496,130,80722,2,0,L|407:109,1,83.9999974365235,8|0,0:0|3:2,0:0:0:0:
361,42,81022,1,10,0:0:0:0:
201,92,81322,6,0,L|149:100,2,46.6666666666667,8|8|8,3:0|3:0|3:0,0:0:0:0:
255,117,81622,6,0,B|291:188|224:179|265:277,1,140,6|2,3:2|3:2,0:0:0:0:
316,310,82072,1,2,3:2:0:0:
396,296,82222,2,0,P|450:292|448:196,1,140,8|0,0:0|3:0,0:0:0:0:
415,153,82672,2,0,P|401:112|398:69,1,70,2|0,3:2|3:0,0:0:0:0:
336,25,82972,2,0,P|314:68|289:102,1,70,10|0,0:0|3:0,0:0:0:0:
222,115,83272,1,2,3:2:0:0:
163,57,83422,2,0,P|116:47|67:59,1,70,8|2,0:0|3:2,0:0:0:0:
27,102,83722,1,0,3:0:0:0:
27,102,83872,1,0,3:0:0:0:
65,183,84022,6,0,B|55:250|55:250|60:255|60:255|51:327,1,140,6|2,3:2|3:2,0:0:0:0:
118,368,84472,1,2,3:2:0:0:
184,316,84622,2,0,P|224:304|272:308,1,70,8|2,0:0|3:2,0:0:0:0:
326,342,84922,1,0,3:0:0:0:
408,312,85072,6,0,L|418:201,1,105.000004005432,2|2,0:0|0:0,0:0:0:0:
312,146,85672,2,0,L|322:257,1,105.000004005432,2|2,0:0|0:0,0:0:0:0:
45,79,86722,6,0,P|23:117|18:156,1,77.0000023498536,4|0,3:2|3:2,0:0:0:0:
54,227,87022,2,0,B|137:216|113:271|213:258,1,154.000004699707,12|0,0:3|3:0,0:0:0:0:
283,286,87472,1,0,3:0:0:0:
358,247,87622,2,0,P|373:208|369:171,1,77.0000023498536,12|0,0:3|0:0,0:0:0:0:
312,106,87922,1,0,3:0:0:0:
312,106,88072,1,0,3:0:0:0:
347,23,88222,2,0,P|387:9|430:11,1,77.0000023498536,12|0,0:3|0:0,0:0:0:0:
494,56,88522,2,0,P|475:99|469:142,1,77.0000023498536,0|0,3:0|3:0,0:0:0:0:
492,209,88822,1,12,0:3:0:0:
376,339,89122,6,0,B|294:350|311:284|222:301,1,154.000004699707,0|12,3:0|0:3,0:0:0:0:
155,346,89572,1,0,0:0:0:0:
66,332,89722,2,0,P|27:298|22:250,1,77.0000023498536,0|0,3:0|3:0,0:0:0:0:
68,205,90022,2,0,P|80:171|76:123,1,77.0000023498536,12|0,0:3|0:0,0:0:0:0:
26,46,90322,5,0,3:0:0:0:
102,0,90472,1,0,3:0:0:0:
186,35,90622,2,0,L|198:122,1,77.0000023498536,12|0,0:3|0:0,0:0:0:0:
279,154,90922,2,0,L|292:66,1,77.0000023498536,0|0,3:0|3:0,0:0:0:0:
376,36,91222,2,0,L|389:123,1,77.0000023498536,12|0,0:3|0:0,0:0:0:0:
458,172,91522,6,0,P|394:204|360:282,1,154.000004699707,4|12,3:2|0:3,0:0:0:0:
303,339,91972,1,0,0:0:0:0:
219,315,92122,2,0,P|196:274|197:230,1,77.0000023498536,0|0,3:0|3:0,0:0:0:0:
239,172,92422,1,12,0:3:0:0:
128,28,92722,6,0,P|79:34|54:62,1,77.0000023498536,0|0,3:0|3:0,0:0:0:0:
44,134,93022,2,0,P|71:182|74:220,1,77.0000023498536,12|0,0:3|0:0,0:0:0:0:
25,278,93322,1,0,3:0:0:0:
25,278,93472,1,0,3:0:0:0:
74,346,93622,2,0,P|116:358|155:347,1,77.0000023498536,12|0,0:3|0:0,0:0:0:0:
189,268,93922,6,0,P|244:258|327:326,1,154.000004699707,0|12,3:0|0:3,0:0:0:0:
398,359,94372,1,0,0:0:0:0:
475,317,94522,2,0,P|486:278|478:235,1,77.0000023498536,0|0,3:0|3:0,0:0:0:0:
445,164,94822,1,12,0:0:0:0:
445,164,94972,1,0,3:0:0:0:
362,213,95122,6,0,P|287:233|223:174,1,154.000004699707,12|0,0:0|3:0,0:0:0:0:
199,106,95572,2,0,P|241:47|335:37,1,154.000004699707,12|0,0:0|3:0,0:0:0:0:
396,70,96022,2,0,L|439:65,3,38.5000011749268,8|8|8|8,0:0|0:0|0:0|0:0,0:0:0:0:
481,43,96322,6,0,B|423:145|508:157|529:207|498:276|460:299|397:289|362:275|332:204|386:155,1,420.000016021729,2|0,0:0|0:0,0:0:0:0:
