osu file format v14

[General]
AudioFilename: audio.mp3
AudioLeadIn: 0
PreviewTime: 37897
Countdown: 0
SampleSet: Soft
StackLeniency: 0.7
Mode: 0
LetterboxInBreaks: 0
WidescreenStoryboard: 1

[Editor]
Bookmarks: 14422
DistanceSpacing: 1.1
BeatDivisor: 4
GridSize: 32
TimelineZoom: 2.3

[Metadata]
Title:STRUGGLES
TitleUnicode:STRUGGLES
Artist:Primary
ArtistUnicode:Primary
Creator:keeVY
Version:Easy
Source:
Tags:Lafayla NeKroMan4ik yuiko 10th single c88 meis clauson yuikonnu cut version ver female vocalist japanese rock pop
BeatmapID:2457597
BeatmapSetID:1159351

[Difficulty]
HPDrainRate:2
CircleSize:2
OverallDifficulty:2
ApproachRate:3
SliderMultiplier:0.819999999999999
SliderTickRate:1

[Events]
//Background and Video events
0,0,"bg.jpg",0,0
//Break Periods
//Storyboard Layer 0 (Background)
//Storyboard Layer 1 (Fail)
//Storyboard Layer 2 (Pass)
//Storyboard Layer 3 (Foreground)
//Storyboard Layer 4 (Overlay)
//Storyboard Sound Samples

[TimingPoints]
22,300,4,2,1,5,1,0
22,-100,4,2,1,5,0,0
622,-100,4,2,1,15,0,0
1222,-100,4,2,1,25,0,0
1822,-100,4,2,1,35,0,0
2422,-100,4,2,1,45,0,0
3022,-100,4,2,1,55,0,0
3622,-100,4,2,1,65,0,0
4822,-100,4,2,1,75,0,0
13222,-100,4,2,1,85,0,0
14422,-100,4,2,1,65,0,0
23722,-100,4,2,1,70,0,0
24022,-100,4,2,1,75,0,0
33022,-100,4,2,2,75,0,0
33622,-100,4,2,1,70,0,0
37222,-100,4,2,1,65,0,0
38422,-100,4,2,1,95,0,1
47422,-100,4,2,1,95,0,0
48022,-100,4,2,1,95,0,1
57622,-100,4,2,1,80,0,0
62422,-100,4,2,1,95,0,1
71422,-100,4,2,1,90,0,0
72022,-100,4,2,1,95,0,1
81322,-100,4,2,2,95,0,1
81622,-100,4,2,1,95,0,0
86722,300,4,2,1,75,1,0
86722,-100,4,2,1,75,0,0
96322,-125,4,2,1,65,0,0
96622,-125,4,2,1,50,0,0
96922,-125,4,2,1,35,0,0
97222,-125,4,2,1,20,0,0
97522,-125,4,2,1,5,0,0

[Colours]
Combo1 : 255,140,140
Combo2 : 145,185,220
Combo3 : 160,230,170
Combo4 : 150,150,210

[HitObjects]
296,79,4822,6,0,P|337:51|450:90,2,164,4|0|0,3:2|3:0|3:0,0:0:0:0:
247,155,6322,1,12,0:3:0:0:
161,126,6622,2,0,P|116:108|65:109,1,81.9999999999999,0|12,3:0|0:3,0:0:0:0:
18,169,7222,2,0,B|-18:253|68:250|21:376,2,164,0|0|0,3:0|3:0|3:0,0:0:0:0:
82,106,8722,1,12,0:3:0:0:
172,107,9022,2,0,P|215:134|245:186,1,81.9999999999999,0|12,3:0|0:3,0:0:0:0:
256,245,9622,6,0,P|294:298|418:268,1,164,4|0,3:2|3:0,0:0:0:0:
454,240,10522,1,12,0:3:0:0:
468,150,10822,2,0,P|456:96|427:60,1,81.9999999999999,0|12,3:0|0:3,0:0:0:0:
360,35,11422,2,0,P|304:36|263:54,1,81.9999999999999,0|12,3:0|0:3,0:0:0:0:
203,91,12022,2,0,B|179:162|179:162|182:172|182:172|154:276,1,164,0|0,3:0|3:0,0:0:0:0:
83,293,12922,1,12,0:0:0:0:
4,249,13222,2,0,P|-13:215|23:109,2,123,12|12|8,0:0|0:0|0:0,0:0:0:0:
83,293,14422,6,0,L|172:291,1,81.9999999999999,4|10,3:2|0:0,0:0:0:0:
340,334,15322,1,10,0:0:0:0:
418,289,15622,2,0,B|433:266|433:266|438:198,1,81.9999999999999,2|10,3:2|0:0,0:0:0:0:
362,47,16522,1,8,0:0:0:0:
291,103,16822,2,0,P|239:118|196:98,1,81.9999999999999,0|10,3:0|0:0,0:0:0:0:
39,63,17722,1,10,0:0:0:0:
5,146,18022,2,0,L|20:323,1,164,2|2,3:2|3:2,0:0:0:0:
192,358,19222,6,0,L|291:334,1,81.9999999999999,0|10,3:0|0:0,0:0:0:0:
270,158,20122,1,10,0:0:0:0:
183,184,20422,2,0,P|138:139|146:70,1,81.9999999999999,2|10,3:2|0:0,0:0:0:0:
285,25,21322,1,10,0:0:0:0:
368,57,21622,2,0,L|383:151,1,81.9999999999999,0|10,3:0|0:0,0:0:0:0:
343,314,22522,1,10,0:0:0:0:
417,365,22822,2,0,B|478:329|478:329|490:219,1,164,2|2,3:2|3:2,0:0:0:0:
490,146,23722,1,10,0:0:0:0:
486,55,24022,5,4,3:2:0:0:
397,36,24322,2,0,P|340:1|295:9,2,81.9999999999999,10|2|10,0:0|3:2|0:0,0:0:0:0:
395,126,25222,2,0,L|404:235,1,81.9999999999999,2|10,3:2|0:0,0:0:0:0:
440,289,25822,2,0,L|372:336,1,81.9999999999999,2|10,3:2|0:0,0:0:0:0:
285,356,26422,5,0,3:0:0:0:
211,304,26722,2,0,P|109:309|50:336,1,164,10|8,0:0|0:0,0:0:0:0:
10,254,27622,2,0,P|20:201|66:163,1,81.9999999999999,2|10,3:2|0:0,0:0:0:0:
126,186,28222,2,0,P|163:197|210:194,1,81.9999999999999,2|10,3:2|0:0,0:0:0:0:
282,146,28822,5,0,3:0:0:0:
362,104,29122,2,0,P|416:101|465:129,2,81.9999999999999,10|2|10,0:0|3:2|0:0,0:0:0:0:
282,146,30022,2,0,P|244:112|225:71,1,81.9999999999999,2|10,3:2|0:0,0:0:0:0:
161,25,30622,2,0,P|119:34|78:61,1,81.9999999999999,2|10,3:2|0:0,0:0:0:0:
56,139,31222,6,0,B|141:160|141:160|163:211|163:211|265:242,1,246,0|10,3:0|0:0,0:0:0:0:
334,293,32422,2,0,P|326:349|302:370,1,81.9999999999999,2|14,3:2|0:0,0:0:0:0:
219,354,33022,1,8,0:3:0:0:
129,340,33322,1,4,0:3:0:0:
39,347,33622,6,0,P|-2:281|113:166,1,246,4|2,3:2|3:2,0:0:0:0:
171,203,34822,2,0,P|231:251|333:213,1,164,0|8,3:0|0:0,0:0:0:0:
376,172,35722,1,2,3:2:0:0:
431,100,36022,6,0,B|476:60|476:60|503:277,1,246,4|2,3:2|3:2,0:0:0:0:
511,333,37222,1,4,3:2:0:0:
153,286,38422,6,0,P|137:216|200:114,1,164,6|2,3:2|3:2,0:0:0:0:
262,116,39322,1,14,0:3:0:0:
329,55,39622,2,0,P|388:78|405:100,1,81.9999999999999,2|14,3:2|0:3,0:0:0:0:
406,181,40222,2,0,P|415:244|405:270,1,81.9999999999999,2|14,3:2|0:3,0:0:0:0:
366,339,40822,1,0,3:2:0:0:
278,360,41122,1,14,0:3:0:0:
196,323,41422,2,0,B|105:317|133:384|34:376,2,164,2|2|2,3:2|3:2|3:2,0:0:0:0:
269,270,42922,1,14,0:3:0:0:
270,179,43222,6,0,P|230:110|128:86,1,164,2|2,3:2|3:2,0:0:0:0:
70,118,44122,1,14,0:3:0:0:
18,192,44422,2,0,P|8:235|12:275,1,81.9999999999999,2|14,3:2|0:3,0:0:0:0:
71,346,45022,2,0,P|122:360|157:352,1,81.9999999999999,2|14,3:2|0:3,0:0:0:0:
231,315,45622,1,0,3:0:0:0:
254,227,45922,1,12,0:3:0:0:
178,178,46222,2,0,B|169:100|169:100|164:91|164:91|154:6,2,164,2|2|10,3:2|3:2|3:2,0:0:0:0:
253,228,47722,1,10,3:2:0:0:
318,291,48022,6,0,P|377:295|424:272,1,81.9999999999999,6|14,3:2|0:3,0:0:0:0:
471,235,48622,2,0,P|489:192|492:142,1,81.9999999999999,2|14,3:2|0:3,0:0:0:0:
441,82,49222,2,0,B|387:57|387:57|300:72,2,123,2|2|14,3:2|3:2|0:3,0:0:0:0:
492,157,50422,1,0,3:0:0:0:
475,245,50722,1,12,0:3:0:0:
436,326,51022,2,0,P|387:345|336:343,1,81.9999999999999,2|12,3:2|0:3,0:0:0:0:
276,307,51622,2,0,B|207:301|207:301|177:324|177:324|102:322,1,164,2|2,3:2|3:2,0:0:0:0:
43,274,52522,1,14,0:3:0:0:
41,183,52822,6,0,P|81:99|179:88,1,164,2|2,3:2|3:2,0:0:0:0:
224,121,53722,1,14,0:3:0:0:
288,58,54022,2,0,P|329:28|363:21,1,81.9999999999999,2|14,3:2|0:3,0:0:0:0:
447,37,54622,2,0,P|486:81|506:126,1,81.9999999999999,2|14,3:2|0:3,0:0:0:0:
503,191,55222,1,0,3:0:0:0:
460,270,55522,1,12,0:3:0:0:
376,304,55822,2,0,P|306:276|208:275,2,164,2|2|8,3:2|3:2|3:2,0:0:0:0:
460,270,57322,1,10,3:2:0:0:
503,191,57622,6,0,P|491:129|305:78,1,246,6|0,3:2|3:0,0:0:0:0:
287,136,58822,2,0,B|248:205|157:185|157:185|151:129|184:93,1,246,0|0,3:0|3:0,0:0:0:0:
118,30,60022,2,0,P|58:33|20:179,1,205,6|2,3:2|3:2,0:0:0:0:
16,240,61072,2,0,B|131:251|61:329|209:353,1,205,6|8,3:2|0:0,0:0:0:0:
271,356,62122,1,10,0:0:0:0:
359,336,62422,6,0,B|387:291|387:291|360:158,1,164,6|0,3:2|3:0,0:0:0:0:
296,123,63322,1,14,0:3:0:0:
216,165,63622,2,0,P|182:192|129:199,1,81.9999999999999,2|14,3:2|0:3,0:0:0:0:
60,168,64222,2,0,P|35:120|37:79,1,81.9999999999999,2|14,3:2|0:3,0:0:0:0:
90,22,64822,1,0,3:0:0:0:
179,13,65122,1,12,0:3:0:0:
259,53,65422,2,0,B|322:54|322:54|361:79|361:79|449:81,2,164,2|2|2,3:2|3:2|3:2,0:0:0:0:
179,13,66922,1,14,0:3:0:0:
101,59,67222,6,0,B|84:143|149:138|131:242,1,164,2|2,3:2|3:2,0:0:0:0:
153,304,68122,1,12,0:3:0:0:
233,344,68422,2,0,P|290:346|331:333,1,81.9999999999999,2|12,3:2|0:3,0:0:0:0:
394,299,69022,2,0,P|431:257|438:215,1,81.9999999999999,0|12,3:0|0:3,0:0:0:0:
450,143,69622,1,0,3:0:0:0:
392,73,69922,1,12,0:3:0:0:
302,64,70222,2,0,B|205:54|243:125|123:122,2,164,2|2|14,3:2|3:2|3:2,0:0:0:0:
392,73,71722,1,10,3:2:0:0:
450,143,72022,6,0,P|453:189|438:227,1,81.9999999999999,6|10,3:2|0:0,0:0:0:0:
384,292,72622,1,10,0:0:0:0:
297,319,72922,1,10,0:0:0:0:
210,293,73222,2,0,B|171:235|171:235|188:125,1,164,10|10,0:0|0:0,0:0:0:0:
236,67,74122,1,10,0:0:0:0:
162,15,74422,2,0,P|94:18|67:31,1,81.9999999999999,8|8,0:0|0:0,0:0:0:0:
31,97,75022,2,0,B|37:170|37:170|41:175|41:175|49:265,2,164,10|10|10,0:0|0:0|0:0,0:0:0:0:
82,23,76522,1,10,0:0:0:0:
154,76,76822,6,0,P|198:91|249:94,1,81.9999999999999,10|10,0:0|0:0,0:0:0:0:
308,44,77422,1,10,0:0:0:0:
398,49,77722,1,10,0:0:0:0:
452,120,78022,2,0,P|459:173|450:231,1,81.9999999999999,10|10,0:0|0:0,0:0:0:0:
418,282,78622,2,0,P|378:309|337:315,1,81.9999999999999,8|10,0:0|0:0,0:0:0:0:
256,301,79222,1,8,0:0:0:0:
168,322,79522,1,8,0:0:0:0:
86,282,79822,2,0,B|60:203|119:203|69:89,2,164,10|10|10,0:0|0:0|0:0,0:0:0:0:
168,322,81322,1,8,3:0:0:0:
230,257,81622,6,0,B|361:227|321:336|481:305,1,246,6|0,3:2|3:0,0:0:0:0:
511,233,82822,2,0,P|521:143|383:113,1,246,0|0,3:0|3:0,0:0:0:0:
312,146,84022,2,0,P|190:162|118:115,1,205,6|2,3:2|3:2,0:0:0:0:
94,36,85072,1,2,0:0:0:0:
104,258,86722,6,0,P|72:207|106:103,2,164,4|0|0,3:2|3:0|3:0,0:0:0:0:
194,262,88222,1,12,0:3:0:0:
277,226,88522,2,0,P|326:221|378:241,1,81.9999999999999,0|12,3:0|0:3,0:0:0:0:
445,249,89122,2,0,B|440:170|494:183|468:57,1,164,0|0,3:0|3:0,0:0:0:0:
404,31,90022,1,12,0:3:0:0:
318,2,90322,2,0,P|267:9|228:26,1,81.9999999999999,0|12,3:0|0:3,0:0:0:0:
156,57,90922,1,0,3:0:0:0:
67,42,91222,1,12,0:3:0:0:
0,101,91522,6,0,B|12:174|12:174|20:183|20:183|38:285,1,164,4|0,3:2|3:0,0:0:0:0:
94,326,92422,1,12,0:3:0:0:
179,355,92722,2,0,P|229:366|273:346,1,81.9999999999999,0|12,3:0|0:3,0:0:0:0:
331,304,93322,2,0,P|331:247|307:201,1,81.9999999999999,0|12,3:0|0:3,0:0:0:0:
237,193,93922,2,0,P|170:177|187:89,1,164,0|0,3:0|3:0,0:0:0:0:
245,36,94822,1,12,0:0:0:0:
332,15,95122,2,0,B|402:-6|390:46|471:21,2,123,12|12|8,0:0|0:0|0:0,0:0:0:0:
245,36,96322,6,0,B|180:98|211:196|211:196|266:199|306:171,1,262.4,2|0,0:0|0:0,0:0:0:0:
