osu file format v14

[General]
AudioFilename: audio.mp3
AudioLeadIn: 0
PreviewTime: 96183
Countdown: 0
SampleSet: Soft
StackLeniency: 0.7
Mode: 0
LetterboxInBreaks: 0
WidescreenStoryboard: 1

[Editor]
Bookmarks: 5433,15033,24633,34233,39033,58233,63033,72633,82233,91833,96633,115833,120633,139833,159033,163833,173433,183033,197733
DistanceSpacing: 1.2
BeatDivisor: 4
GridSize: 16
TimelineZoom: 1.2

[Metadata]
Title:STRUGGLES
TitleUnicode:STRUGGLES
Artist:Primary
ArtistUnicode:Primary
Creator:Sylvarus
Version:Hard
Source:
Tags:yuiko yuikonnu ゆいこんぬ meis clauson japanese rock ひとつの願い hitotsu no negai c88 10th single
BeatmapID:2442846
BeatmapSetID:1144550

[Difficulty]
HPDrainRate:4.5
CircleSize:3.8
OverallDifficulty:7
ApproachRate:8
SliderMultiplier:1.3
SliderTickRate:1

[Events]
//Background and Video events
0,0,"79010962_p0.jpg",0,0
//Break Periods
//Storyboard Layer 0 (Background)
//Storyboard Layer 1 (Fail)
//Storyboard Layer 2 (Pass)
//Storyboard Layer 3 (Foreground)
//Storyboard Layer 4 (Overlay)
//Storyboard Sound Samples

[TimingPoints]
633,300,4,2,1,20,1,0
4833,-100,4,2,1,70,0,0
5433,-100,4,2,1,80,0,0
13758,-100,4,2,1,5,0,0
13833,-100,4,2,1,80,0,0
15033,-125,4,2,1,65,0,0
15633,-125,4,2,2,65,0,0
15708,-125,4,2,1,65,0,0
16833,-125,4,2,2,65,0,0
16908,-125,4,2,1,65,0,0
18033,-125,4,2,2,65,0,0
18108,-125,4,2,1,65,0,0
20433,-125,4,2,2,65,0,0
20508,-125,4,2,1,65,0,0
21633,-125,4,2,2,65,0,0
21708,-125,4,2,1,65,0,0
22833,-125,4,2,2,65,0,0
22908,-125,4,2,1,65,0,0
24633,-111.111111111111,4,2,1,75,0,0
34233,-111.111111111111,4,2,1,70,0,0
36633,-100,4,2,1,70,0,0
39033,-83.3333333333333,4,2,1,90,0,1
41058,-83.3333333333333,4,2,1,5,0,1
41133,-83.3333333333333,4,2,1,90,0,1
42033,-83.3333333333333,4,2,40,90,0,1
42108,-83.3333333333333,4,2,1,90,0,1
42633,-83.3333333333333,4,2,41,90,0,1
42708,-83.3333333333333,4,2,1,90,0,1
43233,-83.3333333333333,4,2,42,90,0,1
43308,-83.3333333333333,4,2,1,90,0,1
45258,-83.3333333333333,4,2,1,5,0,1
45333,-83.3333333333333,4,2,1,90,0,1
46833,-83.3333333333333,4,2,40,90,0,1
46908,-83.3333333333333,4,2,1,90,0,1
47433,-83.3333333333333,4,2,43,90,0,1
47508,-83.3333333333333,4,2,1,90,0,1
48033,-83.3333333333333,4,2,41,90,0,1
48108,-83.3333333333333,4,2,1,90,0,1
51633,-83.3333333333333,4,2,40,90,0,1
51708,-83.3333333333333,4,2,1,90,0,1
52233,-83.3333333333333,4,2,41,90,0,1
52308,-83.3333333333333,4,2,1,90,0,1
52833,-83.3333333333333,4,2,42,90,0,1
52908,-83.3333333333333,4,2,1,90,0,1
55458,-83.3333333333333,4,2,1,5,0,1
55533,-83.3333333333333,4,2,1,90,0,1
56433,-83.3333333333333,4,2,40,90,0,1
56508,-83.3333333333333,4,2,1,90,0,1
57033,-83.3333333333333,4,2,43,90,0,1
57108,-83.3333333333333,4,2,1,90,0,1
57633,-83.3333333333333,4,2,41,90,0,1
57708,-83.3333333333333,4,2,1,90,0,1
58233,-100,4,2,1,70,0,0
63033,-100,4,2,1,80,0,0
71358,-100,4,2,1,5,0,0
71433,-100,4,2,1,80,0,0
72633,-125,4,2,1,60,0,0
82233,-111.111111111111,4,2,1,75,0,0
91833,-111.111111111111,4,2,1,70,0,0
94233,-100,4,2,1,70,0,0
96633,-83.3333333333333,4,2,1,90,0,1
99633,-83.3333333333333,4,2,40,90,0,1
99708,-83.3333333333333,4,2,1,90,0,1
100233,-83.3333333333333,4,2,41,90,0,1
100308,-83.3333333333333,4,2,1,90,0,1
100833,-83.3333333333333,4,2,42,90,0,1
100908,-83.3333333333333,4,2,1,90,0,1
104433,-83.3333333333333,4,2,40,90,0,1
104508,-83.3333333333333,4,2,1,90,0,1
105033,-83.3333333333333,4,2,43,90,0,1
105108,-83.3333333333333,4,2,1,90,0,1
105633,-83.3333333333333,4,2,41,90,0,1
105708,-83.3333333333333,4,2,1,90,0,1
109233,-83.3333333333333,4,2,40,90,0,1
109308,-83.3333333333333,4,2,1,90,0,1
109833,-83.3333333333333,4,2,41,90,0,1
109908,-83.3333333333333,4,2,1,90,0,1
110433,-83.3333333333333,4,2,42,90,0,1
110508,-83.3333333333333,4,2,1,90,0,1
114033,-83.3333333333333,4,2,40,90,0,1
114108,-83.3333333333333,4,2,1,90,0,1
114633,-83.3333333333333,4,2,43,90,0,1
114708,-83.3333333333333,4,2,1,90,0,1
115233,-83.3333333333333,4,2,41,90,0,1
115308,-83.3333333333333,4,2,1,90,0,1
115833,-100,4,2,1,70,0,0
120633,-100,4,2,1,75,0,0
139833,-83.3333333333333,4,2,1,90,0,1
141858,-83.3333333333333,4,2,1,5,0,1
141933,-83.3333333333333,4,2,1,90,0,1
142833,-83.3333333333333,4,2,40,90,0,1
142908,-83.3333333333333,4,2,1,90,0,1
143433,-83.3333333333333,4,2,41,90,0,1
143508,-83.3333333333333,4,2,1,90,0,1
144033,-83.3333333333333,4,2,42,90,0,1
144108,-83.3333333333333,4,2,1,90,0,1
146058,-83.3333333333333,4,2,1,5,0,1
146133,-83.3333333333333,4,2,1,90,0,1
147633,-83.3333333333333,4,2,40,90,0,1
147708,-83.3333333333333,4,2,1,90,0,1
148233,-83.3333333333333,4,2,43,90,0,1
148308,-83.3333333333333,4,2,1,90,0,1
148833,-83.3333333333333,4,2,41,90,0,1
148908,-83.3333333333333,4,2,1,90,0,1
152433,-83.3333333333333,4,2,40,90,0,1
152508,-83.3333333333333,4,2,1,90,0,1
153033,-83.3333333333333,4,2,41,90,0,1
153108,-83.3333333333333,4,2,1,90,0,1
153633,-83.3333333333333,4,2,42,90,0,1
153708,-83.3333333333333,4,2,1,90,0,1
156258,-83.3333333333333,4,2,1,5,0,1
156333,-83.3333333333333,4,2,1,90,0,1
157233,-83.3333333333333,4,2,40,90,0,1
157308,-83.3333333333333,4,2,1,90,0,1
157833,-83.3333333333333,4,2,43,90,0,1
157908,-83.3333333333333,4,2,1,90,0,1
158433,-83.3333333333333,4,2,41,90,0,1
158508,-83.3333333333333,4,2,1,90,0,1
159033,-100,4,2,1,80,0,0
163833,-83.3333333333333,4,2,1,95,0,1
166158,-83.3333333333333,4,2,1,5,0,1
166233,-83.3333333333333,4,2,1,95,0,1
166833,-83.3333333333333,4,2,40,90,0,1
166908,-83.3333333333333,4,2,1,90,0,1
167433,-83.3333333333333,4,2,41,90,0,1
167508,-83.3333333333333,4,2,1,90,0,1
168033,-83.3333333333333,4,2,42,90,0,1
168108,-83.3333333333333,4,2,1,90,0,1
168858,-83.3333333333333,4,2,1,5,0,1
168933,-83.3333333333333,4,2,1,90,0,1
170958,-83.3333333333333,4,2,1,5,0,1
171033,-83.3333333333333,4,2,1,90,0,1
171633,-83.3333333333333,4,2,40,90,0,1
171708,-83.3333333333333,4,2,1,90,0,1
172233,-83.3333333333333,4,2,43,90,0,1
172308,-83.3333333333333,4,2,1,90,0,1
172833,-83.3333333333333,4,2,41,90,0,1
172908,-83.3333333333333,4,2,1,90,0,1
173433,-76.9230769230769,4,2,1,90,0,1
175758,-76.9230769230769,4,2,1,5,0,1
175833,-76.9230769230769,4,2,1,90,0,1
176433,-76.9230769230769,4,2,40,90,0,1
176508,-76.9230769230769,4,2,1,90,0,1
177033,-76.9230769230769,4,2,41,90,0,1
177108,-76.9230769230769,4,2,1,90,0,1
177633,-76.9230769230769,4,2,42,90,0,1
177708,-76.9230769230769,4,2,1,90,0,1
180558,-76.9230769230769,4,2,1,5,0,1
180633,-76.9230769230769,4,2,1,90,0,1
181233,-76.9230769230769,4,2,40,90,0,1
181308,-76.9230769230769,4,2,1,90,0,1
181833,-76.9230769230769,4,2,43,90,0,1
181908,-76.9230769230769,4,2,1,90,0,1
182433,-76.9230769230769,4,2,41,90,0,1
182508,-76.9230769230769,4,2,1,90,0,1
183033,-100,4,2,1,80,0,0
188133,300,4,2,1,80,1,0
188133,-100,4,2,1,80,0,0
196458,-100,4,2,1,5,0,0
196533,-100,4,2,1,80,0,0

[Colours]
Combo1 : 255,83,87
Combo2 : 87,124,253

[HitObjects]
256,192,633,12,0,4233,0:0:0:0:
171,188,4833,6,0,L|132:182,4,32.5,8|8|8|8|8,0:2|0:2|0:2|0:2|0:2,0:0:0:0:
221,254,5283,1,8,0:2:0:0:
221,254,5358,1,8,0:2:0:0:
221,254,5433,6,0,B|253:244|285:255|285:255|299:278|288:323,1,130,14|8,0:1|0:2,0:0:0:0:
140,365,6033,2,0,P|108:349|94:319,1,65,10|8,0:1|0:1,0:0:0:0:
116,248,6333,1,8,0:2:0:0:
7,376,6633,2,0,B|1:333|14:310|14:310|7:306|7:306|27:280|21:249,1,130,10|8,0:1|0:2,0:0:0:0:
5,99,7233,2,0,P|35:118|67:122,1,65,10|8,0:1|0:1,0:0:0:0:
139,105,7533,1,8,0:2:0:0:
273,25,7833,6,0,P|250:76|297:149,1,130,10|8,0:1|0:2,0:0:0:0:
418,249,8433,2,0,P|380:255|351:273,1,65,10|8,0:1|0:1,0:0:0:0:
293,221,8733,2,0,P|255:215|226:197,1,65,10|0,0:2|0:0,0:0:0:0:
154,189,9033,2,0,B|201:189|201:189|183:280,1,130,10|8,0:1|0:2,0:0:0:0:
64,370,9633,2,0,P|103:357|127:361,1,65,10|8,0:1|0:1,0:0:0:0:
201,379,9933,1,8,0:2:0:0:
359,276,10233,6,0,B|356:313|373:341|373:341|412:348|449:317,1,130,14|8,0:1|0:2,0:0:0:0:
495,191,10833,2,0,P|481:227|481:264,1,65,10|8,0:1|0:1,0:0:0:0:
510,324,11133,1,8,0:2:0:0:
407,206,11433,2,0,B|360:189|325:202|325:202|290:200|278:169,1,130,10|8,0:1|0:2,0:0:0:0:
279,25,12033,2,0,P|256:55|226:57,1,65,10|8,0:1|0:1,0:0:0:0:
160,22,12333,1,8,0:2:0:0:
91,161,12633,6,0,P|149:170|165:251,1,130,10|8,0:1|0:2,0:0:0:0:
285,115,13233,2,0,P|326:115|349:103,1,65,10|8,0:1|0:1,0:0:0:0:
407,45,13533,2,0,L|398:153,1,97.5,14|0,0:2|0:0,0:0:0:0:
408,157,13833,6,0,L|418:250,2,65,12|8|8,0:2|0:1|0:1,0:0:0:0:
336,217,14283,1,12,0:2:0:0:
261,353,14583,1,8,0:1:0:0:
198,304,14733,2,0,L|199:257,3,32.5,8|8|8|8,0:2|0:2|0:2|0:2,0:0:0:0:
207,261,15033,6,0,L|275:254,1,52,14|10,0:1|0:1,0:0:0:0:
330,246,15333,1,8,0:2:0:0:
122,107,15933,1,8,0:2:0:0:
76,163,16083,1,2,0:0:0:0:
76,163,16233,6,0,L|81:232,1,52,10|10,0:1|0:1,0:0:0:0:
86,292,16533,1,8,0:2:0:0:
328,349,17133,1,8,0:2:0:0:
416,260,17433,6,0,L|411:325,1,52,10|10,0:1|0:1,0:0:0:0:
406,384,17733,1,8,0:2:0:0:
488,148,18333,1,8,0:2:0:0:
457,83,18483,1,2,0:0:0:0:
457,83,18633,6,0,L|398:77,1,52,10|10,0:1|0:1,0:0:0:0:
333,69,18933,1,8,0:2:0:0:
252,164,19233,2,0,L|310:158,1,52,10|10,0:1|0:1,0:0:0:0:
377,151,19533,1,8,0:2:0:0:
233,61,19833,6,0,L|174:55,1,52,10|10,0:1|0:1,0:0:0:0:
109,47,20133,1,8,0:2:0:0:
65,292,20733,1,8,0:2:0:0:
26,227,20883,1,2,0:0:0:0:
26,227,21033,6,0,L|20:163,1,52,10|10,0:1|0:1,0:0:0:0:
13,100,21333,1,8,0:2:0:0:
248,181,21933,1,8,0:2:0:0:
154,98,22233,6,0,L|159:163,1,52,10|10,0:1|0:1,0:0:0:0:
164,222,22533,1,8,0:2:0:0:
355,381,23133,1,8,0:2:0:0:
296,337,23283,1,2,0:0:0:0:
296,337,23433,6,0,L|237:342,1,52,10|10,0:1|0:1,0:0:0:0:
172,351,23733,1,8,0:2:0:0:
91,256,24033,2,0,L|149:261,1,52,10|10,0:1|0:1,0:0:0:0:
218,268,24333,2,0,L|262:271,3,26,8|8|8|8,0:2|0:2|0:2|0:2,0:0:0:0:
266,254,24633,6,0,B|340:255|318:213|396:213,1,116.999996429443,12|8,0:1|0:2,0:0:0:0:
453,270,25083,1,2,0:0:0:0:
453,270,25233,2,0,P|450:227|489:159,1,116.999996429443,10|8,0:1|0:2,0:0:0:0:
464,93,25683,1,2,0:0:0:0:
464,93,25833,2,0,B|385:102|385:102|356:93|360:59,2,116.999996429443,10|8|10,0:1|0:2|0:1,0:0:0:0:
362,191,26733,1,10,0:2:0:0:
276,79,27033,6,0,P|297:22|356:-2,1,116.999996429443,8|10,0:1|0:2,0:0:0:0:
205,19,27633,2,0,L|75:8,1,116.999996429443,10|8,0:1|0:2,0:0:0:0:
5,44,28083,1,2,0:0:0:0:
5,44,28233,2,0,P|35:87|29:162,1,116.999996429443,10|8,0:1|0:2,0:0:0:0:
174,136,28833,2,0,P|144:179|150:254,1,116.999996429443,10|8,0:1|0:2,0:0:0:0:
265,313,29433,6,0,B|190:313|215:349|140:350,1,116.999996429443,8|8,0:1|0:2,0:0:0:0:
88,380,29883,1,2,0:0:0:0:
88,380,30033,2,0,P|69:348|-5:327,1,116.999996429443,10|8,0:1|0:2,0:0:0:0:
27,148,30633,2,0,B|55:171|55:171|44:263,2,116.999996429443,10|8|10,0:1|0:2|0:1,0:0:0:0:
134,238,31533,1,10,0:2:0:0:
247,155,31833,6,0,P|277:197|350:206,1,116.999996429443,8|10,0:1|0:2,0:0:0:0:
399,160,32283,1,2,0:0:0:0:
399,160,32433,2,0,L|462:153,1,58.4999982147217,10|8,0:1|0:1,0:0:0:0:
512,238,32733,2,0,L|449:231,1,58.4999982147217,10|0,0:2|0:0,0:0:0:0:
380,265,33033,1,10,0:1:0:0:
512,384,33333,5,14,0:2:0:0:
448,341,33483,1,8,0:2:0:0:
443,347,33558,1,8,0:2:0:0:
436,353,33633,2,0,L|368:362,2,58.4999982147217,8|8|4,0:2|0:3|0:3,0:0:0:0:
259,374,34233,5,14,0:1:0:0:
368,286,34533,2,0,P|311:280|263:221,1,116.999996429443,6|8,0:3|0:2,0:0:0:0:
142,300,35133,2,0,P|118:247|145:176,1,116.999996429443,6|8,0:3|0:1,0:0:0:0:
15,113,35733,2,0,P|48:66|123:54,1,116.999996429443,10|8,0:3|0:2,0:0:0:0:
236,4,36333,2,0,L|229:75,1,58.4999982147217,10|8,0:1|0:1,0:0:0:0:
213,92,36558,1,8,0:1:0:0:
205,100,36633,6,0,P|256:125|281:220,1,130,12|6,0:1|0:3,0:0:0:0:
255,342,37233,1,10,0:2:0:0:
377,217,37533,5,10,0:1:0:0:
306,261,37683,1,8,0:1:0:0:
228,194,37833,1,12,0:2:0:0:
79,182,39033,6,0,B|194:173|194:173|251:208,1,155.999995239258,14|8,0:1|0:2,0:0:0:0:
153,324,39633,2,0,P|156:280|171:245,1,77.999997619629,10|8,0:1|0:1,0:0:0:0:
239,184,39933,2,0,P|237:145|223:108,1,77.999997619629,10|8,0:2|0:1,0:0:0:0:
148,52,40233,1,10,0:1:0:0:
322,0,40533,1,10,0:2:0:0:
302,91,40683,1,10,0:1:0:0:
391,62,40833,2,0,B|459:55|436:97|500:98,1,116.999996429443,10|0,0:1|0:0,0:0:0:0:
507,94,41133,2,0,P|493:152|520:257,1,155.999995239258,10|8,0:2|0:1,0:0:0:0:
360,353,41733,1,8,0:2:0:0:
471,202,42033,6,0,P|414:221|342:149,1,155.999995239258,10|8,0:1|0:2,0:0:0:0:
191,340,42633,2,0,P|203:281|301:254,1,155.999995239258,10|8,0:1|0:2,0:0:0:0:
215,37,43233,2,0,P|259:76|233:175,1,155.999995239258,10|10,0:1|0:2,0:0:0:0:
139,201,43683,1,10,0:2:0:0:
136,211,43758,1,8,0:2:0:0:
134,221,43833,6,0,B|43:214|43:214|10:195|20:157,1,155.999995239258,14|8,0:1|0:2,0:0:0:0:
60,76,44283,1,10,0:1:0:0:
60,76,44433,2,0,L|51:-8,1,77.999997619629,10|10,0:1|0:1,0:0:0:0:
156,28,44733,2,0,L|147:111,1,77.999997619629,10|10,0:2|0:1,0:0:0:0:
230,148,45033,2,0,P|275:150|334:98,1,116.999996429443,10|0,0:1|0:0,0:0:0:0:
330,91,45333,1,10,0:2:0:0:
380,271,45633,1,10,0:1:0:0:
193,256,45933,2,0,B|235:247|261:274|260:304|260:304|258:378,1,155.999995239258,10|8,0:2|0:1,0:0:0:0:
77,316,46533,1,8,0:2:0:0:
227,179,46833,6,0,L|72:160,1,155.999995239258,10|8,0:1|0:2,0:0:0:0:
341,124,47433,2,0,L|434:0,1,155.999995239258,10|8,0:1|0:2,0:0:0:0:
336,247,48033,2,0,L|351:282,3,38.9999988098145,10|8|8|8,0:2|0:2|0:2|0:2,0:0:0:0:
365,310,48333,2,0,L|380:345,3,38.9999988098145,10|8|8|8,0:2|0:0|0:2|0:2,0:0:0:0:
386,373,48633,6,0,B|494:356|494:356|507:311,1,155.999995239258,14|8,0:1|0:2,0:0:0:0:
370,182,49233,2,0,P|397:143|406:108,1,77.999997619629,10|8,0:1|0:1,0:0:0:0:
493,82,49533,2,0,P|466:43|457:8,1,77.999997619629,10|8,0:2|0:1,0:0:0:0:
367,37,49833,2,0,L|276:29,1,77.999997619629,10|10,0:1|0:1,0:0:0:0:
197,7,50133,1,10,0:2:0:0:
227,95,50283,1,10,0:1:0:0:
101,233,50583,1,10,0:1:0:0:
191,209,50733,2,0,P|279:209|361:259,1,155.999995239258,10|8,0:2|0:1,0:0:0:0:
489,349,51333,1,8,0:2:0:0:
512,132,51633,6,0,P|451:137|381:54,1,155.999995239258,10|8,0:1|0:2,0:0:0:0:
274,280,52233,2,0,P|298:224|405:205,1,155.999995239258,10|8,0:1|0:2,0:0:0:0:
265,0,52833,2,0,P|299:48|261:150,1,155.999995239258,10|10,0:1|0:2,0:0:0:0:
190,117,53283,1,10,0:2:0:0:
194,108,53358,1,8,0:2:0:0:
199,99,53433,6,0,B|134:93|134:93|107:108|107:108|42:102,1,155.999995239258,14|8,0:1|0:2,0:0:0:0:
13,19,53883,1,10,0:1:0:0:
13,19,54033,2,0,P|35:54|37:99,1,77.999997619629,10|8,0:1|0:1,0:0:0:0:
58,181,54333,2,0,P|36:216|34:261,1,77.999997619629,10|8,0:2|0:1,0:0:0:0:
71,337,54633,1,10,0:1:0:0:
245,279,54933,1,10,0:2:0:0:
162,238,55083,1,10,0:1:0:0:
216,161,55233,2,0,P|261:109|278:40,1,116.999996429443,10|0,0:1|0:0,0:0:0:0:
280,47,55533,2,0,L|294:214,1,155.999995239258,10|8,0:2|0:1,0:0:0:0:
366,374,56133,1,8,0:2:0:0:
148,371,56433,6,0,L|303:294,1,155.999995239258,10|8,0:1|0:2,0:0:0:0:
54,149,57033,2,0,L|43:321,1,155.999995239258,10|8,0:1|0:2,0:0:0:0:
279,197,57633,2,0,L|206:149,1,77.999997619629,10|10,0:2|0:3,0:0:0:0:
163,75,57933,1,6,0:3:0:0:
88,61,58083,1,6,0:3:0:0:
60,14,58233,5,14,0:1:0:0:
6,160,58533,1,6,0:3:0:0:
6,160,58683,2,0,P|59:183|91:264,1,130,6|8,0:3|0:3,0:0:0:0:
242,282,59283,2,0,P|189:305|157:386,1,130,6|8,0:3|0:2,0:0:0:0:
381,329,59883,2,0,P|385:262|341:196,1,130,6|4,0:3|0:3,0:0:0:0:
228,106,60483,1,8,0:1:0:0:
233,113,60558,1,8,0:1:0:0:
239,119,60633,6,0,L|368:109,1,130,14|4,0:1|0:3,0:0:0:0:
425,169,61083,2,0,P|445:122|521:84,1,130,6|6,0:3|0:3,0:0:0:0:
366,26,61683,1,10,0:1:0:0:
239,119,61983,1,10,0:2:0:0:
120,25,62283,1,10,0:2:0:0:
111,19,62358,1,8,0:2:0:0:
104,13,62433,6,0,L|35:8,1,65,10|10,0:2|0:2,0:0:0:0:
0,100,62733,1,8,0:2:0:0:
83,88,62883,1,8,0:2:0:0:
129,176,63033,6,0,P|119:222|163:305,1,130,14|8,0:1|0:2,0:0:0:0:
299,345,63633,2,0,P|265:339|226:349,1,65,10|8,0:1|0:1,0:0:0:0:
165,379,63933,1,8,0:2:0:0:
261,226,64233,6,0,B|298:242|325:227|325:227|330:233|330:233|363:224|399:239,1,130,10|8,0:1|0:2,0:0:0:0:
482,356,64833,2,0,P|465:324|464:291,1,65,10|8,0:1|0:1,0:0:0:0:
499,226,65133,1,8,0:2:0:0:
415,26,65433,6,0,P|432:85|505:102,1,130,10|8,0:1|0:2,0:0:0:0:
337,87,66033,2,0,P|298:78|268:82,1,65,10|8,0:1|0:1,0:0:0:0:
219,138,66333,2,0,P|180:147|150:143,1,65,10|0,0:2|0:0,0:0:0:0:
95,93,66633,6,0,B|137:82|137:82|112:190,1,130,10|8,0:1|0:2,0:0:0:0:
13,50,67233,2,0,P|40:20|72:8,1,65,10|8,0:1|0:1,0:0:0:0:
140,4,67533,1,8,0:2:0:0:
292,35,67833,6,0,B|270:62|276:88|276:88|320:176,1,130,14|8,0:1|0:2,0:0:0:0:
461,183,68433,2,0,P|478:218|471:253,1,65,10|8,0:1|0:1,0:0:0:0:
434,309,68733,1,8,0:2:0:0:
289,366,69033,6,0,B|256:351|223:364|223:364|179:345|178:312,1,130,10|8,0:1|0:2,0:0:0:0:
217,170,69633,2,0,P|252:195|263:235,1,65,10|8,0:1|0:1,0:0:0:0:
283,289,69933,1,8,0:2:0:0:
101,357,70233,6,0,P|84:309|136:251,1,130,10|8,0:1|0:2,0:0:0:0:
0,90,70833,2,0,P|19:117|51:126,1,65,10|8,0:1|0:1,0:0:0:0:
88,188,71133,2,0,L|96:90,1,97.5,14|0,0:2|0:0,0:0:0:0:
109,80,71433,6,0,L|190:91,2,65,12|8|8,0:2|0:1|0:1,0:0:0:0:
229,158,71883,2,0,L|310:147,2,65,12|8|8,0:2|0:1|0:1,0:0:0:0:
359,92,72333,2,0,L|399:95,3,32.5,8|8|8|8,0:2|0:2|0:2|0:2,0:0:0:0:
399,87,72633,6,0,L|404:153,1,52,14|2,0:1|0:0,0:0:0:0:
414,211,72933,1,8,0:1:0:0:
495,305,73233,1,8,0:1:0:0:
387,368,73533,1,8,0:1:0:0:
333,319,73683,1,10,0:2:0:0:
333,319,73833,6,0,L|264:324,1,52,10|2,0:1|0:0,0:0:0:0:
209,330,74133,1,8,0:2:0:0:
93,377,74433,1,8,0:1:0:0:
108,253,74733,1,8,0:1:0:0:
38,281,74883,1,8,0:2:0:0:
38,281,75033,6,0,L|34:229,1,52,14|2,0:1|0:0,0:0:0:0:
28,155,75333,1,8,0:1:0:0:
150,133,75633,1,8,0:1:0:0:
273,111,75933,1,8,0:1:0:0:
232,175,76083,1,10,0:2:0:0:
232,175,76233,6,0,L|237:240,1,52,10|2,0:1|0:0,0:0:0:0:
245,304,76533,1,8,0:2:0:0:
146,380,76833,2,0,L|151:314,1,52,10|2,0:1|0:0,0:0:0:0:
160,255,77133,2,0,P|135:230|97:228,1,52,8|8,0:1|0:2,0:0:0:0:
96,236,77358,1,8,0:2:0:0:
89,243,77433,6,0,L|94:181,1,52,14|2,0:1|0:0,0:0:0:0:
103,118,77733,1,8,0:1:0:0:
218,69,78033,1,8,0:1:0:0:
334,25,78333,1,8,0:1:0:0:
302,92,78483,1,10,0:2:0:0:
302,92,78633,6,0,L|307:158,1,52,10|2,0:1|0:0,0:0:0:0:
316,218,78933,1,8,0:2:0:0:
198,175,79233,1,8,0:1:0:0:
213,51,79533,1,8,0:1:0:0:
155,97,79683,1,8,0:2:0:0:
155,97,79833,6,0,L|98:101,1,52,14|2,0:1|0:0,0:0:0:0:
29,111,80133,1,8,0:1:0:0:
110,16,80433,1,8,0:1:0:0:
226,62,80733,2,0,P|233:87|226:128,1,52,8|10,0:1|0:2,0:0:0:0:
184,173,81033,6,0,L|257:166,1,52,10|2,0:1|0:0,0:0:0:0:
310,158,81333,1,8,0:2:0:0:
424,266,81633,2,0,L|350:259,1,52,10|10,0:1|0:2,0:0:0:0:
299,251,81933,2,0,L|268:248,3,26,8|8|8|8,0:2|0:2|0:2|0:2,0:0:0:0:
253,257,82233,6,0,B|181:249|200:295|124:283,1,116.999996429443,12|8,0:1|0:2,0:0:0:0:
78,240,82683,1,2,0:0:0:0:
78,240,82833,2,0,P|42:255|34:333,1,116.999996429443,10|8,0:1|0:2,0:0:0:0:
98,370,83283,1,2,0:0:0:0:
98,370,83433,2,0,B|144:350|144:350|211:390,2,116.999996429443,10|8|10,0:1|0:2|0:1,0:0:0:0:
225,310,84333,1,10,0:2:0:0:
370,378,84633,6,0,P|382:324|369:254,1,116.999996429443,8|10,0:1|0:2,0:0:0:0:
484,158,85233,2,0,L|472:276,1,116.999996429443,10|10,0:1|0:2,0:0:0:0:
356,192,85833,2,0,L|283:185,1,58.4999982147217,10|8,0:1|0:1,0:0:0:0:
252,122,86133,2,0,L|179:128,1,58.4999982147217,10|0,0:2|0:0,0:0:0:0:
132,85,86433,2,0,P|160:138|141:211,1,116.999996429443,10|8,0:1|0:2,0:0:0:0:
0,262,87033,6,0,B|63:286|60:241|132:274,1,116.999996429443,8|8,0:1|0:2,0:0:0:0:
156,334,87483,1,2,0:0:0:0:
156,334,87633,2,0,P|198:321|267:360,1,116.999996429443,10|8,0:1|0:2,0:0:0:0:
338,378,88083,1,2,0:0:0:0:
338,378,88233,2,0,B|381:340|381:340|344:269,2,116.999996429443,10|8|10,0:1|0:2|0:1,0:0:0:0:
448,290,89133,1,10,0:2:0:0:
279,243,89433,6,0,P|256:192|270:126,1,116.999996429443,8|8,0:1|0:2,0:0:0:0:
256,59,89883,1,2,0:0:0:0:
256,59,90033,2,0,L|383:66,1,116.999996429443,10|8,0:1|0:2,0:0:0:0:
423,129,90483,1,2,0:0:0:0:
423,129,90633,2,0,P|452:112|484:112,1,58.4999982147217,10|8,0:1|0:1,0:0:0:0:
512,13,90933,2,0,P|482:29|450:29,1,58.4999982147217,14|8,0:2|0:2,0:0:0:0:
432,21,91158,1,8,0:2:0:0:
422,14,91233,6,0,L|361:11,2,58.4999982147217,8|8|4,0:2|0:3|0:3,0:0:0:0:
340,182,91833,5,14,0:1:0:0:
216,115,92133,1,4,0:3:0:0:
119,216,92433,1,10,0:2:0:0:
263,294,92733,2,0,P|247:238|202:202,1,116.999996429443,6|8,0:3|0:1,0:0:0:0:
270,79,93333,2,0,P|214:64|160:85,1,116.999996429443,10|8,0:3|0:2,0:0:0:0:
36,18,93933,2,0,L|41:82,1,58.4999982147217,10|8,0:1|0:1,0:0:0:0:
68,98,94158,1,8,0:1:0:0:
76,104,94233,6,0,P|41:145|53:225,1,130,12|6,0:1|0:3,0:0:0:0:
198,269,94833,1,10,0:2:0:0:
43,299,95133,5,10,0:1:0:0:
115,261,95283,1,8,0:1:0:0:
106,356,95433,1,12,0:2:0:0:
386,246,96183,2,0,L|451:251,2,65,2|2|2,0:0|0:0|0:0,0:0:0:0:
301,288,96633,6,0,B|293:216|293:216|304:190|304:190|298:130,1,155.999995239258,14|10,0:1|0:2,0:0:0:0:
332,29,97083,2,0,P|298:84|204:84,1,155.999995239258,10|8,0:1|0:1,0:0:0:0:
133,138,97533,1,10,0:2:0:0:
217,178,97683,1,10,0:1:0:0:
121,232,97833,2,0,L|37:224,1,77.999997619629,10|10,0:1|0:1,0:0:0:0:
180,297,98133,2,0,L|263:289,1,77.999997619629,10|10,0:2|0:1,0:0:0:0:
153,384,98433,1,10,0:1:0:0:
80,324,98583,1,10,0:1:0:0:
3,378,98733,2,0,P|37:338|0:242,1,155.999995239258,10|8,0:2|0:1,0:0:0:0:
120,97,99333,1,8,0:2:0:0:
298,231,99633,6,0,P|370:207|405:129,1,155.999995239258,10|8,0:1|0:2,0:0:0:0:
184,64,100233,2,0,P|168:138|218:207,1,155.999995239258,10|8,0:1|0:2,0:0:0:0:
382,50,100833,2,0,P|325:-1|240:8,1,155.999995239258,10|10,0:1|0:2,0:0:0:0:
278,96,101283,1,10,0:2:0:0:
286,91,101358,1,8,0:2:0:0:
294,86,101433,6,0,B|280:167|280:167|275:211|301:233|335:228,1,155.999995239258,14|8,0:1|0:2,0:0:0:0:
499,373,102033,1,10,0:1:0:0:
425,315,102183,2,0,P|374:307|291:366,1,155.999995239258,10|8,0:1|0:1,0:0:0:0:
203,332,102633,2,0,L|298:323,1,77.999997619629,10|10,0:1|0:1,0:0:0:0:
351,263,102933,1,10,0:2:0:0:
287,194,103083,1,10,0:1:0:0:
422,64,103383,1,10,0:1:0:0:
389,151,103533,2,0,P|430:114|540:123,1,155.999995239258,10|8,0:2|0:1,0:0:0:0:
457,289,104133,1,8,0:2:0:0:
251,362,104433,6,0,L|184:218,1,155.999995239258,10|8,0:1|0:2,0:0:0:0:
376,66,105033,2,0,L|285:195,1,155.999995239258,10|8,0:1|0:2,0:0:0:0:
64,114,105633,2,0,L|169:123,1,77.999997619629,10|10,0:2|0:2,0:0:0:0:
163,123,105858,1,8,0:2:0:0:
172,124,105933,1,10,0:2:0:0:
240,60,106083,1,10,0:2:0:0:
231,64,106158,1,8,0:2:0:0:
222,68,106233,6,0,P|187:39|179:1,1,77.999997619629,14|8,0:1|0:1,0:0:0:0:
89,40,106533,1,10,0:2:0:0:
2,4,106683,1,10,0:1:0:0:
48,106,106833,2,0,P|54:151|46:187,1,77.999997619629,10|8,0:1|0:1,0:0:0:0:
1,294,107133,2,0,P|36:266|72:255,1,77.999997619629,10|8,0:2|0:1,0:0:0:0:
184,293,107433,2,0,P|116:274|115:358,1,155.999995239258,10|8,0:1|0:2,0:0:0:0:
184,379,107883,1,10,0:1:0:0:
268,337,108033,2,0,P|319:332|355:340,1,77.999997619629,10|10,0:1|0:1,0:0:0:0:
428,378,108333,2,0,L|413:212,1,155.999995239258,10|8,0:2|0:1,0:0:0:0:
325,57,108933,1,8,0:2:0:0:
114,1,109233,6,0,P|186:25|221:103,1,155.999995239258,10|8,0:1|0:2,0:0:0:0:
0,168,109833,2,0,P|-16:94|34:25,1,155.999995239258,10|8,0:1|0:2,0:0:0:0:
198,182,110433,2,0,P|141:233|56:224,1,155.999995239258,10|10,0:1|0:2,0:0:0:0:
102,126,110883,1,8,0:2:0:0:
108,134,110958,1,8,0:2:0:0:
115,142,111033,6,0,B|184:138|184:138|205:121|205:121|291:134,1,155.999995239258,14|8,0:1|0:2,0:0:0:0:
413,17,111633,2,0,P|394:60|394:91,1,77.999997619629,10|8,0:1|0:1,0:0:0:0:
469,146,111933,2,0,P|476:192|468:222,1,77.999997619629,10|8,0:2|0:1,0:0:0:0:
384,264,112233,2,0,L|300:256,1,77.999997619629,10|8,0:1|0:1,0:0:0:0:
425,347,112533,1,10,0:2:0:0:
425,347,112683,2,0,L|508:339,1,77.999997619629,10|8,0:1|0:1,0:0:0:0:
349,383,112983,1,10,0:1:0:0:
276,323,113133,2,0,P|240:310|140:371,1,155.999995239258,10|8,0:2|0:1,0:0:0:0:
65,191,113733,1,8,0:2:0:0:
195,17,114033,6,0,L|286:147,1,155.999995239258,10|8,0:1|0:2,0:0:0:0:
512,56,114633,2,0,L|354:70,1,155.999995239258,10|8,0:1|0:2,0:0:0:0:
320,309,115233,2,0,L|360:220,1,77.999997619629,10|10,0:2|0:1,0:0:0:0:
361,145,115533,1,10,0:3:0:0:
434,109,115683,1,6,0:3:0:0:
438,52,115833,5,14,0:1:0:0:
290,1,116133,1,6,0:3:0:0:
290,1,116283,2,0,P|242:26|205:105,1,130,6|8,0:3|0:3,0:0:0:0:
57,137,116883,2,0,P|105:162|142:241,1,130,6|8,0:3|0:2,0:0:0:0:
285,285,117483,2,0,P|237:310|200:389,1,130,6|4,0:3|0:3,0:0:0:0:
45,363,118083,1,10,0:1:0:0:
40,355,118158,1,8,0:1:0:0:
35,349,118233,6,0,L|23:214,1,130,14|4,0:1|0:3,0:0:0:0:
64,153,118683,2,0,P|111:173|194:133,1,130,6|6,0:3|0:3,0:0:0:0:
297,41,119283,1,10,0:1:0:0:
450,67,119583,1,10,0:2:0:0:
336,174,119883,1,10,0:2:0:0:
344,169,119958,1,8,0:2:0:0:
352,164,120033,6,0,L|421:172,1,65,8|10,0:2|0:2,0:0:0:0:
478,259,120333,1,8,0:2:0:0:
395,242,120483,1,8,0:2:0:0:
429,335,120633,5,12,0:1:0:0:
260,384,120933,2,0,P|215:368|196:338,1,65,10|0,0:2|0:0,0:0:0:0:
212,277,121233,2,0,P|189:319|126:282,1,130,10|8,0:1|0:2,0:0:0:0:
150,215,121683,1,2,0:0:0:0:
150,215,121833,2,0,B|91:195|91:195|53:182|30:203|26:231,2,130,10|8|10,0:1|0:2|0:1,0:0:0:0:
303,189,122733,1,10,0:2:0:0:
365,46,123033,5,8,0:1:0:0:
210,67,123333,2,0,B|131:66|154:29|87:27,1,130,10|10,0:2|0:1,0:0:0:0:
31,179,123933,2,0,P|6:149|-1:113,1,65,10|0,0:2|0:0,0:0:0:0:
77,117,124233,2,0,L|63:267,1,130,10|8,0:1|0:2,0:0:0:0:
164,366,124833,2,0,L|150:215,1,130,10|8,0:1|0:2,0:0:0:0:
52,356,125433,5,8,0:1:0:0:
163,225,125733,2,0,P|204:220|228:226,1,65,10|0,0:2|0:0,0:0:0:0:
280,282,126033,2,0,P|311:256|388:290,1,130,10|8,0:1|0:2,0:0:0:0:
370,365,126483,1,2,0:0:0:0:
370,365,126633,2,0,L|499:348,1,130,10|8,0:1|0:2,0:0:0:0:
498,270,127083,2,0,B|461:214|486:130|486:130|460:157|433:160,1,195,2|10,0:0|0:2,0:0:0:0:
337,44,127833,6,0,L|424:51,1,65,10|8,0:1|0:1,0:0:0:0:
470,10,128133,1,10,0:2:0:0:
470,10,128283,2,0,P|457:58|505:144,1,130,2|10,0:0|0:1,0:0:0:0:
271,222,129033,6,0,L|418:209,1,130,10|8,0:1|0:2,0:0:0:0:
447,148,129483,2,0,P|404:134|363:61,1,130,2|8,0:0|0:1,0:0:0:0:
416,5,129933,1,14,0:2:0:0:
290,136,130233,5,12,0:1:0:0:
190,15,130533,2,0,P|152:32|135:60,1,65,10|0,0:2|0:0,0:0:0:0:
205,90,130833,2,0,L|66:76,1,130,10|8,0:1|0:2,0:0:0:0:
25,18,131283,1,2,0:0:0:0:
25,18,131433,2,0,B|27:65|17:80|17:80|33:113|33:113|22:169,2,130,10|8|10,0:1|0:2|0:1,0:0:0:0:
104,164,132333,1,10,0:2:0:0:
29,300,132633,5,8,0:1:0:0:
167,227,132933,2,0,L|160:309,1,65,10|0,0:2|0:0,0:0:0:0:
105,345,133233,2,0,B|183:355|167:298|254:313,1,130,10|8,0:1|0:2,0:0:0:0:
302,345,133683,1,2,0:0:0:0:
302,345,133833,2,0,B|321:300|321:300|313:208,1,130,10|10,0:1|0:2,0:0:0:0:
457,275,134433,2,0,B|442:229|442:229|445:138,1,130,10|10,0:1|0:2,0:0:0:0:
326,44,135033,5,8,0:1:0:0:
336,199,135333,2,0,P|361:171|366:136,1,65,10|0,0:2|0:0,0:0:0:0:
432,102,135633,2,0,P|419:52|489:25,1,130,10|8,0:1|0:2,0:0:0:0:
508,93,136083,1,2,0:0:0:0:
508,93,136233,2,0,L|496:234,1,130,10|8,0:1|0:2,0:0:0:0:
443,279,136683,2,0,B|368:269|368:269|328:262|330:202,1,130,2|8,0:0|0:1,0:0:0:0:
358,159,137133,1,10,0:2:0:0:
364,153,137208,1,8,0:2:0:0:
369,147,137283,1,8,0:3:0:0:
321,85,137433,5,10,0:2:0:0:
392,54,137583,1,10,0:2:0:0:
195,126,137883,5,10,0:2:0:0:
272,161,138033,1,10,0:2:0:0:
84,268,138333,5,10,0:2:0:0:
185,226,138483,1,10,0:2:0:0:
512,161,139833,6,0,B|403:170|403:170|365:141,1,155.999995239258,14|8,0:1|0:2,0:0:0:0:
425,3,140433,2,0,P|430:47|415:90,1,77.999997619629,10|8,0:1|0:1,0:0:0:0:
354,145,140733,2,0,P|349:189|364:232,1,77.999997619629,10|8,0:2|0:1,0:0:0:0:
427,283,141033,1,10,0:1:0:0:
258,365,141333,1,10,0:2:0:0:
306,285,141483,1,10,0:1:0:0:
196,299,141633,2,0,B|133:307|157:351|89:361,1,116.999996429443,10|0,0:1|0:0,0:0:0:0:
92,372,141933,2,0,L|111:217,1,155.999995239258,10|8,0:2|0:1,0:0:0:0:
195,50,142533,1,8,0:2:0:0:
413,32,142833,6,0,P|400:90|302:117,1,155.999995239258,10|8,0:1|0:2,0:0:0:0:
392,343,143433,2,0,P|346:303|372:204,1,155.999995239258,10|8,0:1|0:2,0:0:0:0:
142,171,144033,2,0,P|197:152|270:224,1,155.999995239258,10|10,0:1|0:2,0:0:0:0:
371,219,144483,1,8,0:2:0:0:
367,229,144558,1,8,0:2:0:0:
364,238,144633,6,0,B|359:331|359:331|371:373|422:364,1,155.999995239258,14|8,0:1|0:2,0:0:0:0:
493,332,145083,1,10,0:1:0:0:
460,244,145233,2,0,L|468:151,1,77.999997619629,10|10,0:1|0:1,0:0:0:0:
385,78,145533,2,0,L|393:170,1,77.999997619629,10|10,0:2|0:1,0:0:0:0:
300,176,145833,2,0,P|235:162|197:99,1,116.999996429443,10|0,0:1|0:0,0:0:0:0:
205,111,146133,1,10,0:2:0:0:
40,20,146433,1,10,0:1:0:0:
49,205,146733,2,0,B|31:139|55:106|55:106|71:129|102:140,1,155.999995239258,10|8,0:2|0:1,0:0:0:0:
182,304,147333,1,8,0:2:0:0:
285,111,147633,6,0,L|408:14,1,155.999995239258,10|8,0:1|0:2,0:0:0:0:
243,230,148233,2,0,L|264:383,1,155.999995239258,10|8,0:1|0:2,0:0:0:0:
159,139,148833,2,0,L|123:124,3,38.9999988098145,10|8|10|8,0:2|0:2|0:2|0:2,0:0:0:0:
94,115,149133,2,0,L|58:100,3,38.9999988098145,10|8|10|8,0:2|0:2|0:2|0:2,0:0:0:0:
47,109,149433,6,0,P|99:73|68:-13,1,155.999995239258,14|8,0:1|0:2,0:0:0:0:
252,56,150033,2,0,P|289:70|331:56,1,77.999997619629,10|8,0:1|0:1,0:0:0:0:
408,17,150333,2,0,P|445:3|487:17,1,77.999997619629,10|8,0:2|0:1,0:0:0:0:
443,99,150633,2,0,L|452:204,1,77.999997619629,10|10,0:1|0:1,0:0:0:0:
399,255,150933,1,10,0:2:0:0:
337,184,151083,1,10,0:1:0:0:
221,354,151383,1,10,0:1:0:0:
299,303,151533,2,0,B|342:282|342:282|460:328,1,155.999995239258,10|8,0:2|0:1,0:0:0:0:
434,134,152133,1,8,0:2:0:0:
261,0,152433,6,0,P|217:40|242:138,1,155.999995239258,10|8,0:1|0:2,0:0:0:0:
0,172,153033,2,0,P|57:191|130:119,1,155.999995239258,10|8,0:1|0:2,0:0:0:0:
271,302,153633,2,0,P|259:244|161:217,1,155.999995239258,10|10,0:1|0:2,0:0:0:0:
106,275,154083,1,10,0:2:0:0:
113,271,154158,1,8,0:2:0:0:
122,267,154233,6,0,B|108:385|108:385|48:343,1,155.999995239258,14|8,0:1|0:2,0:0:0:0:
14,296,154683,1,10,0:1:0:0:
14,296,154833,2,0,P|34:251|30:215,1,77.999997619629,10|8,0:1|0:1,0:0:0:0:
116,181,155133,2,0,P|87:141|53:126,1,77.999997619629,10|8,0:2|0:1,0:0:0:0:
11,49,155433,1,10,0:1:0:0:
193,7,155733,1,10,0:2:0:0:
145,87,155883,1,10,0:1:0:0:
254,66,156033,2,0,P|292:79|334:156,1,116.999996429443,10|0,0:1|0:0,0:0:0:0:
325,153,156333,2,0,L|311:317,1,155.999995239258,10|8,0:2|0:1,0:0:0:0:
498,310,156933,1,8,0:2:0:0:
471,93,157233,6,0,L|326:-2,1,155.999995239258,10|8,0:1|0:2,0:0:0:0:
325,285,157833,2,0,L|479:208,1,155.999995239258,10|8,0:1|0:2,0:0:0:0:
254,66,158433,2,0,L|248:153,1,77.999997619629,14|10,0:2|0:1,0:0:0:0:
200,223,158733,1,10,0:3:0:0:
244,295,158883,1,6,0:3:0:0:
212,335,159033,5,14,0:1:0:0:
61,377,159333,1,6,0:3:0:0:
61,377,159483,2,0,P|63:317|9:252,1,130,6|8,0:3|0:3,0:0:0:0:
116,135,160083,2,0,P|114:75|168:10,1,130,6|8,0:3|0:2,0:0:0:0:
288,96,160683,2,0,P|350:89|388:25,1,130,6|4,0:3|0:3,0:0:0:0:
499,144,161283,1,8,0:1:0:0:
493,135,161358,1,8,0:1:0:0:
489,127,161433,6,0,L|476:271,1,130,14|6,0:1|0:3,0:0:0:0:
505,330,161883,2,0,L|421:338,1,65,6|8,0:3|0:2,0:0:0:0:
387,279,162183,2,0,L|303:270,1,65,6|8,0:3|0:1,0:0:0:0:
252,307,162483,1,14,0:1:0:0:
210,227,162633,1,8,0:2:0:0:
210,227,162783,2,0,P|177:246|155:289,1,65,8|8,0:2|0:1,0:0:0:0:
118,347,163083,1,8,0:2:0:0:
108,351,163158,1,8,0:2:0:0:
98,356,163233,5,8,0:2:0:0:
0,329,163383,1,10,0:2:0:0:
69,280,163533,2,0,L|61:200,1,65,10|10,0:2|0:2,0:0:0:0:
116,146,163833,6,0,P|150:168|258:126,1,155.999995239258,14|8,0:1|0:2,0:0:0:0:
338,173,164283,2,0,L|321:-7,1,155.999995239258,10|8,0:1|0:1,0:0:0:0:
410,53,164733,1,10,0:2:0:0:
489,3,164883,1,10,0:1:0:0:
509,94,165033,2,0,L|411:85,1,77.999997619629,10|10,0:1|0:1,0:0:0:0:
328,187,165333,2,0,L|425:178,1,77.999997619629,10|10,0:2|0:1,0:0:0:0:
512,217,165633,1,10,0:1:0:0:
444,282,165783,1,10,0:1:0:0:
507,350,165933,2,0,P|426:314|376:342,1,116.999996429443,10|0,0:2|0:0,0:0:0:0:
394,337,166233,2,0,L|280:327,1,77.999997619629,8|8,0:1|0:1,0:0:0:0:
234,374,166533,2,0,L|120:383,1,77.999997619629,8|8,0:2|0:1,0:0:0:0:
120,294,166833,6,0,P|48:270|13:192,1,155.999995239258,10|8,0:1|0:2,0:0:0:0:
224,127,167433,2,0,P|240:201|190:270,1,155.999995239258,10|8,0:1|0:2,0:0:0:0:
26,118,168033,2,0,P|83:67|168:76,1,155.999995239258,10|10,0:1|0:2,0:0:0:0:
252,11,168483,1,10,0:2:0:0:
253,22,168558,1,8,0:2:0:0:
255,33,168633,6,0,B|325:42|297:75|369:78,1,116.999996429443,14|0,0:1|0:0,0:0:0:0:
363,87,168933,2,0,P|386:50|391:8,1,77.999997619629,10|8,0:2|0:1,0:0:0:0:
493,16,169233,1,10,0:1:0:0:
493,16,169383,2,0,L|476:177,1,155.999995239258,10|10,0:1|0:1,0:0:0:0:
397,221,169833,2,0,L|390:143,1,77.999997619629,10|10,0:1|0:1,0:0:0:0:
300,112,170133,1,10,0:2:0:0:
270,189,170283,1,10,0:1:0:0:
416,378,170583,1,10,0:1:0:0:
362,313,170733,2,0,P|314:304|267:369,1,116.999996429443,10|0,0:2|0:0,0:0:0:0:
277,359,171033,2,0,L|194:351,1,77.999997619629,8|8,0:1|0:1,0:0:0:0:
149,272,171333,2,0,L|231:264,1,77.999997619629,8|8,0:2|0:1,0:0:0:0:
311,191,171633,6,0,L|166:124,1,155.999995239258,10|8,0:1|0:2,0:0:0:0:
13,315,172233,2,0,L|142:223,1,155.999995239258,10|8,0:1|0:2,0:0:0:0:
61,3,172833,2,0,L|70:107,1,77.999997619629,10|10,0:2|0:2,0:0:0:0:
70,102,173058,1,8,0:2:0:0:
71,111,173133,1,10,0:2:0:0:
160,57,173283,1,10,0:2:0:0:
167,62,173358,1,8,0:2:0:0:
173,66,173433,6,0,L|292:51,1,84.4999961318971,14|8,0:2|0:1,0:0:0:0:
330,147,173733,2,0,L|211:132,1,84.4999961318971,12|8,0:2|0:1,0:0:0:0:
351,54,174033,2,0,L|470:39,1,84.4999961318971,12|8,0:2|0:1,0:0:0:0:
508,135,174333,2,0,L|389:120,1,84.4999961318971,12|8,0:2|0:1,0:0:0:0:
316,155,174633,2,0,P|356:202|359:317,1,168.999992263794,14|12,0:2|0:2,0:0:0:0:
430,370,175083,1,10,0:1:0:0:
502,314,175233,2,0,L|493:220,1,84.4999961318971,14|10,0:2|0:1,0:0:0:0:
434,157,175533,2,0,B|346:166|391:203|309:217,1,126.749994197846,14|0,0:2|0:0,0:0:0:0:
314,206,175833,2,0,L|323:310,1,84.4999961318971,12|8,0:2|0:1,0:0:0:0:
228,375,176133,2,0,L|237:270,1,84.4999961318971,12|8,0:2|0:1,0:0:0:0:
152,213,176433,6,0,P|74:194|-11:262,1,168.999992263794,14|8,0:2|0:2,0:0:0:0:
9,331,176883,1,8,0:1:0:0:
99,356,177033,2,0,P|154:297|138:190,1,168.999992263794,14|8,0:2|0:2,0:0:0:0:
199,132,177483,1,8,0:1:0:0:
283,171,177633,2,0,P|305:248|406:287,1,168.999992263794,14|8,0:2|0:2,0:0:0:0:
470,348,178083,1,8,0:1:0:0:
464,339,178158,1,8,0:1:0:0:
458,329,178233,6,0,L|466:233,1,84.4999961318971,12|8,0:2|0:1,0:0:0:0:
507,162,178533,2,0,L|498:66,1,84.4999961318971,12|8,0:2|0:1,0:0:0:0:
391,0,178833,2,0,P|436:19|471:11,1,84.4999961318971,12|8,0:2|0:1,0:0:0:0:
424,108,179133,2,0,P|379:89|344:97,1,84.4999961318971,12|8,0:2|0:1,0:0:0:0:
305,180,179433,2,0,L|290:10,1,168.999992263794,14|14,0:2|0:2,0:0:0:0:
202,44,179883,2,0,P|137:62|52:1,1,168.999992263794,10|10,0:1|0:1,0:0:0:0:
14,92,180333,2,0,L|0:248,1,126.749994197846,14|0,0:2|0:0,0:0:0:0:
7,228,180633,2,0,L|104:219,1,84.4999961318971,12|8,0:2|0:1,0:0:0:0:
179,304,180933,2,0,L|81:295,1,84.4999961318971,12|8,0:2|0:1,0:0:0:0:
234,384,181233,6,0,P|272:329|239:220,1,168.999992263794,14|8,0:2|0:2,0:0:0:0:
184,169,181683,1,8,0:1:0:0:
158,79,181833,2,0,P|186:139|297:165,1,168.999992263794,14|8,0:2|0:2,0:0:0:0:
340,116,182283,1,8,0:1:0:0:
348,113,182358,1,8,0:1:0:0:
357,109,182433,2,0,L|439:118,2,56.3333307545981,14|8|8,0:2|0:2|0:2,0:0:0:0:
311,58,182733,2,0,L|229:67,2,56.3333307545981,10|4|4,0:3|0:3|0:3,0:0:0:0:
353,11,183033,5,14,0:1:0:0:
501,58,183333,1,6,0:3:0:0:
501,58,183483,2,0,P|483:112|512:190,1,130,6|8,0:3|0:3,0:0:0:0:
353,221,184083,2,0,P|371:275|342:353,1,130,6|8,0:3|0:2,0:0:0:0:
201,297,184683,2,0,P|140:310|99:383,1,130,6|4,0:3|0:3,0:0:0:0:
8,236,185283,1,8,0:1:0:0:
14,227,185358,1,8,0:1:0:0:
20,219,185433,6,0,L|6:66,1,130,14|4,0:1|0:3,0:0:0:0:
60,31,185883,2,0,B|133:51|133:10|203:33,1,130,6|6,0:3|0:3,0:0:0:0:
479,36,188133,6,0,B|405:27|405:27|364:28|360:76,1,130,14|8,0:1|0:2,0:0:0:0:
276,187,188733,2,0,L|362:194,1,65,10|8,0:1|0:1,0:0:0:0:
418,200,189033,1,8,0:2:0:0:
511,325,189333,2,0,B|442:296|440:349|370:317,1,130,10|8,0:1|0:2,0:0:0:0:
274,212,189933,2,0,L|267:297,1,65,10|8,0:1|0:1,0:0:0:0:
262,354,190233,1,8,0:2:0:0:
106,368,190533,6,0,B|147:320|122:271|122:271|73:272,1,130,10|8,0:1|0:2,0:0:0:0:
0,148,191133,2,0,L|81:155,1,65,10|8,0:1|0:1,0:0:0:0:
130,195,191433,2,0,L|211:187,1,65,10|0,0:2|0:0,0:0:0:0:
263,225,191733,2,0,B|219:196|219:196|272:128,1,130,10|8,0:1|0:2,0:0:0:0:
390,41,192333,2,0,L|314:34,1,65,10|8,0:1|0:1,0:0:0:0:
248,20,192633,1,8,0:2:0:0:
112,97,192933,6,0,B|65:100|39:70|39:70|35:43|50:8,1,130,14|8,0:1|0:2,0:0:0:0:
190,78,193533,2,0,L|184:142,1,65,10|8,0:1|0:1,0:0:0:0:
175,220,193833,1,8,0:2:0:0:
260,350,194133,2,0,B|302:334|331:358|331:358|373:355|390:309,1,130,10|8,0:1|0:2,0:0:0:0:
466,204,194733,2,0,L|474:286,1,65,10|8,0:1|0:1,0:0:0:0:
486,345,195033,1,8,0:2:0:0:
361,250,195333,6,0,P|311:242|283:166,1,130,10|8,0:1|0:2,0:0:0:0:
415,95,195933,2,0,L|338:88,1,65,10|8,0:1|0:1,0:0:0:0:
290,17,196233,2,0,P|255:44|189:40,1,97.5,14|0,0:2|0:0,0:0:0:0:
192,35,196533,6,0,L|184:120,2,65,12|8|8,0:2|0:1|0:1,0:0:0:0:
107,136,196983,2,0,L|114:221,2,65,12|8|8,0:2|0:1|0:1,0:0:0:0:
182,260,197433,2,0,L|179:300,3,32.5,8|8|8|8,0:2|0:2|0:2|0:2,0:0:0:0:
