osu file format v14

[General]
AudioFilename: audio.mp3
AudioLeadIn: 0
PreviewTime: 38576
Countdown: 0
SampleSet: Soft
StackLeniency: 0.7
Mode: 0
LetterboxInBreaks: 0
WidescreenStoryboard: 1

[Editor]
Bookmarks: 5426,13826,15026,22226,24626,34226,58226,63026,72626,82226,91826,115826,120626,159026,173426,183026,188126,197726
DistanceSpacing: 1
BeatDivisor: 2
GridSize: 4
TimelineZoom: 2.5

[Metadata]
Title:STRUGGLES
TitleUnicode:STRUGGLES
Artist:Primary
ArtistUnicode:Primary
Creator:Silver_Cr0w
Version:Normal
Source:
Tags:yuiko yuikonnu rumia- kyle y kurantemelodii yunona toriai
BeatmapID:1049416
BeatmapSetID:477274

[Difficulty]
HPDrainRate:4
CircleSize:3.2
OverallDifficulty:4.4
ApproachRate:4
SliderMultiplier:1.1
SliderTickRate:1

[Events]
//Background and Video events
0,0,"BG.png",0,0
//Break Periods
//Storyboard Layer 0 (Background)
//Storyboard Layer 1 (Fail)
//Storyboard Layer 2 (Pass)
//Storyboard Layer 3 (Foreground)
//Storyboard Sound Samples

[TimingPoints]
626,300,4,1,0,100,1,0
626,-100,4,2,1,5,0,0
1826,-100,4,2,1,10,0,0
3026,-100,4,2,1,15,0,0
4226,-100,4,2,1,20,0,0
4676,-100,4,2,2,85,0,0
5426,-100,4,2,2,80,0,0
13826,-100,4,2,2,85,0,0
15026,-100,4,2,2,85,0,0
15176,-100,4,2,1,60,0,0
17426,-100,4,2,1,60,0,0
24326,-100,4,2,2,85,0,0
24626,-100,4,2,2,85,0,0
24776,-100,4,2,2,70,0,0
34226,-100,4,2,1,65,0,0
37826,-100,4,2,1,70,0,0
37901,-100,4,2,1,65,0,0
39026,-100,4,2,2,90,0,1
57776,-100,4,2,2,85,0,1
57926,-100,4,2,2,80,0,1
58076,-100,4,2,2,75,0,1
58226,-100,4,2,2,80,0,0
58376,-100,4,2,2,70,0,0
63026,-100,4,2,2,80,0,0
72626,-100,4,2,1,80,0,0
72776,-100,4,2,1,60,0,0
81926,-100,4,2,2,85,0,0
82226,-100,4,2,2,85,0,0
82376,-100,4,2,2,70,0,0
91826,-100,4,2,1,65,0,0
95426,-100,4,2,1,70,0,0
95501,-100,4,2,1,65,0,0
96626,-100,4,2,2,90,0,1
115376,-100,4,2,2,85,0,1
115526,-100,4,2,2,80,0,1
115676,-100,4,2,2,75,0,1
115826,-100,4,2,2,80,0,0
115976,-100,4,2,2,70,0,0
120626,-100,4,2,2,80,0,0
137426,-100,4,2,1,85,0,0
139376,-100,4,2,1,50,0,0
139826,-100,4,2,2,90,0,1
158576,-100,4,2,2,85,0,1
158726,-100,4,2,2,80,0,1
158876,-100,4,2,2,75,0,1
159026,-100,4,2,2,80,0,0
159176,-100,4,2,2,70,0,0
163826,-100,4,2,2,90,0,1
173426,-100,4,2,2,95,0,1
182576,-100,4,2,2,85,0,1
182726,-100,4,2,2,80,0,1
182876,-100,4,2,2,75,0,1
183026,-100,4,2,2,80,0,0
183176,-100,4,2,2,70,0,0
186476,300,4,1,0,100,1,0
186476,-100,4,2,1,25,0,0
187676,-100,4,2,1,5,0,0
188126,300,4,1,0,100,1,0
188126,-100,4,2,2,80,0,0

[HitObjects]
256,192,626,12,0,4226,0:0:0:0:
232,140,4676,5,0,0:0:0:0:
232,140,4826,2,8,L|176:104,2,55
340,140,5426,1,4,0:0:0:0:
384,232,5726,2,0,P|368:288|308:312,1,110,8|0,0:0|0:0,0:0:0:0:
272,296,6176,2,0,L|216:316,1,55,0|8,0:0|0:0,0:0:0:0:
116,284,6626,1,0,0:0:0:0:
116,184,6926,2,0,B|144:136|144:136|208:92,1,110,8|0,0:0|0:0,0:0:0:0:
236,76,7376,2,0,L|288:92,1,55,0|8,0:0|0:0,0:0:0:0:
392,132,7826,5,0,0:0:0:0:
332,224,8126,2,0,P|276:232|224:260,1,110,8|0,0:0|0:0,0:0:0:0:
188,288,8576,2,0,L|136:244,1,55,0|8,0:0|0:0,0:0:0:0:
72,192,9026,1,0,0:0:0:0:
131,136,9326,2,0,B|167:132|184:100|184:100|235:80,1,110,8|0,0:0|0:0,0:0:0:0:
280,84,9776,2,0,L|332:112,1,55,0|8,0:0|0:0,0:0:0:0:
400,188,10226,5,4,0:0:0:0:
352,288,10526,2,0,B|280:284|280:284|248:256,1,110,8|0,0:0|0:0,0:0:0:0:
212,220,10976,2,0,L|212:160,1,55,0|8,0:0|0:0,0:0:0:0:
188,56,11426,1,0,0:0:0:0:
84,48,11726,2,0,B|64:100|64:100|79:129|64:160,1,110,8|0,0:0|0:0,0:0:0:0:
50,205,12176,2,0,L|74:257,1,55,0|8,0:0|0:0,0:0:0:0:
120,352,12626,2,0,P|168:368|228:360,1,110,0|8,0:0|0:0,0:0:0:0:
332,348,13226,2,0,P|384:320|356:260,1,110,0|8,0:0|0:0,0:0:0:0:
296,200,13826,2,8,B|332:152|332:152|330:100|330:100|384:40,2,165
192,156,15026,6,2,L|136:100,2,55,4|2|2,0:0|0:0|0:0,0:0:0:0:
404,332,16076,1,2,0:0:0:0:
404,332,16226,2,2,L|476:340,2,55
484,128,17126,1,8,0:0:0:0:
388,68,17426,6,2,L|324:64,1,55
44,228,18476,1,2,0:0:0:0:
44,228,18626,6,2,L|20:284,2,55
136,288,19226,2,2,L|112:344,2,55
212,368,19826,2,2,L|233:317,2,55
468,272,20876,5,2,0:0:0:0:
456,220,21026,2,2,L|423:177,1,55
208,12,21926,1,8,0:0:0:0:
127,88,22226,5,2,0:0:0:0:
105,137,22376,2,2,L|60:168,1,55
252,356,23276,5,2,0:0:0:0:
304,344,23426,2,2,L|353:314,1,55
448,184,24026,1,2,0:0:0:0:
344,144,24326,1,8,0:0:0:0:
236,96,24626,6,0,B|180:96|132:128,1,110,4|8,0:0|0:0,0:0:0:0:
44,196,25226,1,0,0:0:0:0:
120,276,25526,1,8,0:0:0:0:
228,296,25826,2,0,P|272:278|310:223,1,110,0|8,0:0|0:0,0:0:0:0:
300,180,26276,1,0,0:0:0:0:
300,180,26426,2,0,P|354:181|399:211,1,110,0|8,0:0|0:0,0:0:0:0:
468,296,27026,6,0,B|496:248|496:248|492:172,1,110,0|8,0:0|0:0,0:0:0:0:
448,96,27626,1,0,0:0:0:0:
360,160,27926,1,8,0:0:0:0:
256,128,28226,2,0,P|204:112|144:72,1,110,0|8,0:0|0:0,0:0:0:0:
106,94,28676,1,0,0:0:0:0:
106,94,28826,2,0,P|122:146|162:206,1,110,0|8,0:0|0:0,0:0:0:0:
207,288,29426,6,0,B|241:251|241:251|263:189,1,110,4|8,0:0|0:0,0:0:0:0:
268,84,30026,1,0,0:0:0:0:
364,28,30326,1,8,0:0:0:0:
468,68,30626,6,0,B|492:120|492:120|492:184,1,110,0|8,0:0|0:0,0:0:0:0:
460,220,31076,1,0,0:0:0:0:
460,220,31226,2,0,P|424:264|368:284,1,110,0|8,0:0|0:0,0:0:0:0:
268,300,31826,6,0,B|224:260|148:264,1,110,0|8,0:0|0:0,0:0:0:0:
60,284,32426,1,0,0:0:0:0:
16,184,32726,1,8,0:0:0:0:
52,68,33026,6,0,P|104:40|164:44,1,110,0|8,0:0|0:0,0:0:0:0:
208,48,33476,1,8,0:0:0:0:
208,48,33626,2,0,L|256:76,2,55,8|0|0,0:0|0:0|0:0,0:0:0:0:
236,152,34226,6,2,B|336:224|336:120|460:152,1,220
484,252,35126,1,0,0:0:0:0:
357,247,35426,2,0,P|325:235|293:235,2,55,2|0|0,0:0|0:0|0:0,0:0:0:0:
416,319,36026,2,0,P|359:340|304:323,1,110,2|0,0:0|0:0,0:0:0:0:
188,296,36626,6,0,P|166:244|110:188,1,110,2|0,0:0|0:0,0:0:0:0:
91,165,37076,1,0,0:0:0:0:
131,126,37226,2,0,P|176:95|210:52,1,110,2|0,0:0|0:0,0:0:0:0:
263,44,37676,1,0,0:0:0:0:
263,44,37826,2,2,B|301:57|320:92|320:92|348:88|348:88|352:112|352:112|360:160|436:184,1,220,6|2,0:0|0:0,0:0:0:0:
268,344,39026,6,0,B|240:348|240:348|232:312|172:272,1,110,4|8,0:0|0:0,0:0:0:0:
160,240,39476,2,0,P|136:224|112:176,1,55
96,96,39926,1,8,0:0:0:0:
204,116,40226,2,0,B|242:104|242:104|276:124|276:124|319:112,1,110,0|8,0:0|0:0,0:0:0:0:
360,128,40676,2,0,B|388:144|404:172,1,55
480,240,41126,1,8,0:0:0:0:
408,324,41426,6,0,B|348:312|292:360,1,110,0|8,0:0|0:0,0:0:0:0:
260,320,41876,2,0,B|232:320|232:320|200:296,1,55,0|8,0:0|0:0,0:0:0:0:
240,200,42326,1,0,0:0:0:0:
188,108,42626,1,8,0:0:0:0:
96,52,42926,2,0,B|88:92|64:116|64:116|64:176,1,110,0|8,0:0|0:0,0:0:0:0:
88,204,43376,1,0,0:0:0:0:
88,204,43526,1,8,0:0:0:0:
88,312,43826,6,0,B|107:305|127:274|127:274|155:299|187:299,1,110,0|8,0:0|0:0,0:0:0:0:
228,320,44276,2,0,P|256:316|280:296,1,55
304,192,44726,1,8,0:0:0:0:
392,260,45026,2,0,B|424:284|424:284|456:276|472:228,1,110,0|8,0:0|0:0,0:0:0:0:
488,184,45476,2,0,B|496:160|496:160|492:128,1,55
468,24,45926,1,8,0:0:0:0:
364,24,46226,6,0,B|332:44|320:80|320:80|272:84,1,110,0|8,0:0|0:0,0:0:0:0:
160,40,46826,1,8,0:0:0:0:
92,124,47126,1,0,0:0:0:0:
100,232,47426,2,0,P|124:280|192:276,1,110,8|0,0:0|0:0,0:0:0:0:
268,224,48026,2,0,P|284:196|288:168,2,55,8|0|8,0:0|0:0|0:0,0:0:0:0:
376,196,48626,6,0,P|406:233|394:305,1,110,4|8,0:0|0:0,0:0:0:0:
312,356,49226,1,0,0:0:0:0:
224,292,49526,1,8,0:0:0:0:
146,369,49826,1,0,0:0:0:0:
128,260,50126,2,0,P|132:204|100:152,1,110,8|0,0:0|0:0,0:0:0:0:
64,124,50576,1,0,0:0:0:0:
64,124,50726,1,8,0:0:0:0:
156,60,51026,6,0,P|212:64|260:96,1,110,0|8,0:0|0:0,0:0:0:0:
356,136,51626,1,8,0:0:0:0:
396,240,51926,1,0,0:0:0:0:
384,348,52226,2,0,P|328:360|284:320,1,110,8|0,0:0|0:0,0:0:0:0:
256,224,52826,2,0,P|252:192|264:152,2,55,8|0|8,0:0|0:0|0:0,0:0:0:0:
184,140,53426,5,0,0:0:0:0:
124,224,53726,2,0,L|172:288,2,55,8|0|0,0:0|0:0|0:0,0:0:0:0:
44,152,54326,1,8,0:0:0:0:
16,44,54626,1,0,0:0:0:0:
116,92,54926,2,0,P|168:108|228:80,2,110,8|0|8,0:0|0:0|0:0,0:0:0:0:
48,180,55826,5,0,0:0:0:0:
116,259,56126,1,8,0:0:0:0:
216,212,56426,2,0,B|268:152|344:172|344:172|372:144|376:84|376:84|448:124|452:204,1,385,8|0,0:0|0:0,0:0:0:0:
436,256,57626,1,8,0:0:0:0:
404,300,57776,1,8,0:0:0:0:
352,312,57926,1,0,0:0:0:0:
244,340,58226,6,0,P|232:288|172:236,1,110,4|0,0:0|0:0,0:0:0:0:
110,174,58826,2,0,P|152:144|212:137,1,110,8|0,0:0|0:0,0:0:0:0:
320,128,59426,1,0,0:0:0:0:
404,192,59726,1,0,0:0:0:0:
412,288,60026,2,0,P|420:316|444:340,2,55,8|0|0,0:0|0:0|0:0,0:0:0:0:
308,320,60626,6,0,B|260:292|260:292|228:232,1,110,4|0,0:0|0:0,0:0:0:0:
240,136,61226,2,0,B|191:161|191:161|163:209,1,110,8|0,0:0|0:0,0:0:0:0:
84,284,61826,1,0,0:0:0:0:
56,180,62126,1,0,0:0:0:0:
92,76,62426,1,8,0:0:0:0:
92,76,62576,2,8,L|152:76,1,55
256,56,63026,5,4,0:0:0:0:
364,40,63326,2,0,P|408:72|416:124,1,110,8|0,0:0|0:0,0:0:0:0:
384,172,63776,2,0,L|384:236,1,55,0|8,0:0|0:0,0:0:0:0:
316,312,64226,1,0,0:0:0:0:
216,352,64526,2,0,B|160:356|160:356|112:332,1,110,8|0,0:0|0:0,0:0:0:0:
64,304,64976,2,0,P|68:276|64:240,1,55,0|8,0:0|0:0,0:0:0:0:
100,144,65426,5,0,0:0:0:0:
196,92,65726,2,0,B|236:116|256:160|256:160|252:192,1,110,8|0,0:0|0:0,0:0:0:0:
224,224,66176,2,0,L|256:288,1,55,0|8,0:0|0:0,0:0:0:0:
336,340,66626,1,0,0:0:0:0:
436,292,66926,2,0,B|448:220|448:220|416:168,1,110,8|0,0:0|0:0,0:0:0:0:
380,164,67376,2,0,L|336:124,1,55,0|8,0:0|0:0,0:0:0:0:
260,48,67826,5,4,0:0:0:0:
152,72,68126,2,0,P|128:124|152:184,1,110,8|0,0:0|0:0,0:0:0:0:
160,224,68576,2,0,L|216:252,1,55,0|8,0:0|0:0,0:0:0:0:
312,208,69026,1,0,0:0:0:0:
340,100,69326,2,0,B|372:56|372:56|436:36,1,110,8|0,0:0|0:0,0:0:0:0:
480,36,69776,2,0,P|496:60|504:100,1,55,0|8,0:0|0:0,0:0:0:0:
484,192,70226,6,0,B|456:252|388:248,1,110,0|8,0:0|0:0,0:0:0:0:
308,312,70826,2,0,B|249:315|221:255,1,110,0|8,0:0|0:0,0:0:0:0:
160,164,71426,2,8,B|104:140|92:80|92:80|32:56,2,165
268,156,72626,6,2,L|324:136,2,55
92,288,73676,1,8,0:0:0:0:
92,288,73826,2,2,P|64:316|48:344,2,55
312,280,74726,1,8,0:0:0:0:
404,220,75026,2,2,L|392:160,1,55
184,148,76076,1,8,0:0:0:0:
184,148,76226,6,2,L|240:124,2,55
104,224,76826,2,2,L|53:202,2,55
196,288,77426,2,2,L|219:337,2,55
380,84,78476,5,8,0:0:0:0:
416,124,78626,2,2,L|424:184,1,55
276,256,79226,2,0,P|212:252|164:216,1,110
132,200,79676,1,8,0:0:0:0:
132,200,79826,2,2,L|124:140,1,55
428,276,80876,1,8,0:0:0:0:
460,232,81026,6,2,L|460:176,1,55
348,56,81626,1,2,0:0:0:0:
316,160,81926,1,8,0:0:0:0:
208,160,82226,6,0,B|160:188|160:188|120:236,1,110,0|8,0:0|0:0,0:0:0:0:
116,340,82826,1,0,0:0:0:0:
224,364,83126,1,8,0:0:0:0:
328,324,83426,2,0,P|352:280|360:212,1,110,0|8,0:0|0:0,0:0:0:0:
312,196,83876,1,0,0:0:0:0:
312,196,84026,2,0,P|319:141|344:93,1,110,0|8,0:0|0:0,0:0:0:0:
436,32,84626,6,0,P|465:78|476:131,1,110,0|8,0:0|0:0,0:0:0:0:
436,232,85226,1,0,0:0:0:0:
328,248,85526,1,8,0:0:0:0:
236,188,85826,2,0,B|188:160|188:160|128:160,1,110,0|8,0:0|0:0,0:0:0:0:
88,188,86276,1,0,0:0:0:0:
88,188,86426,2,0,P|56:144|64:76,1,110,0|8,0:0|0:0,0:0:0:0:
156,44,87026,6,0,P|188:88|180:156,1,110,0|8,0:0|0:0,0:0:0:0:
128,236,87626,1,0,0:0:0:0:
196,324,87926,1,8,0:0:0:0:
304,328,88226,2,0,P|308:264|340:212,1,110,0|8,0:0|0:0,0:0:0:0:
368,188,88676,1,0,0:0:0:0:
368,188,88826,2,0,B|351:151|315:130|315:130|301:86,1,110,0|8,0:0|0:0,0:0:0:0:
228,24,89426,6,0,P|196:72|204:152,1,110,0|8,0:0|0:0,0:0:0:0:
188,232,90026,1,0,0:0:0:0:
280,292,90326,1,8,0:0:0:0:
372,236,90626,2,0,B|408:196|408:196|420:132,1,110,0|8,0:0|0:0,0:0:0:0:
392,92,91076,1,0,0:0:0:0:
392,92,91226,2,8,L|328:60,2,55,8|8|0,0:0|0:0|0:0,0:0:0:0:
312,168,91826,6,2,B|272:216|216:212|216:212|180:152|104:172,1,220
52,252,92726,1,0,0:0:0:0:
132,324,93026,2,0,L|164:372,2,55,2|0|0,0:0|0:0|0:0,0:0:0:0:
212,244,93626,2,0,P|268:260|316:304,1,110,2|0,0:0|0:0,0:0:0:0:
412,328,94226,6,0,P|416:273|399:221,1,110,2|0,0:0|0:0,0:0:0:0:
364,180,94676,1,0,0:0:0:0:
364,180,94826,2,0,B|308:180|308:180|260:148,1,110,2|0,0:0|0:0,0:0:0:0:
224,108,95276,1,0,0:0:0:0:
224,108,95426,2,2,B|112:148|172:208|48:240,1,220,6|2,0:0|0:0,0:0:0:0:
260,320,96626,6,0,P|292:276|340:240,1,110,4|8,0:0|0:0,0:0:0:0:
388,256,97076,2,0,L|408:200,1,55
440,100,97526,1,8,0:0:0:0:
336,68,97826,2,0,B|304:60|304:60|276:88|228:88,1,110,0|8,0:0|0:0,0:0:0:0:
180,88,98276,2,0,L|132:120,1,55
80,212,98726,1,8,0:0:0:0:
144,304,99026,6,0,B|196:320|196:320|252:312,1,110,0|8,0:0|0:0,0:0:0:0:
296,280,99476,2,0,L|348:244,1,55,0|8,0:0|0:0,0:0:0:0:
432,184,99926,1,0,0:0:0:0:
364,96,100226,1,8,0:0:0:0:
268,148,100526,2,0,P|220:176|144:180,1,110,8|8,0:0|0:0,0:0:0:0:
112,176,100976,1,0,0:0:0:0:
112,176,101126,1,8,0:0:0:0:
16,120,101426,6,0,P|40:72|84:36,1,110,0|8,0:0|0:0,0:0:0:0:
140,40,101876,1,0,0:0:0:0:
140,40,102026,2,0,B|192:28|192:28|252:40,1,110,0|8,0:0|0:0,0:0:0:0:
352,68,102626,2,0,L|424:48,2,55,0|0|8,0:0|0:0|0:0,0:0:0:0:
280,152,103226,2,0,P|229:183|147:193,1,110,0|8,0:0|0:0,0:0:0:0:
80,152,103826,6,0,P|48:202|38:284,1,110,0|8,0:0|0:0,0:0:0:0:
84,352,104426,1,8,0:0:0:0:
192,348,104726,1,0,0:0:0:0:
300,320,105026,2,0,P|352:296|396:232,1,110,8|0,0:0|0:0,0:0:0:0:
440,160,105626,2,0,L|504:144,2,55,8|0|8,0:0|0:0|0:0,0:0:0:0:
332,160,106226,6,0,B|300:144|284:104|284:104|232:88,1,110,4|8,0:0|0:0,0:0:0:0:
200,72,106676,2,0,L|136:80,1,55
44,124,107126,1,8,0:0:0:0:
48,232,107426,2,0,B|96:252|96:252|120:236|176:244,1,110,0|8,0:0|0:0,0:0:0:0:
200,264,107876,2,0,L|264:240,1,55
340,176,108326,1,8,0:0:0:0:
444,208,108626,6,0,P|456:264|420:304,1,110,0|8,0:0|0:0,0:0:0:0:
320,332,109226,1,8,0:0:0:0:
251,244,109526,1,0,0:0:0:0:
264,136,109826,1,8,0:0:0:0:
196,48,110126,2,0,B|140:40|140:40|84:64,1,110,0|8,0:0|0:0,0:0:0:0:
64,108,110576,1,0,0:0:0:0:
64,108,110726,1,8,0:0:0:0:
40,216,111026,6,0,P|72:264|124:288,1,110,0|8,0:0|0:0,0:0:0:0:
172,288,111476,2,0,L|232:256,1,55
284,172,111926,1,8,0:0:0:0:
372,104,112226,2,0,P|428:116|472:152,1,110,0|8,0:0|0:0,0:0:0:0:
468,204,112676,1,0,0:0:0:0:
468,204,112826,2,0,L|448:272,2,55,0|0|8,0:0|0:0|0:0,0:0:0:0:
365,241,113426,6,0,B|317:217|317:217|281:169,1,110,0|8,0:0|0:0,0:0:0:0:
172,164,114026,2,0,B|120:160|120:160|76:123|76:123|33:152|30:221|30:221|72:256|68:320|68:320|124:340,1,385,8|0,0:0|0:0,0:0:0:0:
172,332,115226,1,8,0:0:0:0:
228,328,115376,1,8,0:0:0:0:
284,324,115526,1,0,0:0:0:0:
388,288,115826,6,0,P|404:232|380:184,1,110,4|0,0:0|0:0,0:0:0:0:
276,172,116426,2,0,P|260:116|284:68,1,110,8|0,0:0|0:0,0:0:0:0:
384,36,117026,1,0,0:0:0:0:
480,92,117326,1,0,0:0:0:0:
492,200,117626,2,0,L|500:272,2,55,8|0|0,0:0|0:0|0:0,0:0:0:0:
396,144,118226,6,0,B|340:120|340:176|280:144,1,110,4|0,0:0|0:0,0:0:0:0:
208,220,118826,2,0,B|166:183|166:183|149:117,1,110,8|0,0:0|0:0,0:0:0:0:
200,32,119426,1,0,0:0:0:0:
308,56,119726,1,0,0:0:0:0:
336,164,120026,1,8,0:0:0:0:
336,164,120176,2,8,L|288:232,1,55
240,296,120626,5,4,0:0:0:0:
132,304,120926,2,0,P|92:268|80:204,1,110,8|0,0:0|0:0,0:0:0:0:
92,160,121376,2,0,L|128:116,1,55,0|8,0:0|0:0,0:0:0:0:
224,68,121826,2,0,P|276:84|340:60,1,110,0|8,0:0|0:0,0:0:0:0:
428,28,122426,2,0,P|463:69|465:137,1,110,0|8,0:0|0:0,0:0:0:0:
440,228,123026,5,0,0:0:0:0:
336,260,123326,2,0,B|288:232|288:232|260:172,1,110,8|0,0:0|0:0,0:0:0:0:
244,132,123776,2,0,L|180:104,1,55,0|8,0:0|0:0,0:0:0:0:
116,32,124226,2,0,P|76:72|64:144,1,110,0|8,0:0|0:0,0:0:0:0:
152,188,124826,1,0,0:0:0:0:
96,280,125126,1,8,0:0:0:0:
176,356,125426,5,4,0:0:0:0:
284,340,125726,2,0,B|336:320|336:320|392:332,1,110,8|0,0:0|0:0,0:0:0:0:
444,344,126176,2,0,L|464:276,1,55,0|8,0:0|0:0,0:0:0:0:
456,180,126626,1,0,0:0:0:0:
376,108,126926,1,8,0:0:0:0:
268,92,127226,2,0,P|216:116|176:161,1,110,0|8,0:0|0:0,0:0:0:0:
132,252,127826,6,0,L|28:316,2,110,0|8|0,0:0|0:0|0:0,0:0:0:0:
240,260,128726,1,8,0:0:0:0:
348,268,129026,2,0,P|380:220|376:156,2,110,0|8|0,0:0|0:0|0:0,0:0:0:0:
285,342,129926,1,4,0:0:0:0:
180,308,130226,5,4,0:0:0:0:
112,224,130526,2,0,P|104:168|136:104,1,110,8|0,0:0|0:0,0:0:0:0:
152,72,130976,2,0,L|212:44,1,55,0|8,0:0|0:0,0:0:0:0:
308,24,131426,1,0,0:0:0:0:
328,133,131726,1,8,0:0:0:0:
433,168,132026,1,0,0:0:0:0:
453,278,132326,1,8,0:0:0:0:
368,348,132626,5,0,0:0:0:0:
272,296,132926,2,0,B|228:260|228:260|160:256,1,110,8|0,0:0|0:0,0:0:0:0:
120,268,133376,2,0,L|80:220,1,55,0|8,0:0|0:0,0:0:0:0:
56,120,133826,2,0,P|104:100|180:112,1,110,0|8,0:0|0:0,0:0:0:0:
240,180,134426,2,0,P|290:167|345:113,1,110,0|8,0:0|0:0,0:0:0:0:
424,68,135026,5,0,0:0:0:0:
488,160,135326,2,0,P|484:216|444:260,1,110,8|0,0:0|0:0,0:0:0:0:
412,296,135776,2,0,L|332:312,1,55,0|8,0:0|0:0,0:0:0:0:
252,280,136226,1,0,0:0:0:0:
152,324,136526,1,8,0:0:0:0:
60,264,136826,2,0,P|32:216|36:148,1,110,0|8,0:0|0:0,0:0:0:0:
88,68,137426,6,2,L|144:108,1,55
244,104,137876,2,2,L|244:172,1,55
340,216,138326,2,2,L|284:256,1,55
248,160,139826,6,0,P|196:140|128:156,1,110,4|8,0:0|0:0,0:0:0:0:
100,184,140276,2,0,P|89:212|88:240,1,55
136,336,140726,1,8,0:0:0:0:
244,340,141026,2,0,B|296:320|296:320|368:320,1,110,0|8,0:0|0:0,0:0:0:0:
400,340,141476,2,0,L|432:284,1,55
456,184,141926,1,8,0:0:0:0:
368,116,142226,6,0,P|316:96|248:104,1,110,0|8,0:0|0:0,0:0:0:0:
152,92,142826,2,0,P|116:135|103:202,1,110,8|0,0:0|0:0,0:0:0:0:
156,284,143426,1,8,0:0:0:0:
264,300,143726,2,0,P|304:264|312:200,1,110,0|8,0:0|0:0,0:0:0:0:
300,156,144176,1,0,0:0:0:0:
300,156,144326,1,8,0:0:0:0:
352,60,144626,6,0,P|404:76|444:128,1,110,0|8,0:0|0:0,0:0:0:0:
464,168,145076,2,0,L|440:224,1,55
376,304,145526,1,8,0:0:0:0:
272,332,145826,2,0,P|220:364|148:364,2,110,0|8|0,0:0|0:0|0:0,0:0:0:0:
328,240,146726,1,8,0:0:0:0:
340,132,147026,6,0,P|292:104|224:108,1,110,0|8,0:0|0:0,0:0:0:0:
136,60,147626,1,8,0:0:0:0:
68,148,147926,1,0,0:0:0:0:
28,252,148226,1,8,0:0:0:0:
112,324,148526,2,0,B|160:352|160:352|220:352,1,110,0|8,0:0|0:0,0:0:0:0:
264,332,148976,1,0,0:0:0:0:
264,332,149126,1,8,0:0:0:0:
316,236,149426,6,0,P|320:180|352:124,1,110,4|8,0:0|0:0,0:0:0:0:
440,76,150026,1,0,0:0:0:0:
496,168,150326,1,8,0:0:0:0:
468,276,150626,1,0,0:0:0:0:
372,332,150926,2,0,B|316:340|316:340|260:316,1,110,8|0,0:0|0:0,0:0:0:0:
236,276,151376,1,0,0:0:0:0:
236,276,151526,1,8,0:0:0:0:
160,196,151826,6,0,P|172:140|212:96,1,110,0|8,0:0|0:0,0:0:0:0:
312,76,152426,1,8,0:0:0:0:
420,104,152726,1,0,0:0:0:0:
496,184,153026,2,0,P|482:242|436:282,1,110,8|0,0:0|0:0,0:0:0:0:
340,284,153626,2,0,L|288:332,2,55,8|0|8,0:0|0:0|0:0,0:0:0:0:
398,189,154226,5,0,0:0:0:0:
324,108,154526,2,0,P|308:84|300:52,2,55,8|0|0,0:0|0:0|0:0,0:0:0:0:
300,216,155126,1,8,0:0:0:0:
208,280,155426,1,0,0:0:0:0:
120,216,155726,2,0,P|64:216|16:244,2,110,8|0|8,0:0|0:0|0:0,0:0:0:0:
216,160,156626,5,0,0:0:0:0:
316,112,156926,1,8,0:0:0:0:
384,200,157226,2,0,B|416:236|480:248|480:248|356:376|356:284|220:316,1,385,8|0,0:0|0:0,0:0:0:0:
176,304,158426,2,0,L|104:336,2,55,8|8|0,0:0|0:0|0:0,0:0:0:0:
235,212,159026,6,0,P|281:179|301:121,1,110,4|0,0:0|0:0,0:0:0:0:
290,23,159626,2,0,P|346:29|390:71,1,110,8|0,0:0|0:0,0:0:0:0:
376,172,160226,1,0,0:0:0:0:
316,264,160526,1,0,0:0:0:0:
208,252,160826,2,0,L|144:244,2,55,8|0|0,0:0|0:0|0:0,0:0:0:0:
296,188,161426,6,0,B|276:136|276:136|228:96,1,110,4|0,0:0|0:0,0:0:0:0:
164,16,162026,2,0,B|116:44|116:44|85:98,1,110,8|0,0:0|0:0,0:0:0:0:
68,200,162626,1,0,0:0:0:0:
176,220,162926,1,8,0:0:0:0:
192,328,163226,2,8,L|244:368,2,55
284,268,163826,6,0,P|320:216|332:168,1,110,4|8,0:0|0:0,0:0:0:0:
344,128,164276,2,0,L|296:80,1,55
204,48,164726,1,8,0:0:0:0:
112,108,165026,2,0,B|96:164|132:164|112:232,1,110,0|8,0:0|0:0,0:0:0:0:
116,272,165476,2,0,L|156:316,1,55
260,296,165926,1,8,0:0:0:0:
292,192,166226,6,0,P|332:152|340:88,1,110,0|8,0:0|0:0,0:0:0:0:
372,56,166676,2,0,L|412:100,1,55,0|8,0:0|0:0,0:0:0:0:
476,184,167126,5,0,0:0:0:0:
408,272,167426,1,8,0:0:0:0:
300,300,167726,2,0,P|248:288|196:240,1,110,0|8,0:0|0:0,0:0:0:0:
172,208,168176,1,0,0:0:0:0:
172,208,168326,1,8,0:0:0:0:
72,160,168626,6,0,P|43:205|40:275,1,110,0|8,0:0|0:0,0:0:0:0:
52,312,169076,2,0,B|76:324|76:324|116:320,1,55
212,332,169526,1,8,0:0:0:0:
320,312,169826,2,0,P|368:300|408:244,1,110,0|8,0:0|0:0,0:0:0:0:
408,200,170276,2,0,L|384:140,1,55
308,72,170726,1,8,0:0:0:0:
200,48,171026,6,0,B|180:100|180:100|192:168,1,110,0|8,0:0|0:0,0:0:0:0:
236,252,171626,2,0,B|290:240|290:240|340:193,1,110,8|0,0:0|0:0,0:0:0:0:
416,132,172226,1,0,0:0:0:0:
492,208,172526,2,0,P|464:256|412:280,1,110,8|0,0:0|0:0,0:0:0:0:
360,284,172976,1,0,0:0:0:0:
360,284,173126,1,8,0:0:0:0:
252,312,173426,5,8,0:0:0:0:
176,236,173726,1,8,0:0:0:0:
76,188,174026,1,8,0:0:0:0:
32,88,174326,1,8,0:0:0:0:
140,96,174626,5,8,0:0:0:0:
244,132,174926,1,8,0:0:0:0:
352,124,175226,1,8,0:0:0:0:
448,68,175526,1,8,0:0:0:0:
496,168,175826,6,8,B|460:212|460:212|408:236,1,110
308,196,176426,1,8,0:0:0:0:
256,100,176726,1,8,0:0:0:0:
148,72,177026,2,8,P|112:116|100:184,1,110
72,272,177626,2,8,P|116:308|184:320,1,110
276,324,178226,5,12,0:0:0:0:
381,291,178526,1,8,0:0:0:0:
455,211,178826,1,8,0:0:0:0:
477,105,179126,1,8,0:0:0:0:
368,96,179426,5,8,0:0:0:0:
266,136,179726,1,8,0:0:0:0:
159,120,180026,1,8,0:0:0:0:
73,49,180326,1,8,0:0:0:0:
36,152,180626,6,8,P|36:216|68:264,1,110
164,284,181226,1,8,0:0:0:0:
232,196,181526,1,8,0:0:0:0:
332,144,181826,2,8,P|392:152|428:196,1,110
468,288,182426,2,0,P|410:306|359:281,1,110,8|0,0:0|0:0,0:0:0:0:
260,260,183026,6,0,B|216:224|216:224|152:212,1,110,4|0,0:0|0:0,0:0:0:0:
56,244,183626,2,0,B|38:190|38:190|47:137,1,110,8|0,0:0|0:0,0:0:0:0:
116,52,184226,1,0,0:0:0:0:
224,68,184526,1,0,0:0:0:0:
332,52,184826,2,0,P|360:44|392:28,2,55,8|0|0,0:0|0:0|0:0,0:0:0:0:
292,156,185426,6,0,P|252:196|240:268,1,110,4|0,0:0|0:0,0:0:0:0:
280,348,186026,1,8,0:0:0:0:
408,244,186476,6,2,P|424:192|400:116,1,110
336,60,187076,1,2,0:0:0:0:
292,156,187376,1,2,0:0:0:0:
68,312,188126,5,4,0:0:0:0:
112,212,188426,2,0,B|144:168|144:168|192:140,1,110,8|0,0:0|0:0,0:0:0:0:
236,108,188876,2,0,L|300:136,1,55,0|8,0:0|0:0,0:0:0:0:
376,192,189326,1,0,0:0:0:0:
400,300,189626,2,0,P|356:332|288:336,1,110,8|0,0:0|0:0,0:0:0:0:
248,328,190076,2,0,L|200:292,1,55,0|8,0:0|0:0,0:0:0:0:
116,228,190526,5,0,0:0:0:0:
160,128,190826,2,0,B|188:128|204:101|204:101|223:69|252:69,1,110,8|0,0:0|0:0,0:0:0:0:
305,65,191276,2,0,L|352:96,1,55,0|8,0:0|0:0,0:0:0:0:
360,204,191726,1,0,0:0:0:0:
276,276,192026,2,0,P|220:300|168:296,1,110,8|0,0:0|0:0,0:0:0:0:
116,288,192476,2,0,L|60:240,1,55,0|8,0:0|0:0,0:0:0:0:
100,144,192926,5,4,0:0:0:0:
184,72,193226,2,0,B|236:52|236:52|300:68,1,110,8|0,0:0|0:0,0:0:0:0:
320,112,193676,2,0,L|384:84,1,55,0|8,0:0|0:0,0:0:0:0:
476,56,194126,1,0,0:0:0:0:
484,164,194426,2,0,P|456:208|384:204,1,110,8|0,0:0|0:0,0:0:0:0:
348,208,194876,2,0,L|272:208,1,55,0|8,0:0|0:0,0:0:0:0:
216,128,195326,5,0,0:0:0:0:
112,88,195626,1,8,0:0:0:0:
40,172,195926,2,0,P|48:220|104:272,1,110,0|8,0:0|0:0,0:0:0:0:
196,256,196526,5,8,0:0:0:0:
300,128,196976,1,8,0:0:0:0:
388,268,197426,1,8,0:0:0:0:
