osu file format v14

[General]
AudioFilename: audio.mp3
AudioLeadIn: 0
PreviewTime: 315009
Countdown: 0
SampleSet: Soft
StackLeniency: 0.6
Mode: 0
LetterboxInBreaks: 0
EpilepsyWarning: 1
WidescreenStoryboard: 1

[Editor]
Bookmarks: 42033,52411,70573,75763,80952,89369,140192,145503,198137,206039,255182,261536,307474,315803,366627
DistanceSpacing: 3
BeatDivisor: 4
GridSize: 4
TimelineZoom: 2.1

[Metadata]
Title:SHUTTER*GIRL-crossfade-
TitleUnicode:SHUTTER*GIRL-crossfade-
Artist:Primary
ArtistUnicode:Primary
Creator:Kyuukai
Version:Photography
Source:
Tags:yaleufeu linada realazy yuikonnu naked flyer lost sorrow glorious days spring snow fragment last message 東の空から始まる世界 azuma no sora kara hajimaru sekai shutter girl shuttergirl yuiko meis clauson 恋×シンアイ彼女 koi kakeru shinai kanojo ゆいこんぬ
BeatmapID:1296232
BeatmapSetID:614465

[Difficulty]
HPDrainRate:6
CircleSize:4.3
OverallDifficulty:8.5
ApproachRate:9
SliderMultiplier:1.85
SliderTickRate:1

[Events]
//Background and Video events
0,0,"Shutter_bg.jpg",0,0
//Break Periods
2,81152,88769
2,140392,144903
2,198337,205439
2,255382,260936
2,307674,314243
//Storyboard Layer 0 (Background)
//Storyboard Layer 1 (Fail)
//Storyboard Layer 2 (Pass)
//Storyboard Layer 3 (Foreground)
//Storyboard Sound Samples

[TimingPoints]
9601,324.324324324324,4,2,1,50,1,0
9763,-125,4,2,1,50,0,0
10898,-100,4,2,1,60,0,0
13492,-100,4,2,30,60,0,0
14628,-100,4,2,31,60,0,0
14952,-100,4,2,30,60,0,0
15276,-100,4,2,32,60,0,0
15600,-100,4,2,30,60,0,0
15763,-100,4,2,31,60,0,0
15925,-100,4,2,33,60,0,0
16087,-100,4,2,31,60,0,0
16573,-100,4,2,1,60,0,0
18682,-100,4,2,30,60,0,0
19817,-100,4,2,31,60,0,0
20141,-100,4,2,30,60,0,0
20465,-100,4,2,32,60,0,0
20790,-100,4,2,30,60,0,0
20952,-100,4,2,31,60,0,0
21114,-100,4,2,33,60,0,0
21276,-125,4,2,31,50,0,0
21763,-125,4,2,1,50,0,0
31655,-111.111111111111,4,2,1,55,0,0
42033,-133.333333333333,4,2,1,50,0,0
52411,-100,4,2,1,80,0,1
70573,-100,4,2,1,60,0,0
73168,-100,4,2,30,60,0,0
74303,-100,4,2,31,60,0,0
74628,-100,4,2,30,60,0,0
74952,-100,4,2,32,60,0,0
75276,-100,4,2,30,60,0,0
75438,-100,4,2,31,60,0,0
75600,-100,4,2,33,60,0,0
75763,-100,4,2,31,60,0,0
76249,-100,4,2,1,60,0,0
78357,-100,4,2,30,60,0,0
79492,-100,4,2,31,60,0,0
79817,-100,4,2,30,60,0,0
80141,-100,4,2,32,60,0,0
80465,-100,4,2,30,60,0,0
80628,-100,4,2,31,60,0,0
80790,-100,4,2,33,60,0,0
80952,-100,4,2,31,60,0,0
85134,352.941176470588,4,2,1,40,1,0
89369,-200,4,2,1,40,0,0
89634,-200,4,2,1,5,0,0
89722,-166.666666666667,4,2,1,45,0,0
89986,-166.666666666667,4,2,1,5,0,0
90075,-142.857142857143,4,2,1,50,0,0
90339,-142.857142857143,4,2,1,5,0,0
90428,-125,4,2,1,55,0,0
90692,-125,4,2,1,5,0,0
90781,-111.111111111111,4,2,1,55,0,0
91045,-111.111111111111,4,2,1,5,0,0
92192,-100,4,2,3,80,0,1
114781,-111.111111111111,4,2,54,50,0,0
115486,-111.111111111111,4,2,2,50,0,0
120251,-111.111111111111,4,2,54,50,0,0
121133,-111.111111111111,4,2,2,50,0,0
123075,-111.111111111111,4,2,54,50,0,0
123251,-111.111111111111,4,2,2,50,0,0
125192,-111.111111111111,4,2,54,50,0,0
125369,-111.111111111111,4,2,2,50,0,0
126075,-153.846153846153,4,2,54,30,0,0
131016,-133.333333333333,4,2,54,40,0,0
131722,-117.647058823529,4,2,1,50,0,0
132075,-117.647058823529,4,2,53,50,0,0
143527,359.281437125748,4,2,1,60,1,0
150802,-100,4,2,1,5,0,0
150892,-100,4,2,1,60,0,0
151431,-133.333333333333,4,2,1,50,0,0
152149,-111.111111111111,4,2,1,80,0,1
162928,-111.111111111111,4,2,19,80,0,1
163018,-111.111111111111,4,2,1,80,0,1
174425,-111.111111111111,4,2,19,80,0,1
174515,-111.111111111111,4,2,1,80,0,1
174784,-133.333333333333,4,2,1,80,0,1
175143,-100,4,2,1,70,0,0
192658,-100,4,2,1,5,0,0
192748,-100,4,2,1,70,0,0
196700,-100,4,2,1,60,0,0
197778,-100,4,2,1,40,0,0
202611,571.428571428571,4,2,1,50,1,0
207182,-100,4,2,1,60,0,0
207468,-100,4,2,53,60,0,0
216325,-100,4,2,1,60,0,0
216611,-100,4,2,53,60,0,0
225468,-100,4,2,1,60,0,0
225753,-100,4,2,53,60,0,0
234610,-100,4,2,1,60,0,0
234896,-100,4,2,53,60,0,0
243753,-111.111111111111,4,2,1,50,0,0
244039,-111.111111111111,4,2,53,50,0,0
252896,-111.111111111111,4,2,1,50,0,0
253182,-111.111111111111,4,2,53,50,0,0
255182,-111.111111111111,4,2,53,40,0,0
258724,468.75,4,2,1,60,1,0
261536,-125,4,2,1,60,0,0
262474,-100,4,2,1,70,0,1
292474,-100,4,2,1,60,0,0
312980,705.882352941176,4,2,20,50,1,0
317215,-100,4,2,21,50,0,0
317921,-100,4,2,20,50,0,0
318627,-100,4,2,24,50,0,0
319332,-100,4,2,20,50,0,0
320038,-100,4,2,25,50,0,0
320744,-100,4,2,25,50,0,0
321450,-100,4,2,26,50,0,0
322862,-100,4,2,27,50,0,0
323568,-100,4,2,28,50,0,0
324274,-100,4,2,29,50,0,0
325685,-100,4,2,24,50,0,0
327803,-100,4,2,20,50,0,0
328509,-100,4,2,21,50,0,0
329215,-100,4,2,20,50,0,0
329921,-100,4,2,22,50,0,0
330627,-100,4,2,23,50,0,0
331332,-100,4,2,20,50,0,0
334685,-100,4,2,1,60,0,0
335568,-66.6666666666667,4,2,1,70,0,1
355332,-66.6666666666667,4,2,1,60,0,0
366627,-66.6666666666667,4,2,1,20,0,0

[Colours]
Combo1 : 64,128,128
Combo2 : 255,128,128
Combo3 : 219,219,219

[HitObjects]
36,316,9763,5,8,0:0:0:0:
55,284,9844,1,8,0:0:0:0:
67,249,9925,1,8,0:0:0:0:
68,212,10006,1,2,0:1:0:0:
60,176,10087,2,0,P|52:148|44:128,1,37,2|2,0:1|0:1,0:0:0:0:
100,76,10249,5,8,0:0:0:0:
143,68,10330,1,8,0:0:0:0:
187,72,10411,1,8,0:0:0:0:
228,88,10492,1,2,0:1:0:0:
272,90,10573,1,2,0:1:0:0:
316,81,10655,1,2,0:1:0:0:
348,52,10736,2,0,P|360:32|368:12,1,37,8|8,0:0|0:0,0:0:0:0:
448,91,10898,6,0,P|412:147|478:262,1,185,4|0,0:0|0:0,0:0:0:0:
390,318,11384,2,0,P|336:308|288:320,1,92.5,8|0,0:0|0:0,0:0:0:0:
127,239,11709,2,0,P|171:228|217:236,1,92.5,2|2,1:2|1:2,0:0:0:0:
174,336,12033,1,8,0:0:0:0:
79,183,12195,6,0,P|172:157|266:179,1,185,2|0,0:0|0:0,0:0:0:0:
356,82,12682,2,0,L|344:173,1,92.5,8|0,0:0|0:0,0:0:0:0:
320,352,13006,1,2,1:2:0:0:
416,224,13168,1,2,1:2:0:0:
208,256,13330,1,8,0:0:0:0:
405,308,13492,6,0,L|428:124,1,185,12|0,0:0|0:0,0:0:0:0:
281,43,13979,2,0,P|225:34|176:54,1,92.5,8|0,0:0|0:0,0:0:0:0:
287,203,14303,2,0,P|318:170|331:126,1,92.5,8|0,0:0|0:0,0:0:0:0:
146,130,14628,2,0,P|159:173|191:206,1,92.5,8|0,0:0|0:0,0:0:0:0:
281,43,14952,2,0,P|225:34|176:54,1,92.5,8|0,0:0|0:0,0:0:0:0:
56,128,15276,2,0,P|112:119|161:139,1,92.5,8|0,0:0|0:0,0:0:0:0:
274,322,15600,5,10,0:1:0:0:
81,247,15763,1,10,0:1:0:0:
238,126,15925,1,10,0:1:0:0:
46,358,16087,6,0,P|19:283|5:150,1,185,12|0,0:0|0:0,0:0:0:0:
150,37,16573,2,0,P|154:75|143:135,1,92.5,8|0,0:0|0:0,0:0:0:0:
121,300,16898,2,0,P|107:258|99:209,1,92.5,2|2,1:2|1:2,0:0:0:0:
307,128,17222,1,8,0:0:0:0:
247,77,17384,2,0,P|237:163|325:205,1,185,2|0,0:0|0:0,0:0:0:0:
452,64,17871,2,0,L|353:70,1,92.5,8|0,0:0|0:0,0:0:0:0:
405,212,18195,2,0,L|504:218,1,92.5,2|2,1:2|1:2,0:0:0:0:
348,353,18519,1,8,0:0:0:0:
279,314,18682,6,0,P|354:274|426:348,1,185,12|0,0:0|0:0,0:0:0:0:
207,362,19168,2,0,P|193:319|202:274,1,92.5,8|0,0:0|0:0,0:0:0:0:
282,92,19492,2,0,P|297:136|287:181,1,92.5,8|0,0:0|0:0,0:0:0:0:
118,231,19817,2,0,P|149:196|192:180,1,92.5,8|0,0:0|0:0,0:0:0:0:
207,362,20141,2,0,P|193:319|202:274,1,92.5,8|0,0:0|0:0,0:0:0:0:
111,139,20465,2,0,P|155:149|190:179,1,92.5,8|0,0:0|0:0,0:0:0:0:
108,276,20790,6,0,L|119:231,1,46.25,10|0,0:1|0:0,0:0:0:0:
283,93,20952,2,0,L|238:105,1,46.25,10|0,0:1|0:0,0:0:0:0:
66,151,21114,2,0,L|110:138,1,46.25,10|0,0:1|0:0,0:0:0:0:
287,181,21276,6,0,L|433:139,1,148,12|0,0:0|0:0,0:0:0:0:
488,192,21763,1,8,0:0:0:0:
500,204,22411,1,8,0:0:0:0:
512,216,23060,1,8,0:0:0:0:
391,306,23384,1,0,0:0:0:0:
323,266,23546,2,0,P|365:232|419:233,1,111,8|0,0:0|0:0,0:0:0:0:
287,335,23871,6,0,P|243:301|148:341,1,148,4|0,0:0|0:0,0:0:0:0:
84,348,24357,1,8,0:0:0:0:
81,364,25006,1,8,0:0:0:0:
81,217,25168,2,0,L|241:219,1,148,0|0,0:0|0:0,0:0:0:0:
304,240,25655,1,8,0:0:0:0:
321,247,26303,1,8,0:0:0:0:
222,94,26465,6,0,P|149:120|71:68,1,148,4|0,0:0|0:0,0:0:0:0:
28,44,26952,1,8,0:0:0:0:
23,35,27600,1,8,0:0:0:0:
16,21,28249,1,8,0:0:0:0:
27,216,28573,1,0,0:0:0:0:
103,195,28736,2,0,P|44:139|1:141,1,111,8|0,0:0|0:0,0:0:0:0:
119,272,29060,6,0,P|165:243|168:152,1,148,4|0,0:0|0:0,0:0:0:0:
144,84,29546,1,8,0:0:0:0:
136,72,30195,1,8,0:0:0:0:
236,274,30357,2,0,P|257:204|241:126,1,148,0|0,0:0|0:0,0:0:0:0:
216,60,30844,1,8,0:0:0:0:
322,268,31168,2,0,P|329:243|333:211,1,37,8|8,0:0|0:0,0:0:0:0:
167,147,31330,2,0,P|160:172|156:204,1,37,8|8,0:0|0:0,0:0:0:0:
334,148,31492,2,0,P|329:130|324:113,1,37,8|8,0:0|0:0,0:0:0:0:
117,82,31655,6,0,P|86:160|83:242,1,166.499994918823,4|0,0:0|0:0,0:0:0:0:
233,303,32141,2,0,P|192:296|152:305,1,83.2499974594117,8|0,0:0|0:0,0:0:0:0:
41,355,32465,1,2,1:2:0:0:
151,305,32628,1,2,1:2:0:0:
1,244,32790,2,0,P|41:235|82:242,1,83.2499974594117,8|0,0:0|0:0,0:0:0:0:
233,303,33114,5,2,1:2:0:0:
192,189,33276,1,2,1:0:0:0:
391,123,33438,1,8,1:2:0:0:
313,216,33600,1,0,0:0:0:0:
272,102,33763,1,2,1:0:0:0:
432,237,33925,1,10,0:0:0:0:
192,189,34087,1,10,0:0:0:0:
432,237,34249,6,0,P|484:171|472:67,1,166.499994918823,4|0,0:0|0:0,0:0:0:0:
272,102,34736,2,0,P|274:152|293:190,1,83.2499974594117,8|0,0:0|0:0,0:0:0:0:
370,289,35060,2,0,P|395:256|431:237,1,83.2499974594117,0|10,1:0|0:0,0:0:0:0:
464,340,35384,1,10,0:0:0:0:
273,268,35546,6,0,P|182:250|102:272,1,166.499994918823,0|0,0:0|0:0,0:0:0:0:
24,120,36033,2,0,P|49:179|46:218,1,83.2499974594117,8|0,0:0|0:0,0:0:0:0:
42,347,36357,1,2,1:0:0:0:
153,168,36519,1,10,0:0:0:0:
0,270,36682,1,10,0:0:0:0:
243,192,36844,6,0,P|232:118|142:76,1,166.499994918823,4|0,0:0|0:0,0:0:0:0:
198,273,37330,2,0,P|251:284|303:266,1,83.2499974594117,8|0,0:0|0:0,0:0:0:0:
383,214,37655,1,2,1:2:0:0:
278,278,37817,1,2,1:2:0:0:
447,310,37979,2,0,P|407:299|367:305,1,83.2499974594117,8|0,0:0|0:0,0:0:0:0:
235,359,38303,5,2,1:2:0:0:
243,192,38465,1,2,1:0:0:0:
447,310,38628,1,8,1:2:0:0:
305,262,38790,1,0,1:0:0:0:
357,154,38952,1,0,0:0:0:0:
344,377,39114,1,10,0:0:0:0:
151,271,39276,1,10,0:0:0:0:
424,218,39438,6,0,P|435:104|380:64,1,166.499994918823,4|0,0:0|0:0,0:0:0:0:
276,152,39925,2,0,P|312:161|372:146,1,83.2499974594117,8|0,0:0|0:0,0:0:0:0:
224,58,40249,2,0,P|188:49|128:64,1,83.2499974594117,2|2,1:2|1:2,0:0:0:0:
81,233,40573,1,8,0:0:0:0:
154,174,40736,6,0,P|71:141|-4:192,1,166.499994918823,4|0,0:0|0:0,0:0:0:0:
41,317,41222,2,0,P|75:326|123:315,1,83.2499974594117,8|8,0:0|0:0,0:0:0:0:
121,315,41465,1,8,0:0:0:0:
121,315,41546,1,8,0:0:0:0:
287,171,41709,1,10,0:0:0:0:
81,233,41871,1,10,0:0:0:0:
289,285,42033,6,0,P|365:255|398:195,1,138.750005292893,4|0,0:0|0:0,0:0:0:0:
288,102,42519,2,0,P|283:135|292:190,1,69.3750026464463,2|2,1:2|1:2,0:0:0:0:
467,245,42844,2,0,P|472:212|463:157,1,69.3750026464463,8|0,0:0|0:0,0:0:0:0:
405,75,43168,1,0,0:0:0:0:
286,170,43330,2,0,P|253:175|198:166,1,69.3750026464463,8|0,0:0|0:0,0:0:0:0:
137,80,43655,2,0,P|171:74|205:78,1,69.3750026464463,8|2,0:0|1:0,0:0:0:0:
286,170,43979,1,2,1:0:0:0:
80,280,44141,1,8,0:0:0:0:
148,199,44303,1,10,0:0:0:0:
44,180,44465,1,10,0:0:0:0:
170,363,44628,6,0,P|233:370|331:373,1,138.750005292893,4|0,0:0|0:0,0:0:0:0:
423,301,45114,2,0,L|427:212,1,69.3750026464463,2|2,1:0|1:0,0:0:0:0:
254,142,45438,2,0,L|258:231,1,69.3750026464463,10|0,0:0|0:0,0:0:0:0:
291,349,45763,1,0,0:0:0:0:
176,121,45925,2,0,L|180:210,1,69.3750026464463,10|0,0:0|0:0,0:0:0:0:
99,100,46249,2,0,L|103:189,1,69.3750026464463,10|2,0:0|1:0,0:0:0:0:
158,325,46573,1,2,1:0:0:0:
332,233,46736,1,10,0:0:0:0:
244,280,46898,1,10,0:0:0:0:
328,332,47060,1,10,0:0:0:0:
401,149,47222,6,0,P|339:127|251:162,1,138.750005292893,4|0,0:0|0:0,0:0:0:0:
267,252,47709,2,0,P|301:249|343:221,1,69.3750026464463,2|2,1:0|1:0,0:0:0:0:
249,72,48033,2,0,P|219:90|199:118,1,69.3750026464463,10|0,0:0|0:0,0:0:0:0:
149,230,48357,1,0,0:0:0:0:
178,31,48519,2,0,P|152:53|134:86,1,69.3750026464463,10|0,0:0|0:0,0:0:0:0:
92,10,48844,2,0,P|72:39|59:73,1,69.3750026464463,10|2,0:0|1:0,0:0:0:0:
28,210,49168,1,2,1:0:0:0:
208,324,49330,1,8,0:0:0:0:
144,244,49492,1,10,0:0:0:0:
104,340,49655,1,10,0:0:0:0:
228,210,49817,6,0,P|295:208|380:212,1,138.750005292893,4|0,0:0|0:0,0:0:0:0:
421,337,50303,2,0,P|433:304|440:270,1,69.3750026464463,10|0,0:0|0:0,0:0:0:0:
434,109,50628,1,2,1:0:0:0:
366,210,50790,1,2,1:0:0:0:
512,299,50952,2,0,P|512:264|507:230,1,69.3750026464463,10|0,0:0|0:0,0:0:0:0:
434,109,51276,5,8,0:0:0:0:
399,104,51357,1,8,0:0:0:0:
364,105,51438,1,8,0:0:0:0:
321,120,51519,1,2,1:0:0:0:
277,130,51600,2,0,P|249:130|221:126,1,34.6875013232232,2|2,1:0|1:0,0:0:0:0:
156,72,51763,5,8,0:0:0:0:
108,60,51844,1,8,0:0:0:0:
61,76,51926,1,8,0:0:0:0:
36,117,52006,1,2,1:0:0:0:
36,164,52087,2,0,L|40:212,1,34.6875013232232,2|2,1:0|1:0,0:0:0:0:
152,236,52249,2,0,L|154:201,1,34.6875013232232,8|8,0:0|0:0,0:0:0:0:
277,130,52411,6,0,P|328:120|384:136,1,92.5,4|0,0:0|0:0,0:0:0:0:
464,248,52736,1,0,0:0:0:0:
496,168,52898,2,0,P|409:180|380:264,1,185,8|0,0:0|1:0,0:0:0:0:
444,352,53384,1,0,1:0:0:0:
464,248,53546,1,8,0:0:0:0:
300,284,53709,6,0,P|196:276|108:284,1,185,0|2,0:0|1:0,0:0:0:0:
40,208,54195,2,0,L|48:112,1,92.5,8|0,0:0|0:0,0:0:0:0:
187,164,54519,1,2,1:0:0:0:
142,67,54682,1,2,1:0:0:0:
47,223,54844,1,8,0:0:0:0:
270,204,55006,6,0,P|278:158|264:114,1,92.5,4|0,0:0|0:0,0:0:0:0:
142,67,55330,1,2,1:0:0:0:
187,164,55492,1,8,0:0:0:0:
343,76,55655,2,0,P|311:42|268:27,1,92.5,0|0,0:0|0:0,0:0:0:0:
395,144,55979,2,0,P|438:130|484:138,1,92.5,2|8,1:0|0:0,0:0:0:0:
435,316,56303,6,0,B|331:348|359:268|235:312,1,185,4|2,0:0|1:0,0:0:0:0:
132,178,56790,5,10,0:0:0:0:
33,327,56952,1,2,1:0:0:0:
236,204,57114,1,10,0:0:0:0:
29,151,57276,1,2,1:0:0:0:
147,355,57438,1,10,0:0:0:0:
328,197,57600,6,0,P|310:149|266:117,1,92.5,4|0,0:0|0:0,0:0:0:0:
236,204,57925,1,2,1:0:0:0:
418,219,58087,2,0,P|389:105|326:46,1,185,8|2,0:0|1:0,0:0:0:0:
189,121,58573,1,2,1:0:0:0:
242,27,58736,1,8,0:0:0:0:
328,197,58898,6,0,P|320:243|182:278,1,185,0|2,0:0|1:0,0:0:0:0:
150,182,59384,2,0,P|223:193|251:223,1,92.5,8|0,0:0|0:0,0:0:0:0:
139,355,59709,1,2,1:0:0:0:
117,267,59871,1,2,1:0:0:0:
235,203,60033,1,8,0:0:0:0:
27,97,60195,6,0,L|17:221,1,92.5,4|0,0:0|0:0,0:0:0:0:
117,267,60519,1,2,1:0:0:0:
13,296,60682,1,8,0:0:0:0:
133,69,60844,2,0,L|123:193,1,92.5,0|2,1:0|1:0,0:0:0:0:
244,21,61168,2,0,L|254:145,1,92.5,2|8,1:0|0:0,0:0:0:0:
375,219,61492,2,0,P|292:187|220:239,1,185,4|2,0:0|1:0,0:0:0:0:
125,161,61979,5,10,0:0:0:0:
147,351,62141,1,2,1:0:0:0:
2,215,62303,1,10,0:0:0:0:
220,239,62465,1,8,0:0:0:0:
265,245,62546,1,8,0:0:0:0:
297,277,62627,1,8,0:0:0:0:
305,321,62708,1,8,0:0:0:0:
296,367,62790,6,0,P|376:361|393:261,1,185,4|2,0:0|1:0,0:0:0:0:
287,158,63276,2,0,P|264:218|271:271,1,92.5,8|0,0:0|0:0,0:0:0:0:
394,165,63600,1,2,1:0:0:0:
306,66,63763,2,0,P|242:76|200:108,1,92.5,2|8,1:0|0:0,0:0:0:0:
81,142,64087,6,0,P|153:143|174:248,1,185,0|2,0:0|1:0,0:0:0:0:
35,329,64573,2,0,P|78:316|123:328,1,92.5,8|0,0:0|0:0,0:0:0:0:
218,375,64898,1,2,1:0:0:0:
117,204,65060,1,2,1:0:0:0:
35,329,65222,1,8,0:0:0:0:
259,270,65384,6,0,P|272:226|272:180,1,92.5,4|0,0:0|0:0,0:0:0:0:
205,81,65709,1,2,1:0:0:0:
117,204,65871,1,8,0:0:0:0:
33,77,66033,2,0,P|77:88|118:111,1,92.5,0|0,0:0|0:0,0:0:0:0:
295,67,66357,2,0,P|248:67|204:80,1,92.5,2|8,1:0|0:0,0:0:0:0:
375,229,66682,2,0,L|391:39,1,185,4|2,0:0|1:0,0:0:0:0:
264,184,67168,5,10,0:0:0:0:
436,108,67330,1,2,1:0:0:0:
409,294,67492,1,10,0:0:0:0:
320,76,67655,1,2,1:0:0:0:
500,212,67817,1,10,0:0:0:0:
304,282,67979,6,0,P|224:266|107:292,1,185,4|2,0:0|1:0,0:0:0:0:
30,135,68465,2,0,P|29:182|34:228,1,92.5,8|0,0:0|0:0,0:0:0:0:
116,48,68790,1,2,1:0:0:0:
232,164,68952,2,0,P|175:169|127:166,1,92.5,2|8,1:0|0:0,0:0:0:0:
322,78,69276,6,0,P|350:140|304:266,1,185,6|2,0:0|1:0,0:0:0:0:
139,167,69763,2,0,P|196:162|244:165,1,92.5,8|2,0:0|1:0,0:0:0:0:
210,319,70087,1,8,0:0:0:0:
183,281,70168,1,8,0:0:0:0:
144,258,70249,1,8,0:0:0:0:
98,254,70330,1,8,0:0:0:0:
55,269,70411,1,8,0:0:0:0:
13,247,70492,1,8,0:0:0:0:
6,201,70573,6,0,P|16:106|39:7,1,185,4|0,0:0|0:0,0:0:0:0:
228,54,71060,2,0,P|181:50|135:55,1,92.5,8|0,0:0|0:0,0:0:0:0:
236,160,71384,2,0,P|290:141|322:103,1,92.5,2|2,1:2|1:2,0:0:0:0:
228,54,71709,1,8,0:0:0:0:
167,227,71871,6,0,P|233:238|352:193,1,185,2|0,0:0|0:0,0:0:0:0:
451,99,72357,2,0,P|435:155|446:210,1,92.5,8|0,0:0|0:0,0:0:0:0:
388,362,72682,2,0,P|403:318|401:273,1,92.5,2|2,1:2|1:2,0:0:0:0:
342,200,73006,1,8,0:0:0:0:
150,305,73168,2,0,P|232:268|313:308,1,185,12|0,0:0|0:0,0:0:0:0:
98,236,73655,6,0,P|150:204|205:193,1,92.5,8|0,0:0|0:0,0:0:0:0:
296,33,73979,2,0,P|298:94|280:147,1,92.5,8|0,0:0|0:0,0:0:0:0:
373,306,74303,2,0,P|319:277|282:235,1,92.5,8|0,0:0|0:0,0:0:0:0:
98,236,74628,2,0,P|150:204|205:193,1,92.5,8|0,0:0|0:0,0:0:0:0:
332,195,74952,2,0,P|375:210|414:236,1,92.5,8|0,0:0|0:0,0:0:0:0:
182,303,75276,1,10,0:1:0:0:
290,124,75438,1,10,0:1:0:0:
422,356,75600,1,10,0:1:0:0:
221,198,75763,6,0,P|190:131|250:32,1,185,12|0,0:0|0:0,0:0:0:0:
381,124,76249,2,0,P|327:118|257:134,1,92.5,8|0,0:0|0:0,0:0:0:0:
129,198,76573,2,0,P|183:192|253:208,1,92.5,2|2,1:2|1:2,0:0:0:0:
376,304,76898,1,8,0:0:0:0:
336,208,77060,2,0,P|272:296|292:368,1,185,2|0,0:0|0:0,0:0:0:0:
466,279,77546,2,0,P|472:228|460:176,1,92.5,8|0,0:0|0:0,0:0:0:0:
405,82,77871,2,0,P|359:76|313:81,1,92.5,2|2,1:2|1:2,0:0:0:0:
141,140,78195,1,8,0:0:0:0:
200,51,78357,6,0,P|242:108|205:227,1,185,12|0,0:0|0:0,0:0:0:0:
56,290,78844,2,0,P|98:272|144:273,1,92.5,8|0,0:0|0:0,0:0:0:0:
315,343,79168,2,0,P|244:362|202:350,1,92.5,8|0,0:0|0:0,0:0:0:0:
134,183,79492,2,0,P|204:202|235:233,1,92.5,8|0,0:0|0:0,0:0:0:0:
56,290,79817,2,0,P|98:272|144:273,1,92.5,8|0,0:0|0:0,0:0:0:0:
287,154,80141,2,0,P|246:175|218:212,1,92.5,8|0,0:0|0:0,0:0:0:0:
75,215,80465,5,10,0:1:0:0:
115,236,80546,1,2,0:1:0:0:
143,273,80627,1,10,0:1:0:0:
6,157,80790,5,10,0:1:0:0:
47,179,80871,1,2,0:1:0:0:
75,215,80952,1,12,0:0:0:0:
396,112,89369,6,0,P|430:107|460:91,1,69.375,0|0,1:0|0:0,0:0:0:0:
463,186,89722,6,0,P|480:223|508:253,1,83.2499974594117,0|0,1:0|0:0,0:0:0:0:
412,274,90075,6,0,P|376:306|352:348,1,97.1249970359803,0|0,1:0|0:0,0:0:0:0:
312,254,90428,6,0,P|264:226|210:213,1,111,0|0,1:0|3:0,0:0:0:0:
302,152,90781,6,0,P|315:91|311:29,1,124.874996189118,0|0,1:0|3:0,0:0:0:0:
311,29,92192,6,0,P|266:19|221:31,1,92.5,6|2,0:0|0:1,0:0:0:0:
124,94,92545,1,2,0:1:0:0:
150,293,92722,2,0,P|166:250|162:204,1,92.5,4|2,1:2|1:0,0:0:0:0:
124,94,93075,1,2,0:1:0:0:
276,226,93251,1,4,0:0:0:0:
68,237,93428,1,2,0:1:0:0:
267,114,93604,6,0,L|359:109,1,92.5,4|2,1:2|0:1,0:0:0:0:
461,64,93957,1,2,0:1:0:0:
512,258,94134,2,0,L|507:165,1,92.5,4|2,1:2|0:1,0:0:0:0:
461,64,94486,1,2,0:1:0:0:
360,236,94663,1,4,0:0:0:0:
277,43,94839,1,2,0:1:0:0:
267,53,94928,1,2,0:1:0:0:
258,64,95016,6,0,P|214:77|168:73,2,92.5,4|2|2,0:0|0:1|0:1,0:0:0:0:
360,236,95545,2,0,P|369:191|396:153,2,92.5,4|2|2,1:2|0:1|0:1,0:0:0:0:
160,237,96075,2,0,P|193:268|213:309,1,92.5,4|2,1:2|0:1,0:0:0:0:
79,202,96428,6,0,P|106:164|124:122,1,92.5,4|2,1:2|0:1,0:0:0:0:
141,15,96781,1,2,0:1:0:0:
160,237,96957,2,0,P|202:218|238:190,1,92.5,4|2,1:2|0:1,0:0:0:0:
319,114,97310,1,2,0:1:0:0:
213,309,97486,1,4,0:0:0:0:
197,126,97663,1,2,0:1:0:0:
412,268,97839,6,0,L|319:265,1,92.5,4|2,1:2|0:1,0:0:0:0:
238,189,98192,1,2,0:1:0:0:
412,112,98369,2,0,L|319:115,1,92.5,4|2,1:2|0:1,0:0:0:0:
238,189,98722,1,2,0:1:0:0:
317,19,98898,1,4,0:0:0:0:
346,188,99075,1,2,0:1:0:0:
215,42,99251,6,0,P|169:42|126:58,1,92.5,4|2,1:2|0:1,0:0:0:0:
52,141,99604,1,2,0:1:0:0:
146,310,99781,2,0,P|105:287|76:252,1,92.5,4|2,1:2|0:1,0:0:0:0:
52,141,100133,1,2,0:1:0:0:
238,190,100310,1,4,0:0:0:0:
126,58,100486,1,2,0:1:0:0:
127,71,100575,1,2,0:1:0:0:
128,84,100663,6,0,L|137:176,2,92.5,4|2|2,1:2|0:1|0:1,0:0:0:0:
313,136,101192,2,0,L|237:189,2,92.5,4|2|0,1:2|0:1|0:1,0:0:0:0:
360,322,101722,2,0,L|275:283,1,92.5,4|2,1:2|0:1,0:0:0:0:
228,97,102075,6,0,L|312:135,1,92.5,4|2,1:2|0:1,0:0:0:0:
403,199,102428,1,2,0:1:0:0:
354,38,102604,1,4,0:0:0:0:
229,211,102781,1,8,3:0:0:0:
202,229,102869,1,8,3:0:0:0:
171,239,102957,1,8,3:0:0:0:
139,239,103045,1,8,3:0:0:0:
108,230,103133,6,0,L|69:204,1,46.25,4|0,3:0|3:0,0:0:0:0:
156,79,103310,2,0,L|153:125,1,46.25,4|0,3:0|3:0,0:0:0:0:
2,113,103486,6,0,L|84:70,1,92.5,4|2,1:2|0:1,0:0:0:0:
177,10,103839,1,2,0:1:0:0:
248,206,104016,2,0,L|221:117,1,92.5,4|2,1:2|0:1,0:0:0:0:
177,10,104369,1,2,0:1:0:0:
69,204,104545,1,4,0:0:0:0:
156,79,104722,1,2,0:1:0:0:
12,253,104898,6,0,P|50:277|95:275,1,92.5,4|2,1:2|0:1,0:0:0:0:
196,228,105251,1,2,0:1:0:0:
311,378,105428,2,0,P|312:333|288:294,1,92.5,4|2,1:2|0:1,0:0:0:0:
196,228,105781,1,2,0:1:0:0:
269,54,105957,1,8,0:0:0:0:
288,223,106133,1,2,0:1:0:0:
113,107,106310,6,0,L|205:111,2,92.5,4|2|2,1:2|0:1|0:1,0:0:0:0:
288,223,106839,2,0,L|196:227,2,92.5,4|2|2,1:2|0:1|0:1,0:0:0:0:
113,339,107369,2,0,L|205:343,1,92.5,4|2,0:2|0:1,0:0:0:0:
375,183,107722,6,0,P|383:229|370:272,1,92.5,4|2,1:2|0:1,0:0:0:0:
276,333,108075,1,2,0:1:0:0:
221,163,108251,2,0,P|261:184|287:222,1,92.5,4|2,1:2|0:1,0:0:0:0:
276,333,108604,1,2,0:1:0:0:
109,272,108781,1,4,1:2:0:0:
287,222,108957,1,2,0:1:0:0:
112,350,109133,6,0,P|68:341|40:305,1,92.5,4|2,1:2|0:1,0:0:0:0:
23,197,109486,1,2,0:1:0:0:
114,44,109663,2,0,P|69:52|39:86,1,92.5,4|2,1:2|0:1,0:0:0:0:
23,197,110016,1,2,0:1:0:0:
221,163,110192,1,4,1:2:0:0:
109,272,110369,1,2,0:1:0:0:
122,270,110457,1,2,0:1:0:0:
135,268,110545,6,0,P|181:265|226:272,1,92.5,4|2,1:2|0:1,0:0:0:0:
333,312,110898,1,2,0:1:0:0:
307,119,111075,2,0,P|325:161|334:206,1,92.5,4|2,1:2|0:1,0:0:0:0:
333,312,111428,1,2,0:1:0:0:
221,163,111604,1,4,1:2:0:0:
273,364,111781,1,2,0:1:0:0:
422,218,111957,6,0,P|378:202|333:206,2,92.5,4|2|2,1:2|0:1|0:1,0:0:0:0:
166,234,112486,2,0,P|201:204|220:162,2,92.5,4|2|2,1:2|0:1|0:1,0:0:0:0:
280,4,113016,2,0,P|287:49|314:86,1,92.5,4|2,1:2|0:1,0:0:0:0:
421,218,113369,5,8,3:0:0:0:
390,210,113457,1,8,3:0:0:0:
358,213,113545,1,8,3:0:0:0:
328,225,113633,1,8,3:0:0:0:
304,246,113722,5,4,3:0:0:0:
309,222,113810,1,8,3:0:0:0:
306,199,113898,1,4,3:0:0:0:
298,178,113986,1,8,3:0:0:0:
283,161,114075,5,8,0:0:0:0:
81,21,114251,1,2,0:1:0:0:
296,22,114428,5,8,0:0:0:0:
94,162,114604,1,2,0:1:0:0:
256,298,114781,6,0,P|307:236|282:160,1,166.499994918823,6|0,1:0|0:0,0:0:0:0:
182,73,115310,1,0,0:0:0:0:
61,245,115486,2,0,L|225:221,1,166.499994918823,10|0,1:2|0:0,0:0:0:0:
94,162,116016,1,0,0:0:0:0:
256,298,116192,6,0,L|92:322,1,166.499994918823,2|0,1:2|0:0,0:0:0:0:
225,220,116722,1,0,0:0:0:0:
382,352,116898,2,0,P|304:362|256:299,1,166.499994918823,10|0,1:2|0:0,0:0:0:0:
282,160,117428,1,0,0:0:0:0:
46,179,117604,6,0,P|107:231|188:225,1,166.499994918823,2|0,1:2|0:0,0:0:0:0:
141,128,118133,1,0,0:0:0:0:
29,307,118310,2,0,L|195:305,1,166.499994918823,10|0,1:2|0:0,0:0:0:0:
309,230,118839,1,0,0:0:0:0:
471,368,119016,5,2,0:0:0:0:
433,170,119192,1,8,1:2:0:0:
348,305,119369,2,0,P|307:314|267:305,1,83.2499974594117,0|0,0:0|0:0,0:0:0:0:
155,142,119722,2,0,L|238:140,1,83.2499974594117,10|0,1:2|0:0,0:0:0:0:
309,230,120075,1,0,0:0:0:0:
208,57,120251,1,2,0:1:0:0:
187,57,120339,1,2,0:1:0:0:
166,57,120428,6,0,P|91:85|73:163,1,166.499994918823,6|0,1:1|0:0,0:0:0:0:
109,292,120957,1,0,0:0:0:0:
322,212,121133,2,0,L|155:215,1,166.499994918823,10|0,1:2|0:0,0:0:0:0:
232,325,121663,1,0,0:0:0:0:
375,128,121839,6,0,P|419:195|397:272,1,166.499994918823,2|0,1:2|0:0,0:0:0:0:
270,213,122369,1,0,0:0:0:0:
141,56,122545,2,0,L|307:47,1,166.499994918823,10|0,1:2|0:0,0:0:0:0:
222,158,123075,1,2,0:1:0:0:
201,160,123163,1,2,0:1:0:0:
179,161,123251,6,0,P|139:230|164:307,1,166.499994918823,2|0,1:2|0:0,0:0:0:0:
277,382,123781,1,0,0:0:0:0:
400,209,123957,2,0,L|237:241,1,166.499994918823,10|0,1:2|0:0,0:0:0:0:
206,371,124486,1,0,0:0:0:0:
43,300,124663,5,2,1:2:0:0:
237,241,124839,1,8,0:0:0:0:
116,364,125016,1,0,0:0:0:0:
44,190,125192,1,2,0:1:0:0:
51,170,125281,1,2,0:1:0:0:
59,150,125369,1,8,1:2:0:0:
205,18,125545,1,8,1:2:0:0:
179,96,125722,1,8,3:0:0:0:
153,175,125898,1,8,3:0:0:0:
251,255,126075,5,6,0:0:0:0:
251,255,126428,2,0,P|308:241|366:257,2,120.249994495392,0|0|0,0:0|0:0|0:0,0:0:0:0:
185,298,127310,6,0,P|105:266|105:181,1,180.374991743088,2|0,0:0|0:0,0:0:0:0:
164,130,128016,2,0,B|208:114|252:130|252:130|296:146|340:130,1,180.374991743088,0|0,0:0|0:0,0:0:0:0:
406,86,128722,1,0,0:0:0:0:
406,86,128898,6,0,P|415:114|416:144,1,60.1249972476961,2|0,0:0|0:0,0:0:0:0:
400,219,129251,2,0,P|335:279|248:271,1,180.374991743088,0|0,0:0|0:0,0:0:0:0:
118,260,130133,2,0,P|111:202|145:155,1,120.249994495392,2|0,0:0|0:0,0:0:0:0:
213,119,130663,6,0,L|274:122,1,60.1249972476961,0|0,0:0|0:0,0:0:0:0:
173,46,131016,2,0,L|207:43,2,34.6875013232232,0|0|0,3:0|3:0|3:0,3:0:0:0:
102,75,131369,1,0,0:0:0:0:
72,145,131545,1,0,0:0:0:0:
118,260,131722,6,0,P|191:237|259:271,1,157.250002999306,6|10,0:0|0:0,0:0:0:0:
307,353,132251,1,10,0:0:0:0:
432,272,132428,2,0,L|353:272,1,78.6250014996529,4|0,0:0|0:0,0:0:0:0:
298,194,132781,1,10,0:0:0:0:
298,194,132957,6,0,P|250:133|263:58,1,157.250002999306,2|2,0:0|0:0,0:0:0:0:
346,110,133486,2,0,L|424:112,1,78.6250014996529,10|0,0:0|0:0,0:0:0:0:
263,58,133839,2,0,L|184:60,1,78.6250014996529,4|0,0:0|0:0,0:0:0:0:
108,116,134192,1,0,0:0:0:0:
116,210,134369,1,8,0:0:0:0:
116,210,134457,1,8,0:0:0:0:
116,210,134545,6,0,P|137:244|143:283,1,78.6250014996529,10|0,0:0|0:0,0:0:0:0:
100,367,134898,1,10,0:0:0:0:
100,367,135075,1,10,0:0:0:0:
22,241,135251,2,0,P|19:201|29:164,1,78.6250014996529,4|0,0:0|0:0,0:0:0:0:
90,90,135604,1,10,0:0:0:0:
90,90,135781,2,0,L|168:88,1,78.6250014996529,10|0,0:0|0:0,0:0:0:0:
310,141,136133,5,8,0:0:0:0:
217,168,136310,1,8,0:0:0:0:
217,168,136486,1,8,0:0:0:0:
295,39,136663,2,0,L|371:56,1,78.6250014996529,6|0,0:0|0:0,0:0:0:0:
488,151,137016,1,12,0:0:0:0:
469,3,137192,1,12,0:0:0:0:
410,184,137369,6,0,P|372:250|297:260,1,157.250002999306,6|10,0:1|0:0,0:0:0:0:
213,216,137898,1,10,0:0:0:0:
279,344,138075,2,0,L|357:343,1,78.6250014996529,4|0,0:0|0:0,0:0:0:0:
446,376,138428,1,10,0:0:0:0:
445,376,138604,2,0,P|452:337|442:300,1,78.6250014996529,10|0,0:0|0:0,0:0:0:0:
404,213,138957,5,2,0:0:0:0:
404,213,139133,2,0,L|326:222,1,78.6250014996529,8|0,0:0|0:0,0:0:0:0:
217,119,139486,2,0,L|373:137,1,157.250002999306,4|0,0:0|0:0,0:0:0:0:
461,101,140016,1,8,0:0:0:0:
461,101,140104,1,8,0:0:0:0:
461,101,140192,1,10,0:0:0:0:
112,272,145503,6,0,B|152:278|182:269|182:269|217:288|217:288|250:277|292:284,1,185,4|0,0:0|0:0,0:0:0:0:
405,172,146041,1,8,0:0:0:0:
396,202,146131,1,8,0:0:0:0:
388,234,146221,1,8,0:0:0:0:
485,150,146401,6,0,P|419:92|338:126,1,185,6|8,0:0|0:0,0:0:0:0:
290,284,146940,1,0,0:0:0:0:
405,172,147119,1,2,0:1:0:0:
230,208,147299,2,0,L|138:192,1,92.5,2|8,0:0|0:0,0:0:0:0:
247,195,147658,1,2,0:0:0:0:
98,265,147838,6,0,P|56:188|107:116,1,185,2|8,0:0|0:0,0:0:0:0:
246,106,148377,1,2,0:0:0:0:
138,192,148556,1,2,0:1:0:0:
170,36,148736,1,2,0:1:0:0:
247,195,148916,2,0,L|338:210,1,92.5,8|2,0:0|0:0,0:0:0:0:
489,83,149275,5,6,0:0:0:0:
363,110,149455,1,2,0:0:0:0:
363,110,149544,1,2,0:0:0:0:
363,110,149634,1,2,0:1:0:0:
497,178,149814,1,2,0:0:0:0:
338,210,149994,1,2,0:1:0:0:
503,269,150173,1,2,0:0:0:0:
339,313,150353,1,2,0:1:0:0:
202,210,150532,6,0,B|249:195|249:195|337:209,1,138.75,6|0,0:0|0:0,0:0:0:0:
337,209,150892,1,6,0:0:0:0:
123,53,151071,1,6,0:0:0:0:
123,331,151431,6,0,P|132:298|114:250,2,69.3750026464463,2|2|2,0:0|0:0|0:0,0:0:0:0:
137,350,152149,6,0,B|173:263|108:263|136:188,1,166.499994918823,6|8,0:0|0:0,0:0:0:0:
286,202,152688,1,2,0:0:0:0:
286,202,152778,1,2,0:0:0:0:
286,202,152868,2,0,P|249:221|208:222,1,83.2499974594117,2|2,0:1|0:0,0:0:0:0:
288,104,153227,1,8,0:0:0:0:
426,147,153407,1,2,0:0:0:0:
229,147,153586,6,0,P|228:61|307:34,1,166.499994918823,2|8,0:0|0:0,0:0:0:0:
362,222,154125,2,0,P|321:220|285:201,1,83.2499974594117,2|2,0:0|0:1,0:0:0:0:
438,141,154485,1,2,0:0:0:0:
428,276,154664,2,0,P|394:301|353:306,1,83.2499974594117,8|2,0:0|0:0,0:0:0:0:
199,215,155024,6,0,B|227:222|258:212|258:212|292:225|292:225|320:215|362:222,1,166.499994918823,2|8,0:0|0:0,0:0:0:0:
222,135,155562,1,2,0:0:0:0:
190,316,155742,2,0,L|176:235,1,83.2499974594117,2|2,0:1|0:0,0:0:0:0:
280,72,156101,1,8,0:0:0:0:
175,233,156281,1,2,0:0:0:0:
323,145,156461,5,2,0:1:0:0:
132,143,156640,1,2,0:0:0:0:
346,153,156820,2,0,L|428:139,1,83.2499974594117,8|0,0:0|0:0,0:0:0:0:
171,69,157179,5,2,0:1:0:0:
274,211,157359,1,0,0:0:0:0:
132,143,157538,2,0,L|49:131,1,83.2499974594117,8|0,0:0|0:0,0:0:0:0:
14,149,157808,1,2,0:1:0:0:
14,149,157898,6,0,B|12:188|-11:210|-11:210|29:246|17:321,1,166.499994918823,2|8,0:0|0:0,0:0:0:0:
121,363,158437,1,2,0:0:0:0:
121,363,158526,1,2,0:0:0:0:
121,363,158616,2,0,L|204:369,1,83.2499974594117,2|2,0:1|0:0,0:0:0:0:
104,250,158976,1,8,0:0:0:0:
290,337,159155,1,2,0:0:0:0:
197,208,159335,6,0,B|173:279|233:289|205:369,1,166.499994918823,2|8,0:0|0:0,0:0:0:0:
275,245,159874,1,2,0:0:0:0:
275,245,159964,1,2,0:0:0:0:
275,245,160053,1,2,0:1:0:0:
135,330,160233,1,2,0:0:0:0:
183,180,160413,2,0,P|188:138|173:100,1,83.2499974594117,8|2,0:0|0:0,0:0:0:0:
84,249,160772,6,0,L|250:266,1,166.499994918823,2|8,0:0|0:0,0:0:0:0:
500,206,161311,2,0,L|416:210,1,83.2499974594117,2|2,0:0|0:1,0:0:0:0:
375,42,161670,1,2,0:0:0:0:
241,137,161850,2,0,L|324:141,1,83.2499974594117,8|2,0:0|0:0,0:0:0:0:
486,225,162209,5,2,0:1:0:0:
339,281,162389,1,2,0:0:0:0:
477,383,162568,2,0,L|438:309,1,83.2499974594117,4|0,0:0|0:0,0:0:0:0:
324,141,162928,5,10,0:0:0:0:
297,156,163018,1,2,0:1:0:0:
266,159,163107,1,2,0:1:0:0:
237,149,163197,1,2,0:1:0:0:
199,116,163287,5,2,0:1:0:0:
159,85,163377,1,2,0:1:0:0:
108,85,163467,1,2,0:1:0:0:
67,115,163556,1,2,0:1:0:0:
41,164,163646,6,0,B|46:203|36:227|36:227|54:260|54:260|43:289|54:324,1,166.499994918823,6|8,0:0|0:0,0:0:0:0:
207,301,164185,1,2,0:0:0:0:
207,301,164275,1,2,0:0:0:0:
207,301,164365,2,0,L|123:295,1,83.2499974594117,2|2,0:1|0:0,0:0:0:0:
271,179,164724,1,8,0:0:0:0:
374,296,164904,1,2,0:0:0:0:
297,101,165083,6,0,P|219:114|189:188,1,166.499994918823,2|8,0:0|0:0,0:0:0:0:
232,353,165622,1,2,0:0:0:0:
232,353,165712,1,2,0:0:0:0:
232,353,165802,1,2,0:1:0:0:
271,179,165982,1,0,0:0:0:0:
232,353,166161,1,8,0:0:0:0:
168,161,166341,1,2,0:0:0:0:
349,232,166521,6,0,P|389:241|429:233,1,83.2499974594117,2|2,0:1|0:0,0:0:0:0:
422,84,166880,6,0,B|389:45|389:45|374:101|389:160,1,166.499994918823,6|2,0:0|0:1,0:0:0:0:
438,263,167419,1,2,0:0:0:0:
349,110,167598,6,0,B|313:114|280:103|280:103|249:117|249:117|228:104|186:107,1,166.499994918823,6|2,0:0|0:1,0:0:0:0:
224,29,168137,1,2,0:0:0:0:
300,181,168317,6,0,B|286:243|286:243|294:287|294:287|280:343,1,166.499994918823,6|2,0:0|0:1,0:0:0:0:
375,247,168856,1,2,0:0:0:0:
168,313,169035,6,0,L|251:333,1,83.2499974594117,6|0,0:0|0:0,0:0:0:0:
282,345,169305,1,2,0:1:0:0:
282,345,169395,6,0,B|278:302|306:270|306:270|280:230|302:181,1,166.499994918823,6|8,0:0|0:0,0:0:0:0:
369,337,169934,1,2,0:0:0:0:
369,337,170024,1,2,0:0:0:0:
369,337,170113,1,2,0:1:0:0:
211,271,170293,1,2,0:0:0:0:
374,225,170473,1,8,0:0:0:0:
221,158,170652,1,2,0:0:0:0:
373,225,170832,6,0,P|390:146|342:81,1,166.499994918823,2|8,0:0|0:0,0:0:0:0:
221,158,171371,2,0,L|303:165,1,83.2499974594117,2|2,0:0|0:1,0:0:0:0:
172,63,171730,1,2,0:0:0:0:
128,194,171910,2,0,L|45:201,1,83.2499974594117,8|2,0:0|0:0,0:0:0:0:
171,288,172269,6,0,P|252:254|311:311,1,166.499994918823,2|8,0:0|0:0,0:0:0:0:
243,338,172808,1,2,0:0:0:0:
243,338,172898,1,2,0:0:0:0:
243,338,172988,1,2,0:1:0:0:
148,204,173167,1,2,0:0:0:0:
331,220,173347,1,8,0:0:0:0:
171,288,173526,1,2,0:0:0:0:
250,128,173706,5,2,0:1:0:0:
243,338,173886,1,8,0:0:0:0:
98,187,174065,1,4,0:0:0:0:
313,245,174245,1,2,0:0:0:0:
125,159,174425,5,10,0:0:0:0:
75,153,174515,1,2,0:1:0:0:
54,199,174604,1,2,0:1:0:0:
92,233,174694,1,2,0:1:0:0:
135,205,174784,2,0,B|156:152|114:154|133:105,1,104.06250396967,6|0,0:0|0:0,0:0:0:0:
150,78,175143,6,0,B|186:79|221:63|221:63|261:73|261:73|289:57|330:63,1,185,6|8,0:0|0:0,0:0:0:0:
313,231,175682,1,2,0:0:0:0:
313,231,175772,1,2,0:0:0:0:
313,231,175862,2,0,P|299:187|310:143,1,92.5,2|2,0:1|0:0,0:0:0:0:
407,21,176221,2,0,P|418:65|404:108,1,92.5,8|2,0:0|0:0,0:0:0:0:
269,205,176580,6,0,B|152:187|152:187|87:204,1,185,2|8,0:0|0:0,0:0:0:0:
166,270,177119,1,2,0:0:0:0:
283,132,177299,2,0,L|191:117,1,92.5,2|2,0:1|0:0,0:0:0:0:
166,270,177658,2,0,L|257:284,1,92.5,8|0,0:0|0:0,0:0:0:0:
284,286,177928,1,2,0:0:0:0:
284,286,178018,6,0,B|349:250|400:294|400:294|361:309|326:295,1,185,2|8,0:0|0:0,0:0:0:0:
283,132,178556,1,2,0:0:0:0:
478,91,178736,1,2,0:1:0:0:
399,194,178916,1,2,0:0:0:0:
385,45,179095,1,8,0:0:0:0:
492,200,179275,1,2,0:0:0:0:
492,200,179365,1,2,0:0:0:0:
492,200,179455,6,0,L|476:291,1,92.5,2|0,0:1|0:0,0:0:0:0:
299,377,179814,2,0,L|283:285,1,92.5,8|0,0:0|0:0,0:0:0:0:
283,132,180173,1,2,0:1:0:0:
142,110,180353,1,2,0:0:0:0:
303,118,180532,1,8,0:0:0:0:
118,134,180712,1,2,0:0:0:0:
118,134,180802,1,2,0:0:0:0:
118,134,180892,6,0,P|52:97|118:59,2,185,6|8|2,0:0|0:0|0:1,0:0:0:0:
212,63,181790,1,2,0:0:0:0:
108,169,181970,2,0,P|92:211|104:255,1,92.5,8|2,0:0|0:0,0:0:0:0:
292,365,182329,6,0,P|237:297|152:317,1,185,2|8,0:0|0:0,0:0:0:0:
217,378,182868,1,2,0:0:0:0:
217,378,182958,1,2,0:0:0:0:
217,378,183047,1,2,0:1:0:0:
308,242,183227,1,2,0:0:0:0:
152,316,183407,1,8,0:0:0:0:
307,350,183586,1,2,0:0:0:0:
178,214,183766,6,0,B|158:82|158:82|199:112,1,185,2|8,0:1|0:0,0:0:0:0:
265,186,184305,1,2,0:0:0:0:
333,80,184485,5,2,0:0:0:0:
333,80,184574,1,2,0:0:0:0:
333,80,184664,2,0,P|356:75|379:76,1,46.25,2|0,0:1|0:0,0:0:0:0:
447,138,184844,6,0,L|441:183,1,46.25,10|2,0:0|0:0,0:0:0:0:
387,260,185024,2,0,L|392:305,1,46.25,2|2,0:0|0:0,0:0:0:0:
314,360,185203,5,4,0:0:0:0:
279,376,185293,1,0,0:0:0:0:
242,372,185383,1,0,0:0:0:0:
212,348,185473,1,0,0:0:0:0:
200,312,185562,2,0,P|198:289|199:266,1,46.25,2|0,0:1|0:0,0:0:0:0:
235,186,185742,5,6,0:0:0:0:
240,141,185832,1,2,0:1:0:0:
214,103,185922,1,2,0:1:0:0:
170,92,186012,1,2,0:1:0:0:
130,113,186101,1,2,0:1:0:0:
114,156,186191,1,2,0:1:0:0:
129,198,186281,2,0,P|132:221|128:244,1,46.25,2|2,0:1|0:1,0:0:0:0:
47,335,186461,1,2,0:1:0:0:
47,335,186550,1,2,0:1:0:0:
47,335,186640,6,0,B|14:255|96:245|37:158,1,185,6|8,0:0|0:0,0:0:0:0:
112,50,187179,1,2,0:0:0:0:
112,50,187269,1,2,0:0:0:0:
112,50,187359,1,2,0:1:0:0:
186,152,187538,1,2,0:0:0:0:
186,25,187718,1,8,0:0:0:0:
112,128,187898,1,2,0:0:0:0:
231,89,188077,6,0,P|269:80|258:117,1,92.5,2|0,0:1|0:0,0:0:0:0:
186,152,188437,1,8,0:0:0:0:
326,31,188616,1,2,0:0:0:0:
319,265,188796,5,2,0:1:0:0:
353,108,188976,1,2,0:0:0:0:
235,213,189155,1,8,0:0:0:0:
391,199,189335,1,2,0:0:0:0:
258,117,189515,6,0,B|161:75|162:140|77:108,2,185,2|8|2,0:0|0:0|0:1,0:0:0:0:
391,199,190413,1,2,0:0:0:0:
235,213,190592,1,8,0:0:0:0:
353,108,190772,1,2,0:0:0:0:
319,265,190952,6,0,L|301:359,1,92.5,2|2,0:0|0:0,0:0:0:0:
141,311,191311,2,0,L|280:304,1,138.75,8|2,0:0|0:1,0:0:0:0:
310,304,191670,2,0,L|292:210,1,92.5,2|2,0:1|0:0,0:0:0:0:
261,71,192029,1,8,0:0:0:0:
204,278,192209,1,0,0:0:0:0:
204,278,192299,1,0,0:0:0:0:
204,278,192389,6,0,B|139:301|107:282|107:282|133:276|141:264,1,138.75,6|0,0:0|0:0,0:0:0:0:
188,195,192748,2,0,P|174:116|121:170,1,185,8|2,0:0|0:1,0:0:0:0:
205,280,193287,1,2,0:0:0:0:
397,221,193467,1,8,0:0:0:0:
261,71,193646,1,2,0:0:0:0:
237,302,193826,6,0,B|283:290|315:305|315:305|346:294|346:294|374:306|418:300,1,185,2|8,0:0|0:0,0:0:0:0:
267,379,194365,1,2,0:0:0:0:
267,379,194455,1,2,0:0:0:0:
267,379,194544,2,0,P|221:384|180:364,1,92.5,2|2,0:1|0:0,0:0:0:0:
240,209,194904,2,0,L|237:302,1,92.5,8|2,0:0|0:0,0:0:0:0:
152,129,195263,5,2,0:1:0:0:
304,116,195443,1,2,0:0:0:0:
166,0,195622,2,0,L|176:91,1,92.5,8|0,0:0|0:0,0:0:0:0:
152,129,195892,1,2,0:1:0:0:
152,129,195982,2,0,P|108:139|64:127,1,92.5,2|2,0:1|0:0,0:0:0:0:
262,45,196341,2,0,P|307:34|351:46,1,92.5,8|0,0:0|0:0,0:0:0:0:
371,65,196610,1,2,0:1:0:0:
371,65,196700,6,0,L|381:156,1,92.5,2|2,0:1|0:0,0:0:0:0:
290,370,197059,2,0,L|300:278,1,92.5,4|0,0:0|0:0,0:0:0:0:
300,249,197329,1,2,0:0:0:0:
300,249,197419,1,2,0:1:0:0:
474,237,197598,1,2,0:1:0:0:
381,156,197778,1,2,0:1:0:0:
393,330,197958,1,2,0:1:0:0:
386,243,198137,5,6,0:0:0:0:
15,71,206039,5,8,3:0:0:0:
71,138,206182,1,0,3:0:0:0:
153,108,206325,2,0,L|199:108,1,46.25
209,108,206539,1,0,0:0:0:0:
219,108,206611,1,8,0:0:0:0:
320,31,206753,1,0,0:0:0:0:
295,156,206896,1,8,0:0:0:0:
242,40,207039,1,8,0:0:0:0:
229,196,207182,6,0,P|184:203|140:191,1,92.5,6|0,0:0|0:0,0:0:0:0:
78,147,207611,1,8,0:0:0:0:
29,289,207753,2,0,P|51:282|74:281,1,46.25,4|0,0:0|0:0,0:0:0:0:
174,299,208039,2,0,P|220:296|264:283,1,92.5,10|0,0:0|0:0,0:0:0:0:
394,238,208611,2,0,L|432:263,1,46.25,8|0,0:0|0:0,0:0:0:0:
346,350,208896,2,0,P|345:326|349:304,1,46.25,6|0,0:0|0:0,0:0:0:0:
394,238,209182,2,0,P|398:215|398:192,1,46.25,0|0,0:0|0:0,0:0:0:0:
372,90,209468,6,0,P|330:110|284:110,1,92.5,10|0,0:0|0:0,0:0:0:0:
222,69,209896,1,10,0:0:0:0:
86,106,210039,2,0,P|95:128|100:150,1,46.25,4|0,0:0|0:0,0:0:0:0:
90,228,210325,2,0,P|103:271|134:305,1,92.5,10|0,0:0|0:0,0:0:0:0:
259,367,210753,1,10,0:0:0:0:
317,314,210896,2,0,P|317:290|313:268,1,46.25,8|0,0:0|0:0,0:0:0:0:
180,310,211182,2,0,L|134:305,1,46.25,6|0,0:0|0:0,0:0:0:0:
72,269,211468,2,0,L|26:264,1,46.25,8|0,0:0|0:0,0:0:0:0:
163,206,211753,6,0,L|255:196,1,92.5,10|0,0:0|0:0,0:0:0:0:
325,159,212182,1,8,0:0:0:0:
249,36,212325,2,0,L|244:81,1,46.25,4|0,0:0|0:0,0:0:0:0:
186,129,212611,2,0,P|140:130|102:155,1,92.5,10|0,0:0|0:0,0:0:0:0:
86,232,213039,1,0,0:0:0:0:
162,252,213182,2,0,L|162:205,1,46.25,10|0,0:0|0:0,0:0:0:0:
55,311,213468,2,0,P|78:309|100:312,1,46.25,4|0,0:0|0:0,0:0:0:0:
168,353,213753,2,0,P|191:354|213:351,1,46.25,0|0,0:0|0:0,0:0:0:0:
310,280,214039,6,0,L|402:277,1,92.5,10|0,0:0|0:0,0:0:0:0:
475,263,214468,1,10,0:0:0:0:
415,136,214611,2,0,P|415:159|420:181,1,46.25,4|0,0:0|0:0,0:0:0:0:
483,91,214896,2,0,P|483:67|478:45,1,46.25,2|0,0:0|0:0,0:0:0:0:
409,18,215182,1,2,0:0:0:0:
339,95,215325,1,8,0:0:0:0:
275,49,215468,2,0,L|229:42,1,46.25,8|0,0:0|0:0,0:0:0:0:
89,67,215753,2,0,P|87:90|89:113,1,46.25,6|0,0:0|0:0,0:0:0:0:
140,173,216039,2,0,P|141:196|139:219,1,46.25,0|0,0:0|0:0,0:0:0:0:
19,329,216325,6,0,P|63:318|108:326,1,92.5,6|0,0:0|0:0,0:0:0:0:
181,357,216753,1,8,0:0:0:0:
314,283,216896,2,0,L|312:236,1,46.25,6|0,0:0|0:0,0:0:0:0:
237,165,217182,2,0,L|234:257,1,92.5,0|0,0:0|0:0,0:0:0:0:
249,330,217611,1,0,0:0:0:0:
321,358,217753,2,0,P|344:356|367:352,1,46.25,10|0,0:0|0:0,0:0:0:0:
349,237,218039,2,0,P|338:257|331:279,1,46.25,4|0,0:0|0:0,0:0:0:0:
411,283,218325,2,0,P|422:263|429:241,1,46.25,2|8,0:0|0:0,0:0:0:0:
367,142,218611,6,0,P|410:155|455:144,1,92.5,10|0,0:0|0:0,0:0:0:0:
512,90,219039,1,10,0:0:0:0:
387,19,219182,2,0,P|366:30|343:35,1,46.25,4|0,0:0|0:0,0:0:0:0:
265,25,219468,2,0,P|219:20|177:38,1,92.5,2|0,0:0|0:0,0:0:0:0:
172,176,219896,1,10,0:0:0:0:
98,146,220039,2,0,P|75:146|53:149,1,46.25,8|0,0:0|0:0,0:0:0:0:
69,288,220325,2,0,L|114:283,1,46.25,4|0,0:0|0:0,0:0:0:0:
190,308,220611,2,0,L|235:313,1,46.25,8|0,0:0|0:0,0:0:0:0:
323,258,220896,6,0,P|297:219|298:173,1,92.5,10|0,0:0|0:0,0:0:0:0:
347,112,221325,1,10,0:0:0:0:
475,181,221468,2,0,P|453:183|430:181,1,46.25,4|0,0:0|0:0,0:0:0:0:
347,112,221753,2,0,P|303:98|258:107,1,92.5,10|0,0:0|0:0,0:0:0:0:
190,147,222182,1,0,0:0:0:0:
150,209,222325,2,0,L|148:255,1,46.25,8|0,0:0|0:0,0:0:0:0:
250,367,222611,2,0,L|248:320,1,46.25,4|0,0:0|0:0,0:0:0:0:
293,262,222896,2,0,P|315:258|338:258,1,46.25,0|0,0:0|0:0,0:0:0:0:
265,193,223182,6,0,P|310:185|356:186,1,92.5,10|0,0:0|0:0,0:0:0:0:
428,204,223611,1,2,0:0:0:0:
391,62,223753,2,0,L|344:58,1,46.25,4|0,0:0|0:0,0:0:0:0:
240,26,224039,2,0,L|147:33,1,92.5,10|0,0:0|0:0,0:0:0:0:
12,95,224468,2,0,P|35:91|58:92,1,46.25,4|8,0:0|0:0,0:0:0:0:
126,122,224753,1,0,0:0:0:0:
29,229,224896,2,0,L|35:184,1,46.25,12|8,0:0|0:0,0:0:0:0:
159,266,225182,1,12,0:0:0:0:
126,122,225325,1,12,0:0:0:0:
89,295,225468,6,0,P|117:330|161:343,1,92.5,4|0,0:0|0:0,0:0:0:0:
239,330,225896,1,10,0:0:0:0:
367,279,226039,2,0,P|390:276|413:278,1,46.25,4|0,0:0|0:0,0:0:0:0:
318,226,226325,2,0,P|271:221|225:225,1,92.5,10|0,0:0|0:0,0:0:0:0:
161,260,226753,1,0,0:0:0:0:
117,181,226896,2,0,L|124:135,1,46.25,10|0,0:0|0:0,0:0:0:0:
240,45,227182,2,0,P|216:46|193:43,1,46.25,4|0,0:0|0:0,0:0:0:0:
122,21,227468,2,0,P|99:18|75:19,1,46.25
32,132,227753,6,0,P|77:137|124:134,1,92.5,10|0,0:0|0:0,0:0:0:0:
197,124,228182,1,10,0:0:0:0:
159,266,228325,2,0,P|165:247|165:220,1,46.25,4|0,0:0|0:0,0:0:0:0:
267,162,228610,2,0,P|254:206|262:251,1,92.5,10|0,0:0|0:0,0:0:0:0:
337,371,229039,1,10,0:0:0:0:
257,368,229182,2,0,P|234:369|212:374,1,46.25
263,252,229468,2,0,L|309:257,1,46.25,4|0,0:0|0:0,0:0:0:0:
382,283,229753,2,0,L|428:278,1,46.25
461,161,230039,6,0,L|368:172,1,92.5,10|0,0:0|0:0,0:0:0:0:
293,149,230468,1,10,0:0:0:0:
353,43,230610,2,0,L|306:37,1,46.25,4|0,0:0|0:0,0:0:0:0:
199,70,230896,2,0,P|206:115|201:161,1,92.5,10|0,0:0|0:0,0:0:0:0:
169,228,231325,1,0,0:0:0:0:
102,270,231468,2,0,L|55:268,1,46.25,10|0,0:0|0:0,0:0:0:0:
189,341,231753,2,0,L|235:339,1,46.25,4|0,0:0|0:0,0:0:0:0:
313,325,232039,2,0,L|359:326,1,46.25,0|8,0:0|0:0,0:0:0:0:
261,266,232325,6,0,P|250:221|255:175,1,92.5,10|0,0:0|0:0,0:0:0:0:
294,107,232753,1,10,0:0:0:0:
429,171,232896,2,0,L|382:170,1,46.25,4|0,0:0|0:0,0:0:0:0:
477,112,233182,2,0,P|501:150|500:196,1,92.5,10|0,0:0|0:0,0:0:0:0:
395,288,233610,1,6,0:0:0:0:
316,292,233753,2,0,P|292:289|271:280,1,46.25,0|0,0:0|0:0,0:0:0:0:
147,217,234039,2,0,L|192:209,1,46.25,4|8,0:0|0:0,0:0:0:0:
237,144,234325,2,0,L|191:136,1,46.25,0|0,0:0|0:0,0:0:0:0:
118,285,234610,6,0,P|84:254|75:210,1,92.5,6|0,0:0|0:0,0:0:0:0:
106,123,235039,1,10,0:0:0:0:
237,144,235182,2,0,L|282:138,1,46.25,4|0,0:0|0:0,0:0:0:0:
377,76,235468,2,0,P|391:120|390:166,1,92.5,10|0,0:0|0:0,0:0:0:0:
363,235,235896,1,0,0:0:0:0:
419,311,236039,2,0,L|464:304,1,46.25,10|0,0:0|0:0,0:0:0:0:
318,347,236325,2,0,L|273:340,1,46.25,4|0,0:0|0:0,0:0:0:0:
199,309,236610,2,0,P|202:285|201:262,1,46.25,0|8,0:0|0:0,0:0:0:0:
272,339,236896,6,0,P|277:293|276:246,1,92.5,10|0,0:0|0:0,0:0:0:0:
253,171,237325,1,10,0:0:0:0:
106,133,237468,2,0,L|152:134,1,46.25,4|0,0:0|0:0,0:0:0:0:
253,171,237753,2,0,L|345:167,1,92.5,10|0,0:0|0:0,0:0:0:0:
479,98,238182,1,4,0:0:0:0:
435,163,238325,2,0,P|434:188|439:209,1,46.25,10|0,0:0|0:0,0:0:0:0:
382,74,238610,2,0,L|335:70,1,46.25,6|0,0:0|0:0,0:0:0:0:
261,44,238896,2,0,L|214:47,1,46.25,0|0,0:0|0:0,0:0:0:0:
106,88,239182,6,0,P|113:133|106:179,1,92.5,10|0,0:0|0:0,0:0:0:0:
66,246,239610,1,10,0:0:0:0:
194,325,239753,2,0,L|147:321,1,46.25,4|0,0:0|0:0,0:0:0:0:
253,273,240039,2,0,L|345:265,1,92.5,10|0,0:0|0:0,0:0:0:0:
423,279,240468,1,0,0:0:0:0:
501,207,240610,2,0,P|502:184|497:162,1,46.25,10|0,0:0|0:0,0:0:0:0:
401,43,240896,2,0,L|397:89,1,46.25,4|0,0:0|0:0,0:0:0:0:
325,122,241182,2,0,L|321:75,1,46.25,0|0,0:0|0:0,0:0:0:0:
232,13,241468,6,0,P|196:40|151:48,1,92.5,2|0,0:0|0:0,0:0:0:0:
74,28,241896,1,10,0:0:0:0:
159,147,242039,2,0,P|181:144|204:144,1,46.25,4|0,0:0|0:0,0:0:0:0:
288,215,242325,2,0,P|242:222|196:222,1,92.5,10|0,0:0|0:0,0:0:0:0:
70,159,242753,1,8,0:0:0:0:
159,147,242896,1,4,3:0:0:0:
159,147,243039,1,4,3:0:0:0:
57,245,243182,1,8,0:0:0:0:
196,221,243325,1,8,0:0:0:0:
261,308,243468,1,4,3:0:0:0:
358,287,243610,1,4,3:0:0:0:
303,136,243753,6,0,P|286:173|288:215,1,83.2499974594117,6|0,0:0|0:0,0:0:0:0:
358,287,244182,1,10,0:0:0:0:
468,243,244325,2,0,P|465:223|465:202,1,41.6249987297059,10|0,0:0|0:0,0:0:0:0:
505,82,244610,2,0,P|464:88|423:82,1,83.2499974594117,6|0,0:0|0:0,0:0:0:0:
274,8,245182,6,0,L|233:15,1,41.6249987297059
105,68,245468,2,0,L|145:75,1,41.6249987297059,6|0,0:0|0:0,0:0:0:0:
146,150,245753,2,0,L|105:143,1,41.6249987297059
211,113,246039,6,0,P|219:153|207:192,1,83.2499974594117,10|0,0:0|0:0,0:0:0:0:
161,252,246468,1,2,0:0:0:0:
220,338,246610,2,0,L|178:334,1,41.6249987297059,10|0,0:0|0:0,0:0:0:0:
309,269,246896,2,0,L|392:262,1,83.2499974594117,6|0,0:0|0:0,0:0:0:0:
493,167,247468,6,0,P|473:171|452:173,1,41.6249987297059,10|0,0:0|0:0,0:0:0:0:
330,106,247753,2,0,P|290:98|248:94,1,83.2499974594117,4|0,0:0|0:0,0:0:0:0:
172,117,248182,1,0,0:0:0:0:
122,219,248325,6,0,P|160:206|202:207,1,83.2499974594117,10|0,0:0|0:0,0:0:0:0:
272,243,248753,1,10,0:0:0:0:
340,279,248896,2,0,P|360:281|381:279,1,41.6249987297059,0|0,0:0|0:0,0:0:0:0:
452,173,249182,2,0,L|454:256,1,83.2499974594117,6|0,0:0|0:0,0:0:0:0:
507,123,249753,6,0,P|491:111|472:103,1,41.6249987297059,10|0,0:0|0:0,0:0:0:0:
334,128,250039,2,0,P|350:140|369:148,1,41.6249987297059,6|0,0:0|0:0,0:0:0:0:
386,71,250325,2,0,P|370:59|351:51,1,41.6249987297059
277,32,250610,6,0,P|235:34|201:57,1,83.2499974594117,10|0,0:0|0:0,0:0:0:0:
161,126,251039,1,10,0:0:0:0:
124,196,251182,2,0,L|86:215,1,41.6249987297059,8|0,0:0|0:0,0:0:0:0:
231,242,251468,2,0,L|300:197,1,83.2499974594117,6|0,0:0|0:0,0:0:0:0:
204,311,252039,6,0,P|184:303|163:302,1,41.6249987297059,10|0,0:0|0:0,0:0:0:0:
79,342,252325,1,4,0:0:0:0:
60,218,252468,1,4,0:0:0:0:
151,150,252610,1,4,3:0:0:0:
140,73,252753,1,4,3:0:0:0:
60,218,252896,6,0,P|99:229|141:228,1,83.2499974594117,6|0,0:0|0:0,0:0:0:0:
214,197,253325,1,10,0:0:0:0:
204,311,253468,2,0,L|201:269,1,41.6249987297059,10|0,0:0|0:0,0:0:0:0:
286,354,253753,2,0,P|326:344|367:346,1,83.2499974594117,10|0,0:0|0:0,0:0:0:0:
485,258,254325,6,0,L|479:216,1,41.6249987297059,10|0,0:0|0:0,0:0:0:0:
397,111,254610,2,0,L|391:152,1,41.6249987297059,4|0,0:0|0:0,0:0:0:0:
332,205,254896,2,0,P|312:202|291:202,1,41.6249987297059,0|0,0:0|0:0,0:0:0:0:
213,216,255182,5,10,0:0:0:0:
24,56,261536,5,8,0:0:0:0:
60,50,261653,1,8,0:0:0:0:
96,48,261770,2,0,P|120:48|136:52,1,37,8|0,0:0|0:0,0:0:0:0:
112,132,262005,5,8,0:0:0:0:
146,145,262122,1,8,0:0:0:0:
183,153,262239,2,0,P|211:153|243:145,1,37,8|8,0:0|0:0,0:0:0:0:
357,103,262474,6,0,P|404:96|460:108,1,92.5,4|0,0:0|0:0,0:0:0:0:
400,228,262942,2,0,P|353:235|297:223,1,92.5,8|0,0:0|0:0,0:0:0:0:
172,164,263411,1,2,0:2:0:0:
320,110,263645,1,2,0:2:0:0:
216,256,263880,1,8,0:0:0:0:
132,80,264114,1,2,0:0:0:0:
40,276,264349,6,0,L|156:264,1,92.5
264,154,264817,2,0,L|148:166,1,92.5,8|0,0:0|0:0,0:0:0:0:
316,212,265286,1,2,0:2:0:0:
236,80,265520,1,2,0:2:0:0:
131,266,265755,1,8,0:0:0:0:
264,154,265989,1,2,0:0:0:0:
40,88,266224,6,0,L|52:196,1,92.5,4|0,0:0|0:0,0:0:0:0:
131,266,266692,2,0,L|141:174,1,92.5,8|0,0:0|0:0,0:0:0:0:
204,104,267161,1,2,0:0:0:0:
248,224,267395,1,2,0:0:0:0:
336,192,267630,2,0,L|346:100,1,92.5,8|2,0:0|0:0,0:0:0:0:
320,308,268099,6,0,L|476:304,1,138.75,0|0,0:0|0:0,0:0:0:0:
488,304,268567,1,8,0:0:0:0:
290,310,268802,1,2,0:0:0:0:
395,179,269036,2,0,P|404:234|390:278,1,92.5,8|2,0:0|0:0,0:0:0:0:
190,355,269505,2,0,P|181:300|195:256,1,92.5,8|8,0:0|0:0,0:0:0:0:
221,231,269856,1,8,0:0:0:0:
250,195,269974,6,0,P|259:140|245:96,1,92.5,4|0,0:0|0:0,0:0:0:0:
128,56,270442,1,8,0:0:0:0:
81,151,270677,1,2,0:0:0:0:
81,151,270911,2,0,P|127:160|172:151,1,92.5,2|2,0:2|0:2,0:0:0:0:
272,135,271380,2,0,P|317:125|362:135,1,92.5,8|2,0:0|0:2,0:0:0:0:
363,296,271849,6,0,P|391:260|404:216,1,92.5,0|0,0:0|0:0,0:0:0:0:
272,135,272317,2,0,P|284:180|312:216,1,92.5,8|0,0:0|0:0,0:0:0:0:
420,368,272786,1,2,0:2:0:0:
460,288,273020,1,2,0:2:0:0:
312,216,273255,1,8,0:0:0:0:
272,296,273489,1,2,0:0:0:0:
132,204,273724,6,0,P|184:200|224:204,1,92.5,4|0,0:0|0:0,0:0:0:0:
132,324,274192,2,0,P|80:328|39:324,1,92.5,8|0,0:0|0:0,0:0:0:0:
108,208,274661,1,2,0:0:0:0:
204,276,274895,1,2,0:0:0:0:
120,340,275130,2,0,P|68:344|27:340,1,92.5,8|2,0:0|0:0,0:0:0:0:
132,204,275599,5,0,0:0:0:0:
196,352,275833,1,2,0:2:0:0:
40,252,276067,1,8,0:0:0:0:
60,132,276302,1,2,0:2:0:0:
180,80,276536,2,0,P|228:76|284:80,1,92.5,8|10,0:0|0:0,0:0:0:0:
312,224,277005,1,10,0:0:0:0:
304,178,277122,1,10,0:0:0:0:
306,132,277239,1,10,0:0:0:0:
317,87,277356,1,10,0:0:0:0:
356,60,277474,6,0,P|402:56|448:58,1,92.5,4|0,0:0|0:0,0:0:0:0:
404,222,277942,2,0,P|358:226|312:224,1,92.5,8|0,0:0|0:0,0:0:0:0:
168,168,278411,1,2,0:2:0:0:
317,87,278645,1,2,0:2:0:0:
308,292,278880,1,8,0:0:0:0:
92,248,279114,1,2,0:0:0:0:
236,252,279349,6,0,L|212:360,1,92.5,0|0,0:0|0:0,0:0:0:0:
92,248,279817,2,0,L|68:140,1,92.5,8|0,0:0|0:0,0:0:0:0:
148,28,280286,1,2,0:2:0:0:
268,116,280520,1,2,0:2:0:0:
162,137,280755,2,0,L|54:161,1,92.5,8|2,0:0|0:0,0:0:0:0:
232,204,281224,6,0,B|280:212|280:212|344:184,1,92.5,4|0,0:0|0:0,0:0:0:0:
258,27,281692,2,0,B|250:75|250:75|278:139,1,92.5,8|0,0:0|0:0,0:0:0:0:
320,194,282161,1,2,0:0:0:0:
409,229,282395,1,2,0:0:0:0:
434,53,282630,2,0,B|386:45|386:45|322:73,1,92.5,8|2,0:0|0:0,0:0:0:0:
232,204,283099,5,0,0:0:0:0:
320,194,283333,1,0,0:0:0:0:
140,168,283567,2,0,B|132:216|132:216|160:280,1,92.5,8|2,0:0|0:0,0:0:0:0:
264,356,284036,1,8,0:0:0:0:
320,194,284270,1,10,0:0:0:0:
149,256,284505,1,10,0:0:0:0:
320,284,284739,1,10,0:0:0:0:
365,287,284856,1,10,0:0:0:0:
411,282,284974,6,0,P|440:232|444:184,1,92.5,4|0,0:0|0:0,0:0:0:0:
286,110,285442,2,0,P|294:155|319:193,1,92.5,8|0,0:0|0:0,0:0:0:0:
436,244,285911,1,2,0:2:0:0:
396,116,286145,1,2,0:2:0:0:
236,159,286380,2,0,P|274:184|319:192,1,92.5,8|2,0:0|0:0,0:0:0:0:
176,68,286849,6,0,P|130:76|92:101,1,92.5,0|0,0:0|0:0,0:0:0:0:
44,224,287317,1,8,0:0:0:0:
172,176,287552,1,0,0:0:0:0:
132,344,287786,1,2,0:2:0:0:
112,260,288020,1,2,0:2:0:0:
244,187,288255,2,0,P|289:184|332:201,1,92.5,8|2,0:0|0:0,0:0:0:0:
310,359,288724,6,0,P|284:321|276:275,1,92.5,4|0,0:0|0:0,0:0:0:0:
388,132,289192,2,0,P|413:170|422:215,1,92.5,8|0,0:0|0:0,0:0:0:0:
424,304,289661,1,2,0:2:0:0:
364,368,289895,1,2,0:2:0:0:
276,276,290130,2,0,P|237:250|192:241,1,92.5,8|2,0:0|0:0,0:0:0:0:
36,346,290599,6,0,P|77:326|108:292,1,92.5,0|2,0:0|0:0,0:0:0:0:
88,94,291067,2,0,P|85:140|100:184,1,92.5,8|2,0:0|0:2,0:0:0:0:
184,320,291536,1,8,0:0:0:0:
172,128,291770,1,10,0:0:0:0:
152,228,292005,1,8,0:0:0:0:
196,214,292122,1,8,0:0:0:0:
240,200,292239,1,10,0:0:0:0:
284,187,292356,1,10,0:0:0:0:
328,174,292474,5,12,0:0:0:0:
440,52,292708,2,0,L|388:108,1,46.25,2|8,1:0|0:0,0:0:0:0:
472,252,293177,1,8,0:0:0:0:
456,152,293411,1,2,1:0:0:0:
364,232,293645,1,2,1:0:0:0:
492,356,293880,1,8,0:0:0:0:
472,252,294114,1,0,0:0:0:0:
276,312,294349,6,0,L|384:312,1,92.5,12|2,0:0|1:0,0:0:0:0:
416,312,294700,1,8,0:0:0:0:
260,204,295052,1,8,0:0:0:0:
180,360,295286,1,2,1:0:0:0:
276,312,295520,1,2,1:0:0:0:
152,224,295755,1,8,0:0:0:0:
84,308,295989,1,0,0:0:0:0:
52,136,296224,6,0,L|172:120,1,92.5,12|2,0:0|1:0,0:0:0:0:
188,116,296575,1,8,0:0:0:0:
316,248,296927,1,8,0:0:0:0:
152,224,297161,1,2,1:0:0:0:
244,168,297395,1,2,1:0:0:0:
152,344,297630,2,0,L|32:328,1,92.5,8|0,0:0|0:0,0:0:0:0:
222,231,298099,6,0,L|370:256,1,138.75,12|2,0:0|1:0,0:0:0:0:
404,260,298567,1,8,0:0:0:0:
296,152,298802,1,8,0:0:0:0:
451,268,299036,2,0,L|359:255,1,92.5,12|0,0:0|0:0,0:0:0:0:
224,235,299505,1,8,0:0:0:0:
352,96,299739,1,8,0:0:0:0:
376,136,299856,1,8,0:0:0:0:
372,184,299974,5,12,0:0:0:0:
250,161,300208,2,0,L|295:151,1,46.25,2|8,1:0|0:0,0:0:0:0:
144,176,300677,1,8,0:0:0:0:
248,80,300911,1,2,1:0:0:0:
292,248,301145,1,2,1:0:0:0:
220,164,301380,1,8,0:0:0:0:
376,136,301614,1,0,0:0:0:0:
336,324,301849,6,0,P|288:336|228:308,1,92.5,12|2,0:0|1:0,0:0:0:0:
208,300,302200,1,8,0:0:0:0:
220,164,302552,1,8,0:0:0:0:
292,248,302786,1,2,1:0:0:0:
128,224,303020,1,2,1:0:0:0:
292,120,303255,1,8,0:0:0:0:
360,184,303489,1,0,0:0:0:0:
140,140,303724,5,12,0:0:0:0:
292,120,303958,2,0,L|281:74,1,46.25,2|8,1:0|0:0,0:0:0:0:
112,56,304427,1,8,0:0:0:0:
192,228,304661,1,2,1:0:0:0:
216,128,304895,1,2,1:0:0:0:
60,216,305130,1,8,0:0:0:0:
120,308,305364,1,0,0:0:0:0:
256,192,305599,6,0,B|304:188|304:188|356:200,1,92.5,12|2,0:0|1:0,0:0:0:0:
392,208,305950,1,8,0:0:0:0:
436,220,306067,1,0,0:0:0:0:
336,348,306302,1,8,0:0:0:0:
504,260,306536,2,0,B|508:212|508:212|496:160,1,92.5,12|2,0:0|1:0,0:0:0:0:
412,72,307005,5,8,0:0:0:0:
366,64,307122,1,8,0:0:0:0:
321,75,307239,1,8,0:0:0:0:
278,90,307356,1,8,0:0:0:0:
232,89,307474,1,4,0:0:0:0:
167,244,315803,5,8,0:0:0:0:
165,227,316509,1,8,0:0:0:0:
163,210,317215,1,8,0:0:0:0:
161,193,317921,1,8,0:0:0:0:
308,281,318627,5,8,0:0:0:0:
291,283,319332,1,8,0:0:0:0:
274,285,320038,1,10,0:0:0:0:
257,287,320744,1,10,0:0:0:0:
345,140,321450,5,10,0:0:0:0:
347,157,322156,1,10,0:0:0:0:
349,174,322862,1,10,0:0:0:0:
351,191,323568,1,10,0:0:0:0:
204,103,324274,5,10,0:0:0:0:
221,101,324980,1,10,0:0:0:0:
238,99,325685,1,8,0:0:0:0:
255,97,326391,1,8,0:0:0:0:
256,192,326744,1,0,0:0:0:0:
255,288,327097,6,0,P|213:304|167:307,1,92.5
78,288,327803,2,0,P|123:290|166:307,1,92.5,8|0,0:0|0:0,0:0:0:0:
255,288,328509,2,0,P|300:285|343:268,1,92.5,8|0,0:0|0:0,0:0:0:0:
408,195,329038,1,0,0:0:0:0:
432,288,329215,2,0,P|389:271|343:268,1,92.5,8|0,0:0|0:0,0:0:0:0:
263,380,329921,6,0,L|255:288,1,92.5,8|0,0:0|0:0,0:0:0:0:
352,176,330627,2,0,L|343:268,1,92.5,8|0,0:0|0:0,0:0:0:0:
166,307,331332,2,0,L|157:214,1,92.5,8|0,0:0|0:0,0:0:0:0:
254,102,332038,2,0,L|245:194,1,92.5,8|0,0:0|0:0,0:0:0:0:
166,106,332568,1,0,0:0:0:0:
222,26,332744,6,0,P|267:22|309:41,1,92.5,8|0,0:0|0:0,0:0:0:0:
352,176,333450,2,0,P|397:179|439:160,1,92.5,8|0,0:0|0:0,0:0:0:0:
313,259,334156,1,8,0:0:0:0:
383,103,334509,1,0,0:0:0:0:
256,159,334685,1,8,0:0:0:0:
251,169,334774,1,8,0:0:0:0:
247,179,334862,5,10,0:0:0:0:
313,259,335038,1,10,0:0:0:0:
256,349,335215,1,10,0:0:0:0:
154,321,335391,1,10,0:0:0:0:
146,195,335568,6,0,P|147:125|133:57,1,138.750005292893,6|2,0:0|0:0,0:0:0:0:
122,41,336097,1,0,0:0:0:0:
256,189,336274,1,8,0:0:0:0:
261,195,336627,2,0,P|296:200|329:192,1,69.3750026464463,0|0,0:0|0:0,0:0:0:0:
431,80,336980,5,2,0:1:0:0:
291,124,337156,1,2,0:0:0:0:
401,169,337332,1,2,0:1:0:0:
346,51,337509,1,2,0:0:0:0:
313,259,337685,1,8,0:0:0:0:
307,265,338038,2,0,L|238:272,1,69.3750026464463,2|0,0:0|0:0,0:0:0:0:
233,277,338303,1,2,0:1:0:0:
228,282,338391,6,0,B|161:266|161:266|94:287,1,138.750005292893,2|2,0:1|0:0,0:0:0:0:
76,299,338921,1,2,0:0:0:0:
176,122,339097,2,0,L|168:190,1,69.3750026464463,8|0,0:0|0:0,0:0:0:0:
172,288,339362,1,2,0:1:0:0:
172,288,339450,2,0,L|179:219,1,69.3750026464463,2|0,0:1|0:0,0:0:0:0:
151,33,339803,5,2,0:1:0:0:
167,190,339980,1,0,0:0:0:0:
297,96,340156,1,2,0:0:0:0:
302,90,340509,2,0,P|337:85|371:90,1,69.3750026464463,8|2,0:0|0:0,0:0:0:0:
247,218,340862,2,0,P|212:223|178:218,1,69.3750026464463,2|2,0:1|0:0,0:0:0:0:
7,65,341215,6,0,P|68:36|133:57,1,138.750005292893,2|2,0:1|0:0,0:0:0:0:
147,73,341744,1,0,0:0:0:0:
247,218,341921,1,8,0:0:0:0:
241,223,342274,2,0,B|236:257|236:257|241:291,1,69.3750026464463,2|0,0:0|0:0,0:0:0:0:
245,301,342538,1,2,0:1:0:0:
251,309,342627,6,0,L|181:311,1,69.3750026464463,2|2,0:1|0:0,0:0:0:0:
123,230,342980,2,0,L|53:227,1,69.3750026464463,2|2,0:1|0:0,0:0:0:0:
301,152,343332,1,8,0:0:0:0:
307,147,343685,1,2,0:0:0:0:
241,291,343862,1,2,0:0:0:0:
150,164,344038,6,0,P|151:94|172:29,1,138.750005292893,2|2,0:1|0:0,0:0:0:0:
186,13,344568,1,0,0:0:0:0:
335,243,344744,1,8,0:0:0:0:
123,230,345097,1,2,0:0:0:0:
221,149,345274,1,2,0:0:0:0:
230,145,345362,1,2,0:1:0:0:
239,141,345450,6,0,P|273:137|306:146,1,69.3750026464463,2|0,0:1|0:0,0:0:0:0:
402,237,345803,2,0,P|367:233|334:242,1,69.3750026464463,2|2,0:1|0:0,0:0:0:0:
223,306,346156,5,10,0:0:0:0:
376,308,346332,1,2,0:1:0:0:
123,230,346509,1,2,0:1:0:0:
265,213,346685,1,2,0:1:0:0:
22,329,346862,6,0,P|29:260|20:191,1,138.750005292893,6|2,0:0|0:0,0:0:0:0:
15,172,347391,1,0,0:0:0:0:
137,37,347568,1,8,0:0:0:0:
99,265,347921,2,0,L|29:261,1,69.3750026464463,2|0,0:0|0:0,0:0:0:0:
161,183,348274,5,2,0:1:0:0:
182,344,348450,1,2,0:0:0:0:
242,248,348627,1,2,0:1:0:0:
99,265,348803,1,2,0:0:0:0:
267,329,348980,1,8,0:0:0:0:
272,334,349332,2,0,P|307:338|341:332,1,69.3750026464463,2|0,0:0|0:0,0:0:0:0:
350,327,349597,1,2,0:1:0:0:
356,317,349685,6,0,B|335:253|386:256|353:183,1,138.750005292893,2|2,0:1|0:0,0:0:0:0:
343,164,350215,1,2,0:0:0:0:
432,348,350391,1,8,0:0:0:0:
330,147,350744,2,0,P|296:140|261:141,1,69.3750026464463,2|0,0:0|0:0,0:0:0:0:
175,172,351009,1,2,0:1:0:0:
175,172,351097,6,0,P|208:165|243:166,1,69.3750026464463,2|2,0:1|0:0,0:0:0:0:
224,315,351450,2,0,P|224:280|218:246,1,69.3750026464463,2|2,0:1|0:0,0:0:0:0:
81,108,351803,5,8,0:0:0:0:
149,284,351980,1,2,0:0:0:0:
0,188,352156,1,2,0:0:0:0:
175,172,352332,1,2,0:0:0:0:
0,309,352509,6,0,P|61:293|129:304,1,138.750005292893,2|2,0:1|0:0,0:0:0:0:
155,314,353038,1,2,0:0:0:0:
261,141,353215,1,8,0:0:0:0:
176,328,353568,2,0,P|173:293|181:260,1,69.3750026464463,2|2,0:0|0:0,0:0:0:0:
278,126,353921,1,2,0:1:0:0:
252,304,354097,1,2,0:0:0:0:
159,87,354274,5,6,0:0:0:0:
272,218,354450,1,2,0:1:0:0:
282,222,354538,1,2,0:1:0:0:
293,226,354627,5,2,0:1:0:0:
437,321,354803,1,2,0:1:0:0:
374,159,354980,1,2,0:1:0:0:
330,327,355156,1,2,0:1:0:0:
465,218,355332,6,0,B|490:151|444:150|473:82,2,138.750005292893,6|2|8,0:0|0:0|0:0,0:0:0:0:
457,244,356391,1,2,0:0:0:0:
330,327,356568,1,2,0:0:0:0:
324,331,356656,1,2,0:1:0:0:
318,335,356744,6,0,L|248:330,1,69.3750026464463,2|2,0:1|0:0,0:0:0:0:
163,258,357097,2,0,L|93:262,1,69.3750026464463,2|2,0:1|0:0,0:0:0:0:
256,192,357450,1,8,0:0:0:0:
156,341,357803,1,2,0:0:0:0:
86,249,357980,1,2,0:0:0:0:
81,243,358068,1,2,0:1:0:0:
77,237,358156,6,0,P|72:202|81:169,1,69.3750026464463,2|2,0:1|0:0,0:0:0:0:
157,93,358509,2,0,P|161:59|153:26,1,69.3750026464463,2|2,0:1|0:0,0:0:0:0:
256,192,358862,1,8,0:0:0:0:
86,66,359215,1,2,0:0:0:0:
236,33,359391,1,2,0:0:0:0:
248,27,359480,1,2,0:1:0:0:
260,21,359568,6,0,L|328:28,1,69.3750026464463,2|2,0:1|0:0,0:0:0:0:
387,118,359921,2,0,L|455:110,1,69.3750026464463,2|2,0:1|0:0,0:0:0:0:
256,192,360274,1,8,0:0:0:0:
328,28,360627,1,2,0:0:0:0:
419,141,360803,1,2,0:0:0:0:
422,147,360891,1,2,0:1:0:0:
425,153,360980,6,0,L|419:222,1,69.3750026464463,2|2,0:1|0:0,0:0:0:0:
346,295,361332,2,0,L|351:364,1,69.3750026464463,2|2,0:1|0:0,0:0:0:0:
256,192,361685,1,8,0:0:0:0:
192,320,362038,2,0,L|261:325,1,69.3750026464463,2|0,0:0|0:0,0:0:0:0:
354,300,362303,1,2,0:1:0:0:
346,295,362391,6,0,P|311:291|277:299,1,69.3750026464463,2|2,0:1|0:0,0:0:0:0:
136,381,362744,1,2,0:1:0:0:
256,192,363097,1,8,0:0:0:0:
192,320,363450,1,2,0:0:0:0:
97,223,363627,1,2,0:0:0:0:
93,216,363715,1,2,0:1:0:0:
89,209,363803,6,0,P|82:175|88:141,1,69.3750026464463,2|2,0:1|0:0,0:0:0:0:
235,8,364156,1,10,0:0:0:0:
170,174,364332,1,10,0:0:0:0:
348,148,364509,1,2,0:1:0:0:
226,13,364685,1,2,0:1:0:0:
273,221,364862,1,6,0:0:0:0:
256,192,365038,12,2,366627,0:0:0:0:
