osu file format v14

[General]
AudioFilename: audio.mp3
AudioLeadIn: 0
PreviewTime: 44071
Countdown: 0
SampleSet: Normal
StackLeniency: 0.7
Mode: 3
LetterboxInBreaks: 0
SpecialStyle: 0
WidescreenStoryboard: 0

[Editor]
Bookmarks: 1405,12071,22738,33404,38738,45571,48238,54738,56238,58904
DistanceSpacing: 0.9
BeatDivisor: 2
GridSize: 16
TimelineZoom: 1

[Metadata]
Title:Perfect Lie
TitleUnicode:Perfect Lie
Artist:Primary
ArtistUnicode:Primary
Creator:dkingo
Version:Etsu's Easy
Source:
Tags:each yuiko ゆいこんぬ DustMoon Etsu
BeatmapID:1222664
BeatmapSetID:572856

[Difficulty]
HPDrainRate:7
CircleSize:4
OverallDifficulty:6
ApproachRate:5
SliderMultiplier:1.4
SliderTickRate:1

[Events]
//Background and Video events
0,0,"27649291_p0.jpg",0,0
//Break Periods
//Storyboard Layer 0 (Background)
//Storyboard Layer 1 (Fail)
//Storyboard Layer 2 (Pass)
//Storyboard Layer 3 (Foreground)
//Storyboard Sound Samples

[TimingPoints]
1405,333.333333333333,4,1,1,50,1,0
44071,-100,4,1,1,50,0,1
65404,-100,4,1,1,50,0,0

[HitObjects]
64,192,571,128,8,738:0:0:0:0:
320,192,738,1,8,0:0:0:0:
448,192,905,1,2,0:0:0:0:
192,192,1071,1,2,0:0:0:0:
320,192,1238,1,2,0:0:0:0:
64,192,1405,1,6,0:0:0:0:
448,192,1405,128,0,1904:0:0:0:70:SCG_F5s.wav
320,192,1904,128,0,2404:0:0:0:70:SCG_E5s.wav
64,192,2404,128,0,2904:0:0:0:70:SCG_C5s.wav
192,192,2904,128,2,3404:0:0:0:70:SCG_F5s.wav
448,192,3404,1,0,0:0:0:70:SCG_E5s.wav
320,192,3738,1,0,0:0:0:70:SCG_C5s.wav
64,192,4071,128,0,4571:0:0:0:70:SCG_F5s.wav
320,192,4571,128,0,5071:0:0:0:70:SCG_E5s.wav
192,192,5071,128,0,5571:0:0:0:70:SCG_C5s.wav
448,192,5571,128,0,6071:0:0:0:70:SCG_F5s.wav
64,192,6071,1,8,0:0:0:70:SCG_E5s.wav
192,192,6404,1,0,0:0:0:70:SCG_C5s.wav
448,192,6738,1,0,0:0:0:70:SCG_C5s.wav
320,192,7071,1,0,0:0:0:70:SCG_A#4s.wav
64,192,7238,128,0,7738:0:0:0:70:SCG_A#4s.wav
192,192,7738,128,0,8238:0:0:0:70:SCG_C5s.wav
448,192,8238,128,0,9404:0:0:0:70:SCG_F5s.wav
192,192,9404,1,0,0:0:0:70:SCG_C5s.wav
320,192,9738,1,0,0:0:0:70:SCG_A#4s.wav
64,192,9904,128,0,10404:0:0:0:70:SCG_A#4s.wav
192,192,10404,128,0,10904:0:0:0:70:SCG_C5s.wav
448,192,10904,128,0,11404:0:0:0:70:SCG_G5s.wav
192,192,11404,1,8,0:0:0:0:
320,192,11738,1,8,0:0:0:0:
192,192,11904,1,2,0:0:0:0:
64,192,12071,1,6,0:0:0:0:
448,192,12071,1,0,0:0:0:70:SCG_F5s.wav
64,192,12738,1,8,0:0:0:0:
320,192,12738,1,0,0:0:0:0:
448,192,13238,1,2,0:0:0:0:
192,192,13738,1,2,0:0:0:0:
64,192,14071,1,8,0:0:0:0:
320,192,14071,1,0,0:0:0:0:
192,192,14738,1,2,0:0:0:0:
64,192,15404,1,8,0:0:0:0:
448,192,15404,1,0,0:0:0:0:
192,192,15904,1,2,0:0:0:0:
320,192,16404,1,2,0:0:0:0:
64,192,16738,1,8,0:0:0:0:
448,192,16738,1,0,0:0:0:0:
320,192,17404,1,2,0:0:0:0:
192,192,18071,1,8,0:0:0:0:
448,192,18071,1,0,0:0:0:0:
64,192,18571,1,2,0:0:0:0:
320,192,19071,1,2,0:0:0:0:
192,192,19404,1,8,0:0:0:0:
448,192,19404,1,0,0:0:0:0:
320,192,20071,1,2,0:0:0:0:
64,192,20738,1,8,0:0:0:0:
192,192,20738,1,0,0:0:0:0:
448,192,21238,1,2,0:0:0:0:
64,192,21571,1,8,0:0:0:0:
192,192,22071,1,8,0:0:0:0:
320,192,22071,1,0,0:0:0:0:
64,192,22738,1,2,0:0:0:0:
448,192,22738,1,4,0:0:0:0:
192,192,23404,1,8,0:0:0:0:
448,192,23404,1,0,0:0:0:0:
64,192,23904,1,2,0:0:0:0:
320,192,24404,1,2,0:0:0:0:
192,192,24738,1,8,0:0:0:0:
448,192,24738,1,0,0:0:0:0:
320,192,25404,1,2,0:0:0:0:
64,192,25738,1,2,0:0:0:0:
320,192,26071,1,8,0:0:0:0:
448,192,26071,1,0,0:0:0:0:
192,192,26571,1,2,0:0:0:0:
320,192,27071,1,2,0:0:0:0:
64,192,27404,1,8,0:0:0:0:
448,192,27404,1,0,0:0:0:0:
192,192,28071,1,2,0:0:0:0:
64,192,28738,1,8,0:0:0:0:
320,192,28738,1,0,0:0:0:0:
448,192,29238,1,2,0:0:0:0:
192,192,29738,1,2,0:0:0:0:
64,192,30071,1,8,0:0:0:0:
320,192,30071,1,0,0:0:0:0:
192,192,30738,1,2,0:0:0:0:
448,192,31071,1,2,0:0:0:0:
64,192,31404,1,8,0:0:0:0:
192,192,31404,1,0,0:0:0:0:
320,192,31904,1,2,0:0:0:0:
64,192,32238,1,8,0:0:0:0:
320,192,32738,1,8,0:0:0:0:
448,192,32904,1,10,0:0:0:0:
192,192,33071,1,10,0:0:0:0:
320,192,33238,1,10,0:0:0:0:
64,192,33404,128,2,34071:0:0:0:0:
448,192,33404,1,4,0:0:0:0:
320,192,34071,1,8,0:0:0:0:
192,192,34404,128,2,35404:0:0:0:0:
448,192,34404,1,4,0:0:0:0:
320,192,35404,1,8,0:0:0:0:
64,192,35738,1,6,0:0:0:0:
448,192,35738,128,4,36404:0:0:0:0:
320,192,36404,1,2,0:0:0:0:
192,192,36738,1,8,0:0:0:0:
64,192,37071,1,0,0:0:0:0:
320,192,37404,1,2,0:0:0:0:
448,192,37738,1,8,0:0:0:0:
192,192,38071,1,8,0:0:0:0:
64,192,38238,1,8,0:0:0:0:
320,192,38404,1,8,0:0:0:0:
192,192,38571,1,2,0:0:0:0:
64,192,38738,1,2,0:0:0:0:
448,192,38738,128,4,39404:0:0:0:0:
192,192,39404,1,8,0:0:0:0:
64,192,39738,1,2,0:0:0:0:
320,192,39738,128,4,40738:0:0:0:0:
192,192,40738,1,8,0:0:0:0:
64,192,41071,128,2,41738:0:0:0:0:
448,192,41071,1,4,0:0:0:0:
192,192,41738,1,4,0:0:0:0:
320,192,41738,1,8,0:0:0:0:
448,192,42071,1,8,0:0:0:0:
192,192,42238,1,8,0:0:0:0:
64,192,42571,1,2,0:0:0:0:
320,192,42738,1,4,0:0:0:0:
448,192,42738,1,8,0:0:0:0:
192,192,42904,1,8,0:0:0:0:
448,192,43238,128,8,43404:0:0:0:0:
192,192,43404,1,8,0:0:0:0:
64,192,43571,1,8,0:0:0:0:
320,192,43738,1,8,0:0:0:0:
192,192,43904,1,8,0:0:0:0:
64,192,44071,1,2,0:0:0:0:
448,192,44071,1,4,0:0:0:0:
192,192,44404,1,2,0:0:0:0:
64,192,44738,1,8,0:0:0:0:
320,192,44738,1,0,0:0:0:0:
192,192,45238,1,2,0:0:0:0:
448,192,45571,1,2,0:0:0:0:
192,192,45738,1,2,0:0:0:0:
64,192,46071,1,8,0:0:0:0:
320,192,46071,1,0,0:0:0:0:
192,192,46738,1,2,0:0:0:0:
320,192,47071,1,2,0:0:0:0:
64,192,47404,1,8,0:0:0:0:
448,192,47404,1,0,0:0:0:0:
320,192,47904,1,2,0:0:0:0:
64,192,48238,1,8,0:0:0:0:
320,192,48404,1,2,0:0:0:0:
64,192,48738,1,8,0:0:0:0:
448,192,48738,1,0,0:0:0:0:
192,192,49404,1,2,0:0:0:0:
448,192,49738,1,2,0:0:0:0:
64,192,50071,1,8,0:0:0:0:
320,192,50071,1,0,0:0:0:0:
192,192,50571,1,2,0:0:0:0:
320,192,50904,1,2,0:0:0:0:
64,192,51071,1,2,0:0:0:0:
192,192,51404,1,8,0:0:0:0:
448,192,51404,1,0,0:0:0:0:
320,192,52071,1,2,0:0:0:0:
192,192,52404,1,2,0:0:0:0:
64,192,52738,1,8,0:0:0:0:
448,192,52738,1,0,0:0:0:0:
320,192,53071,1,0,0:0:0:0:
64,192,53238,1,2,0:0:0:0:
448,192,53571,1,8,0:0:0:0:
192,192,54071,1,8,0:0:0:0:
320,192,54404,1,2,0:0:0:0:
192,192,54571,1,2,0:0:0:0:
64,192,54738,1,2,0:0:0:0:
448,192,54738,1,4,0:0:0:0:
320,192,55071,1,2,0:0:0:0:
192,192,55404,1,8,0:0:0:0:
448,192,55404,1,0,0:0:0:0:
320,192,55904,1,2,0:0:0:0:
64,192,56238,1,2,0:0:0:0:
320,192,56404,1,2,0:0:0:0:
192,192,56738,1,8,0:0:0:0:
448,192,56738,1,0,0:0:0:0:
320,192,57404,1,2,0:0:0:0:
192,192,57738,1,2,0:0:0:0:
64,192,58071,1,8,0:0:0:0:
448,192,58071,1,0,0:0:0:0:
192,192,58571,1,2,0:0:0:0:
448,192,58904,1,8,0:0:0:0:
192,192,59071,1,2,0:0:0:0:
64,192,59404,1,8,0:0:0:0:
448,192,59404,1,0,0:0:0:0:
320,192,60071,1,2,0:0:0:0:
64,192,60404,1,2,0:0:0:0:
320,192,60738,1,8,0:0:0:0:
192,192,60738,1,0,0:0:0:0:
448,192,61238,1,2,0:0:0:0:
64,192,61571,1,2,0:0:0:0:
320,192,61738,1,2,0:0:0:0:
448,192,62071,1,8,0:0:0:0:
64,192,62071,1,0,0:0:0:0:
448,192,62738,1,2,0:0:0:0:
320,192,63071,1,2,0:0:0:0:
192,192,63404,1,8,0:0:0:0:
64,192,63404,1,0,0:0:0:0:
320,192,63904,1,2,0:0:0:0:
64,192,64238,128,8,64738:0:0:0:0:
320,192,64738,1,8,0:0:0:0:
448,192,64904,1,8,0:0:0:0:
192,192,65071,1,8,0:0:0:0:
320,192,65238,1,2,0:0:0:0:
64,192,65404,1,6,0:0:0:0:
448,192,65404,128,0,65904:0:0:0:70:SCG_F5s.wav
192,192,65904,128,0,66404:0:0:0:70:SCG_E5s.wav
64,192,66404,128,0,66904:0:0:0:70:SCG_C5s.wav
320,192,66904,128,2,67404:0:0:0:70:SCG_F5s.wav
448,192,67404,1,8,0:0:0:70:SCG_E5s.wav
192,192,67738,1,0,0:0:0:70:SCG_C5s.wav
64,192,68071,128,2,68571:0:0:0:70:SCG_F5s.wav
320,192,68571,128,0,69071:0:0:0:70:SCG_E5s.wav
448,192,69071,128,0,69571:0:0:0:70:SCG_C5s.wav
192,192,69571,128,8,70071:0:0:0:70:SCG_F5s.wav
64,192,70071,1,8,0:0:0:70:SCG_E5s.wav
320,192,70404,1,0,0:0:0:70:SCG_C5s.wav
448,192,70738,1,2,0:0:0:70:SCG_C5s.wav
192,192,71071,1,2,0:0:0:70:SCG_A#4s.wav
64,192,71238,128,0,71738:0:0:0:70:SCG_A#4s.wav
320,192,71738,128,0,72238:0:0:0:70:SCG_C5s.wav
448,192,72238,128,2,73404:0:0:0:70:SCG_F5s.wav
192,192,73404,1,2,0:0:0:70:SCG_C5s.wav
320,192,73738,1,2,0:0:0:70:SCG_A#4s.wav
64,192,73904,128,0,74404:0:0:0:70:SCG_A#4s.wav
192,192,74404,128,0,74904:0:0:0:70:SCG_C5s.wav
448,192,74904,128,8,75404:0:0:0:70:SCG_G5s.wav
64,192,75404,1,8,0:0:0:0:
320,192,75738,1,10,0:0:0:0:
192,192,75904,1,2,0:0:0:0:
64,192,76071,128,6,77404:0:0:0:0:
448,192,76071,1,0,0:0:0:70:SCG_F5s.wav
